osu file format v14

[General]
AudioFilename: audio.mp3
AudioLeadIn: 0
PreviewTime: 57551
Countdown: 0
SampleSet: Soft
StackLeniency: 0.6
Mode: 0
LetterboxInBreaks: 0
WidescreenStoryboard: 1

[Editor]
Bookmarks: 183,5486,10790,16094,37310,63663
DistanceSpacing: 0.3
BeatDivisor: 8
GridSize: 32
TimelineZoom: 3.199999

[Metadata]
Title:No.1 (TV Size)
TitleUnicode:No.1 (TV Size)
Artist:DISH//
ArtistUnicode:DISH//
Creator:-karUpA-
Version:Expert
Source:僕のヒーローアカデミア
Tags:Ninjaking311 op opening my hero academia bnha season 5 boku no japanese anime j-rock jrock rock
BeatmapID:3654817
BeatmapSetID:1642834

[Difficulty]
HPDrainRate:5.5
CircleSize:4
OverallDifficulty:8.8
ApproachRate:9.2
SliderMultiplier:1.7
SliderTickRate:1

[Events]
//Background and Video events
0,0,"okkkkkkkk.png",0,0
Video,0,"bnh720.mp4"
//Break Periods
//Storyboard Layer 0 (Background)
//Storyboard Layer 1 (Fail)
//Storyboard Layer 2 (Pass)
//Storyboard Layer 3 (Foreground)
//Storyboard Layer 4 (Overlay)
//Storyboard Sound Samples

[TimingPoints]
183,331.491712707182,4,2,1,50,1,0
183,-142.857142857143,4,2,1,50,0,0
2834,-166.666666666667,4,2,1,50,0,0
3083,-125,4,2,1,5,0,0
3166,-142.857142857143,4,2,1,50,0,0
3415,-125,4,2,1,5,0,0
3497,-125,4,2,1,50,0,0
3746,-125,4,2,1,5,0,0
3829,-142.857142857143,4,2,1,50,0,0
4409,-125,4,2,1,5,0,0
4492,-125,4,2,1,50,0,0
4741,-125,4,2,1,5,0,0
4823,-125,4,2,1,50,0,0
5072,-125,4,2,1,5,0,0
5155,-83.3333333333333,4,2,1,60,0,0
5403,-83.3333333333333,4,2,1,5,0,0
5486,-111.111111111111,4,2,1,60,0,0
7061,-111.111111111111,4,2,1,5,0,0
7144,-111.111111111111,4,2,1,60,0,0
9464,-142.857142857143,4,2,1,60,0,0
10790,-90.9090909090909,4,2,1,75,0,0
16094,-125,4,2,1,60,0,0
18746,-125,4,2,1,60,0,0
22724,-125,4,2,1,60,0,0
25293,-125,4,2,1,5,0,0
25376,-125,4,2,1,60,0,0
27282,-125,4,2,1,5,0,0
27365,-125,4,2,1,60,0,0
28608,-125,4,2,1,5,0,0
28691,-125,4,2,1,60,0,0
29354,-125,4,2,1,60,0,0
29602,-125,4,2,1,5,0,0
29685,-125,4,2,1,60,0,0
34658,-125,4,2,1,60,0,0
36647,-200,4,2,1,60,0,0
36895,-200,4,2,1,5,0,0
36978,-83.3333333333333,4,2,1,60,0,0
37227,-83.3333333333333,4,2,1,5,0,0
37310,-111.111111111111,4,2,1,70,0,0
38884,-111.111111111111,4,2,1,5,0,0
38967,-111.111111111111,4,2,1,70,0,0
39630,-111.111111111111,4,2,1,70,0,0
42613,-111.111111111111,4,2,1,70,0,0
48166,-111.111111111111,4,2,1,5,0,0
48249,-111.111111111111,4,2,1,70,0,0
50238,-83.3333333333333,4,2,1,70,0,0
50486,-83.3333333333333,4,2,1,5,0,0
50569,-142.857142857143,4,2,1,70,0,0
50818,-142.857142857143,4,2,1,5,0,0
50901,-99.9999999999999,4,2,1,70,0,0
51149,-99.9999999999999,4,2,1,5,0,0
51232,-83.3333333333333,4,2,1,70,0,0
51481,-83.3333333333333,4,2,1,5,0,0
51564,-111.111111111111,4,2,1,70,0,0
52227,-111.111111111111,4,2,1,70,0,0
53221,-90.9090909090909,4,2,1,75,0,0
57696,-90.9090909090909,4,2,1,60,0,0
58359,-90.9090909090909,4,2,1,60,0,0
58525,-83.3333333333333,4,2,1,85,0,1
58857,-90.9090909090909,4,2,1,85,0,1
59188,-90.9090909090909,4,2,1,85,0,1
61177,-90.9090909090909,4,2,1,85,0,1
61426,-90.9090909090909,4,2,1,85,0,1
61508,-90.9090909090909,4,2,1,85,0,1
63829,-90.9090909090909,4,2,1,85,0,1
65238,-90.9090909090909,4,2,1,5,0,1
65321,-90.9090909090909,4,2,1,85,0,1
65901,-90.9090909090909,4,2,1,85,0,1
65984,-90.9090909090909,4,2,1,85,0,1
66729,-90.9090909090909,4,2,1,5,0,1
66812,-90.9090909090909,4,2,1,85,0,1
69133,-100,4,2,1,75,0,0
69299,-100,4,2,1,5,0,0
69354,-100,4,2,1,75,0,0
69520,-100,4,2,1,5,0,0
69575,-100,4,2,1,75,0,0
69962,-100,4,2,1,5,0,0
70017,-100,4,2,1,75,0,0
70182,-100,4,2,1,5,0,0
70238,-100,4,2,1,75,0,0
70680,-100,4,2,1,75,0,0
70845,-100,4,2,1,5,0,0
70901,-100,4,2,1,75,0,0
71343,-100,4,2,1,75,0,0
71508,-100,4,2,1,5,0,0
71564,-100,4,2,1,75,0,0
71785,-142.857142857143,4,2,1,75,0,0
72033,-100,4,2,1,5,0,0
72116,-100,4,2,1,75,0,0
72365,-100,4,2,1,5,0,0
72448,-83.3333333333333,4,2,1,75,0,0
72696,-83.3333333333333,4,2,1,5,0,0
72779,-142.857142857143,4,2,1,85,0,0
73276,-100,4,2,1,85,0,0
74437,-90.9090909090909,4,2,1,85,0,1
76011,-90.9090909090909,4,2,1,85,0,1
76094,-90.9090909090909,4,2,1,85,0,1
76343,-90.9090909090909,4,2,1,5,0,1
76426,-90.9090909090909,4,2,1,85,0,1
78415,-90.9090909090909,4,2,1,85,0,1
79741,-100,4,2,1,70,0,0
82393,-100,4,2,1,70,0,0
85044,-90.9090909090909,4,2,1,75,0,0
87696,-125,4,2,1,60,0,0

[Colours]
Combo1 : 128,128,192
Combo2 : 128,255,255
Combo3 : 0,128,128
Combo4 : 0,128,255

[HitObjects]
338,77,183,6,0,L|422:58,2,79.3333309122722,2|2|2,0:0|0:0|0:0,0:0:0:0:
277,146,845,2,0,L|193:125,2,79.3333309122722,2|2|2,0:0|0:0|0:0,0:0:0:0:
99,65,1508,6,0,P|81:128|86:141,2,79.3333309122722,2|2|2,0:0|0:0|0:0,0:0:0:0:
197,95,2171,2,0,P|200:53|181:15,2,79.3333309122722,2|2|2,0:0|0:0|0:0,0:0:0:0:
296,186,2834,6,0,B|310:154|310:154|301:204|310:218,1,76.4999976654053,2|0,0:0|0:0,0:0:0:0:
391,145,3166,2,0,P|369:93|331:81,1,89.2499972763062,2|0,0:0|0:0,0:0:0:0:
254,35,3497,2,0,B|319:17|306:55|375:41,1,102,2|0,0:0|0:0,0:0:0:0:
452,17,3829,6,0,B|432:112|432:112|448:150|448:150|430:243,1,208.249993644715,2|0,0:0|0:0,0:0:0:0:
449,294,4492,1,2,0:0:0:0:
315,290,4823,2,0,P|324:240|335:165,1,102,2|0,0:0|0:0,0:0:0:0:
260,128,5155,2,0,P|330:128|277:175,1,152.999995330811,14|0,0:0|0:0,0:0:0:0:
192,182,5486,6,0,P|138:173|94:167,1,76.4999976654053,0|0,1:2|0:0,0:0:0:0:
130,61,5818,2,0,P|170:66|212:75,1,76.4999976654053,0|0,1:2|0:0,0:0:0:0:
312,19,6149,2,0,P|326:79|338:110,1,76.4999976654053,0|0,1:2|0:0,0:0:0:0:
415,179,6481,2,0,P|401:239|389:266,1,76.4999976654053,0|0,1:2|0:0,0:0:0:0:
214,212,6812,6,0,P|258:201|351:176,1,114.749996498108,0|0,1:2|0:0,0:0:0:0:
289,114,7144,2,0,P|229:130|196:136,1,76.4999976654053,2|0,1:2|0:0,0:0:0:0:
123,48,7475,2,0,P|83:38|44:25,1,76.4999976654053,2|0,1:2|0:0,0:0:0:0:
10,157,7807,2,0,P|34:217|43:243,1,76.4999976654053,2|0,1:2|0:0,0:0:0:0:
166,293,8138,5,0,1:2:0:0:
33,245,8304,1,0,1:2:0:0:
77,108,8470,1,0,1:2:0:0:
210,156,8636,1,0,1:2:0:0:
108,218,8801,5,0,1:2:0:0:
289,285,8967,1,0,1:2:0:0:
284,69,9133,1,0,1:2:0:0:
108,116,9299,1,14,0:0:0:0:
363,220,9464,6,0,L|386:226,1,14.874999546051,2|2,0:0|0:0,0:0:0:0:
332,147,10790,6,0,P|270:182|230:165,1,93.5000028533936,6|8,1:2|0:0,0:0:0:0:
189,134,11039,1,8,0:0:0:0:
162,95,11122,1,8,0:0:0:0:
172,49,11205,1,8,0:0:0:0:
213,27,11287,6,0,P|268:31|315:32,1,93.5000028533936,6|8,1:2|0:0,0:0:0:0:
379,41,11536,1,8,0:0:0:0:
390,34,11619,2,0,L|401:104,1,46.7500014266968,8|8,0:0|0:0,0:0:0:0:
416,202,11785,1,6,1:2:0:0:
500,82,11950,6,0,L|483:142,1,46.7500014266968,8|8,0:0|0:0,0:0:0:0:
404,213,12116,2,0,L|421:273,1,46.7500014266968,8|8,0:0|0:0,0:0:0:0:
451,381,12282,1,2,1:2:0:0:
324,318,12448,5,8,0:0:0:0:
277,326,12531,1,8,0:0:0:0:
232,337,12613,1,8,0:0:0:0:
186,346,12696,1,8,0:0:0:0:
140,356,12779,6,0,P|109:298|117:269,1,93.5000028533936,2|8,1:2|0:0,0:0:0:0:
147,205,13028,1,8,0:0:0:0:
157,196,13111,2,0,L|148:136,1,46.7500014266968,8|8,0:0|0:0,0:0:0:0:
51,69,13276,2,0,L|44:115,1,46.7500014266968,0|0,1:2|1:2,0:0:0:0:
235,191,13442,6,0,L|214:79,1,93.5000028533936,6|8,1:2|0:0,0:0:0:0:
195,22,13691,1,8,0:0:0:0:
239,6,13774,1,8,0:0:0:0:
284,19,13857,1,8,0:0:0:0:
304,60,13939,6,0,L|321:151,1,93.5000028533936,6|8,1:2|0:0,0:0:0:0:
370,215,14188,1,8,0:0:0:0:
376,227,14271,2,0,L|360:280,1,46.7500014266968,8|8,0:0|0:0,0:0:0:0:
307,384,14437,1,6,1:2:0:0:
158,262,14602,6,0,P|206:250|223:243,1,46.7500014266968,8|8,0:0|0:0,0:0:0:0:
276,129,14768,2,0,P|269:151|264:174,1,46.7500014266968,8|8,0:0|0:0,0:0:0:0:
344,288,14934,1,6,1:2:0:0:
188,175,15100,5,8,0:0:0:0:
148,151,15182,1,8,0:0:0:0:
101,151,15265,1,8,0:0:0:0:
60,174,15348,1,8,0:0:0:0:
45,218,15431,5,8,0:0:0:0:
51,240,15514,1,8,0:0:0:0:
57,262,15597,1,2,1:2:0:0:
62,284,15680,1,0,1:2:0:0:
68,306,15763,2,0,L|115:316,1,46.7500014266968,8|8,3:0|3:0,0:0:0:0:
188,175,15928,2,0,L|141:185,1,46.7500014266968,6|4,3:0|3:0,0:0:0:0:
292,246,16094,6,0,P|323:207|325:169,1,68,6|0,1:2|0:0,0:0:0:0:
461,216,16426,2,0,P|425:167|423:85,1,136,2|0,1:2|1:2,0:0:0:0:
443,11,17089,1,0,1:2:0:0:
455,4,17254,1,2,0:0:0:0:
331,72,17420,6,0,P|271:81|242:84,1,68,2|0,1:2|0:0,0:0:0:0:
173,23,17752,2,0,B|140:63|140:63|163:144,1,136,2|0,1:2|1:2,0:0:0:0:
192,225,18415,1,0,1:2:0:0:
186,238,18580,1,2,0:0:0:0:
334,178,18746,6,0,P|390:193|401:196,1,68,2|0,1:2|0:0,0:0:0:0:
378,281,19078,2,0,P|345:272|312:263,1,68,2|0,1:2|0:0,0:0:0:0:
142,341,19409,2,0,P|198:326|209:323,1,68,2|0,1:2|0:0,0:0:0:0:
186,238,19741,2,0,P|153:246|120:255,1,68,2|0,1:2|0:0,0:0:0:0:
19,177,20072,6,0,P|-4:110|46:57,1,136,2|0,1:2|1:2,0:0:0:0:
118,17,20569,2,0,L|273:36,1,136,2|0,0:0|0:0,0:0:0:0:
340,101,21066,1,2,1:2:0:0:
354,95,21232,1,2,0:0:0:0:
244,187,21398,6,0,P|251:241|256:270,1,68,2|0,1:2|0:0,0:0:0:0:
146,152,21729,2,0,P|153:202|162:290,1,136,2|0,1:2|1:2,0:0:0:0:
98,354,22392,1,0,1:2:0:0:
82,348,22558,1,2,0:0:0:0:
225,372,22724,6,0,P|276:358|302:350,1,68,2|0,1:2|0:0,0:0:0:0:
368,261,23055,2,0,P|419:275|445:283,1,68,2|0,1:2|0:0,0:0:0:0:
326,169,23387,2,0,P|280:210|280:227,1,68,2|0,1:2|0:0,0:0:0:0:
419,134,23718,2,0,P|378:88|361:88,1,68,2|0,1:2|0:0,0:0:0:0:
308,20,24050,6,0,B|251:31|251:31|237:55|237:55|180:72,1,136,2|0,1:2|1:2,0:0:0:0:
101,35,24547,2,0,P|86:75|132:149,1,136,2|0,0:0|0:0,0:0:0:0:
266,129,25044,2,0,P|248:190|235:253,1,102,2|0,1:2|0:0,0:0:0:0:
156,271,25376,6,0,B|236:242|220:291|315:274,1,136,2|0,1:2|1:2,0:0:0:0:
387,237,25873,2,0,B|374:209|387:164|387:164|363:210|321:217,1,136,2|0,0:0|0:0,0:0:0:0:
464,188,26370,1,2,1:2:0:0:
377,41,26536,5,2,1:2:0:0:
377,41,26619,1,0,1:2:0:0:
377,41,26702,2,0,P|320:49|291:53,1,68,2|0,1:2|0:0,0:0:0:0:
218,120,27033,2,0,P|161:112|89:103,1,102,2|0,1:2|0:0,0:0:0:0:
42,94,27365,1,0,1:2:0:0:
142,196,27531,1,0,0:0:0:0:
66,247,27696,2,0,B|50:211|50:211|61:172,1,68,0|2,1:2|0:0,0:0:0:0:
184,303,28028,6,0,L|99:327,1,68,2|0,1:2|0:0,0:0:0:0:
231,220,28359,2,0,L|343:245,1,102,2|0,1:2|0:0,0:0:0:0:
404,259,28691,1,0,1:2:0:0:
308,325,28857,1,0,0:0:0:0:
430,255,29022,2,0,P|441:202|450:175,1,68,0|2,1:2|0:0,0:0:0:0:
396,88,29354,6,0,B|468:69|468:69|487:82|485:100,1,102,2|0,1:2|0:0,0:0:0:0:
397,105,29685,2,0,P|357:95|327:88,1,68,2|0,1:2|0:0,0:0:0:0:
219,53,30017,2,0,P|229:93|236:123,1,68,2|0,1:2|0:0,0:0:0:0:
205,228,30348,2,0,P|245:218|275:211,1,68,2|0,1:2|0:0,0:0:0:0:
329,297,30680,6,0,P|261:313|191:334,1,136,2|0,1:2|1:2,0:0:0:0:
110,379,31177,1,2,0:0:0:0:
205,228,31343,2,0,P|216:177|224:146,1,68,2|2,1:2|0:0,0:0:0:0:
302,206,31674,1,2,1:2:0:0:
149,117,31840,5,2,1:2:0:0:
149,117,31923,1,0,1:2:0:0:
149,117,32006,2,0,B|94:126|94:126|77:149|77:149|26:169,1,136,2|0,1:2|1:2,0:0:0:0:
17,73,32503,1,2,0:0:0:0:
147,198,32669,2,0,B|202:207|202:207|219:230|219:230|270:250,1,136,2|0,1:2|1:2,0:0:0:0:
150,277,33166,1,2,0:0:0:0:
281,163,33332,6,0,B|283:69|283:69|296:93|321:112,1,136,2|0,1:2|1:2,0:0:0:0:
191,114,33829,1,0,0:0:0:0:
361,30,33995,2,0,P|407:36|446:39,1,68,2|0,1:2|0:0,0:0:0:0:
248,15,34326,2,0,P|214:11|180:7,1,68,2|0,1:2|0:0,0:0:0:0:
51,8,34658,6,0,P|71:73|91:153,1,136,2|0,1:2|1:2,0:0:0:0:
233,109,35155,2,0,P|187:88|164:77,1,68,2|0,0:0|1:2,0:0:0:0:
248,15,35486,1,0,0:0:0:0:
297,176,35652,2,0,P|343:155|366:144,1,68,2|0,1:2|0:0,0:0:0:0:
458,65,35984,5,0,1:2:0:0:
443,154,36149,1,8,3:0:0:0:
473,55,36315,1,0,1:2:0:0:
458,144,36480,1,4,3:0:0:0:
363,9,36647,6,0,P|326:20|292:26,1,63.75,2|0,0:0|0:0,0:0:0:0:
239,71,36978,6,0,P|178:56|77:36,1,152.999995330811,8|0,0:0|0:0,0:0:0:0:
95,122,37310,6,0,P|162:140|180:144,1,76.4999976654053,6|0,1:2|0:0,0:0:0:0:
237,268,37641,2,0,P|170:286|152:290,1,76.4999976654053,10|0,0:0|0:0,0:0:0:0:
278,180,37973,1,0,1:2:0:0:
336,328,38138,1,0,1:2:0:0:
278,160,38304,2,0,P|345:178|363:182,1,76.4999976654053,8|2,0:0|0:0,0:0:0:0:
470,53,38636,6,0,P|419:89|423:142,1,114.749996498108,2|0,1:2|0:0,0:0:0:0:
469,201,38967,2,0,L|451:278,1,76.4999976654053,10|0,0:0|0:0,0:0:0:0:
384,384,39299,1,0,1:2:0:0:
298,233,39464,1,0,1:2:0:0:
298,233,39547,1,0,1:2:0:0:
298,233,39630,1,8,0:0:0:0:
429,294,39796,1,2,0:0:0:0:
269,384,39962,6,0,P|259:334|252:291,1,76.4999976654053,2|0,1:2|0:0,0:0:0:0:
357,173,40293,2,0,P|350:210|342:248,1,76.4999976654053,10|0,0:0|0:0,0:0:0:0:
256,150,40624,1,2,1:2:0:0:
367,78,40790,1,0,1:2:0:0:
240,234,40956,2,0,P|194:222|169:190,1,76.4999976654053,10|0,0:0|0:0,0:0:0:0:
203,351,41287,6,0,B|293:348|256:284|361:293,1,152.999995330811,0|8,1:2|0:0,0:0:0:0:
502,358,41785,1,2,0:0:0:0:
451,198,41950,1,2,1:2:0:0:
356,366,42116,1,2,1:2:0:0:
457,287,42282,1,10,0:0:0:0:
281,193,42448,5,2,0:0:0:0:
281,193,42531,1,2,0:0:0:0:
281,193,42613,2,0,P|346:181|365:178,1,76.4999976654053,2|0,1:2|0:0,0:0:0:0:
174,215,42945,2,0,P|136:221|98:228,1,76.4999976654053,10|0,0:0|0:0,0:0:0:0:
1,142,43276,1,0,1:2:0:0:
83,246,43442,1,0,1:2:0:0:
130,83,43608,2,0,P|78:68|37:91,1,76.4999976654053,10|0,0:0|0:0,0:0:0:0:
234,135,43939,6,0,P|255:69|264:45,1,76.4999976654053,2|0,1:2|0:0,0:0:0:0:
406,0,44271,2,0,P|418:36|429:72,1,76.4999976654053,10|0,0:0|0:0,0:0:0:0:
329,169,44602,1,2,1:2:0:0:
442,81,44768,1,0,1:2:0:0:
501,261,44934,2,0,P|460:265|423:276,1,76.4999976654053,10|0,0:0|0:0,0:0:0:0:
272,279,45265,6,0,P|291:189|299:120,1,152.999995330811,0|8,1:2|0:0,0:0:0:0:
129,155,45763,2,0,P|187:175|217:183,1,76.4999976654053,2|0,0:0|1:2,0:0:0:0:
160,57,46094,1,2,1:2:0:0:
27,121,46260,2,0,P|36:173|42:202,1,76.4999976654053,10|2,0:0|0:0,0:0:0:0:
170,288,46591,5,2,1:2:0:0:
170,288,46674,1,2,0:0:0:0:
170,288,46757,1,2,1:2:0:0:
29,353,46923,1,10,0:0:0:0:
192,278,47089,2,0,P|178:218|170:181,1,76.4999976654053,2|0,0:0|1:2,0:0:0:0:
81,283,47420,1,2,1:2:0:0:
289,292,47586,2,0,P|280:329|271:366,1,76.4999976654053,8|2,0:0|0:0,0:0:0:0:
398,223,47917,6,0,L|260:187,1,114.749996498108,2|0,1:2|0:0,0:0:0:0:
211,172,48249,2,0,P|199:133|212:95,1,76.4999976654053,10|0,0:0|0:0,0:0:0:0:
290,2,48580,1,0,1:2:0:0:
127,53,48746,1,0,1:2:0:0:
308,0,48912,2,0,P|319:52|325:80,1,76.4999976654053,8|2,0:0|0:0,0:0:0:0:
451,156,49243,1,2,1:2:0:0:
318,94,49409,1,0,1:2:0:0:
511,0,49575,5,10,0:0:0:0:
360,170,49741,1,0,1:2:0:0:
202,2,49906,5,8,0:0:0:0:
452,65,50072,1,0,1:2:0:0:
259,222,50238,6,0,B|215:180|228:134|228:134|245:164|270:176,1,152.999995330811,6|0,3:0|0:0,0:0:0:0:
360,170,50569,6,0,B|388:139|382:107|382:107|363:130|345:133,1,89.2499972763062,6|0,1:2|0:0,0:0:0:0:
313,45,50901,6,0,P|368:86|441:75,1,127.5,6|0,1:2|0:0,0:0:0:0:
501,26,51232,6,0,P|477:95|453:191,1,152.999995330811,6|0,1:2|0:0,0:0:0:0:
389,275,51564,6,0,B|373:304|407:316|407:316|410:272|449:248|449:248|450:180|377:163|377:163|375:204|330:218,1,305.999990661621,6|10,1:2|0:0,0:0:0:0:
181,151,52392,1,8,0:0:0:0:
181,151,52474,1,8,0:0:0:0:
181,151,52557,1,10,0:0:0:0:
252,320,52724,1,8,3:3:0:0:
280,190,52890,1,6,3:3:0:0:
251,334,53055,1,0,0:0:0:0:
42,202,53221,6,0,P|17:165|25:104,1,93.5000028533936,6|8,1:2|0:0,0:0:0:0:
51,47,53470,1,8,0:0:0:0:
63,41,53553,2,0,L|122:58,1,46.7500014266968,8|8,0:0|0:0,0:0:0:0:
261,97,53718,1,2,1:2:0:0:
149,199,53884,6,0,L|165:137,1,46.7500014266968,8|8,0:0|0:0,0:0:0:0:
280,86,54050,2,0,L|291:131,1,46.7500014266968,8|8,0:0|0:0,0:0:0:0:
337,292,54216,1,2,1:2:0:0:
488,195,54381,5,8,0:0:0:0:
488,195,54464,1,8,0:0:0:0:
488,195,54547,2,0,P|502:143|486:98,1,93.5000028533936,6|8,1:2|0:0,0:0:0:0:
419,84,54796,5,8,0:0:0:0:
404,89,54879,2,0,L|388:138,1,46.7500014266968,8|8,0:0|0:0,0:0:0:0:
343,272,55044,1,2,1:2:0:0:
222,140,55210,5,8,0:0:0:0:
178,123,55293,1,8,0:0:0:0:
134,140,55376,1,8,0:0:0:0:
115,182,55459,1,8,0:0:0:0:
124,227,55542,1,2,1:2:0:0:
292,200,55707,6,0,L|307:147,1,46.7500014266968,10|8,0:0|0:0,0:0:0:0:
351,0,55873,1,6,1:2:0:0:
166,77,56039,6,0,L|181:137,1,46.7500014266968,8|8,0:0|0:0,0:0:0:0:
292,200,56205,2,0,L|277:260,1,46.7500014266968,10|8,0:0|0:0,0:0:0:0:
183,363,56370,5,8,0:0:0:0:
219,333,56453,1,8,0:0:0:0:
265,328,56536,1,8,0:0:0:0:
307,346,56619,1,8,0:0:0:0:
345,372,56702,1,10,0:0:0:0:
391,370,56785,1,8,0:0:0:0:
425,338,56868,6,0,L|447:263,1,46.7500014266968,10|8,0:0|0:0,0:0:0:0:
374,161,57033,2,0,L|352:86,1,46.7500014266968,8|8,0:0|0:0,0:0:0:0:
483,3,57199,5,14,1:2:0:0:
220,145,57365,1,6,1:2:0:0:
220,145,58525,6,0,P|252:89|382:98,1,203.999993774414,6|10,1:2|0:0,0:0:0:0:
196,12,59022,1,2,0:0:0:0:
196,12,59105,1,2,0:0:0:0:
196,12,59188,1,0,1:2:0:0:
313,159,59354,2,0,P|301:204|288:260,1,93.5000028533936,2|8,1:2|0:0,0:0:0:0:
101,96,59685,2,0,P|113:141|126:197,1,93.5000028533936,2|0,0:0|1:2,0:0:0:0:
286,36,60017,2,0,P|227:20|188:9,1,93.5000028533936,2|8,0:0|0:0,0:0:0:0:
313,159,60348,5,2,0:0:0:0:
423,0,60514,1,2,1:2:0:0:
234,113,60680,1,2,1:2:0:0:
450,206,60845,1,10,0:0:0:0:
364,52,61011,1,2,0:0:0:0:
265,312,61177,6,0,B|328:266|328:266|312:155,1,187.000005706787,2|10,1:2|0:0,0:0:0:0:
171,310,61674,2,0,P|184:369|227:387,1,93.5000028533936,2|0,0:0|1:2,0:0:0:0:
165,182,62006,1,2,1:2:0:0:
23,329,62171,1,10,0:0:0:0:
50,89,62337,6,0,B|131:79|131:79|161:58|161:58|265:42,1,187.000005706787,2|0,1:2|1:2,0:0:0:0:
382,180,62834,1,8,0:0:0:0:
223,123,63000,1,2,0:0:0:0:
428,0,63166,1,2,1:2:0:0:
295,166,63332,1,2,1:2:0:0:
512,235,63497,1,10,0:0:0:0:
340,17,63663,5,2,0:0:0:0:
340,17,63746,1,2,0:0:0:0:
340,17,63829,2,0,B|230:-6|230:-6|190:17|206:67,1,187.000005706787,6|10,1:2|0:0,0:0:0:0:
428,187,64326,2,0,P|452:130|469:81,1,93.5000028533936,2|0,0:0|1:2,0:0:0:0:
216,143,64658,2,0,P|232:186|250:229,1,93.5000028533936,2|8,1:2|0:0,0:0:0:0:
423,329,64989,6,0,P|362:280|290:319,1,140.25000428009,2|0,0:0|0:0,0:0:0:0:
244,335,65321,2,0,L|137:318,1,93.5000028533936,2|8,1:2|0:0,0:0:0:0:
0,198,65652,2,0,P|16:269|20:294,1,93.5000028533936,2|0,0:0|1:2,0:0:0:0:
213,136,65984,2,0,P|197:207|193:232,1,93.5000028533936,2|8,1:2|0:0,0:0:0:0:
104,128,66315,1,2,0:0:0:0:
316,233,66481,6,0,B|353:184|353:184|321:69,1,140.25000428009,2|0,1:2|0:0,0:0:0:0:
283,45,66812,2,0,L|160:58,1,93.5000028533936,10|0,0:0|0:0,0:0:0:0:
73,205,67144,1,2,1:2:0:0:
0,44,67310,1,0,1:2:0:0:
176,219,67475,2,0,P|209:158|197:112,1,93.5000028533936,10|0,0:0|0:0,0:0:0:0:
73,205,67807,5,0,1:2:0:0:
265,295,67973,1,0,1:2:0:0:
50,210,68138,2,0,L|69:314,1,93.5000028533936,8|0,0:0|0:0,0:0:0:0:
244,151,68470,1,8,0:0:0:0:
160,341,68636,1,8,3:0:0:0:
95,122,68801,1,8,3:0:0:0:
195,246,68967,1,0,1:2:0:0:
332,39,69133,6,0,P|278:24|251:64,1,85,6|0,1:2|0:0,0:0:0:0:
212,98,69354,2,0,P|232:167|239:187,1,85,2|0,2:2|0:0,0:0:0:0:
272,248,69575,1,2,2:2:0:0:
449,137,69796,6,0,P|395:125|356:119,1,85,8|0,0:0|0:0,0:0:0:0:
350,202,70017,2,0,P|391:209|433:218,1,85,2|0,2:2|0:0,0:0:0:0:
496,263,70238,1,2,2:2:0:0:
374,381,70459,6,0,P|331:357|327:301,1,85,2|8,1:2|0:0,0:0:0:0:
249,285,70680,2,0,P|235:237|272:195,1,85,2|0,2:2|0:0,0:0:0:0:
291,144,70901,1,2,2:2:0:0:
129,40,71122,6,0,B|140:92|140:92|136:94|136:94|146:138,1,85,10|0,0:0|1:2,0:0:0:0:
85,178,71343,2,0,B|74:230|74:230|78:232|78:232|68:276,1,85,2|0,2:2|0:0,0:0:0:0:
24,324,71564,1,2,0:0:0:0:
320,248,71785,6,0,P|390:272|412:284,1,89.2499972763062,2|0,1:2|0:0,0:0:0:0:
472,237,72116,6,0,P|496:191|448:127,1,127.5,2|0,0:0|0:0,0:0:0:0:
380,87,72448,6,0,P|457:110|496:45,1,152.999995330811,10|0,0:0|0:0,0:0:0:0:
368,4,72779,6,0,P|313:22|176:46,1,178.499994552612,14|8,1:2|0:0,0:0:0:0:
225,233,73442,2,0,P|266:186|267:157,1,85,2|0,0:0|1:2,0:0:0:0:
101,87,73774,5,10,0:0:0:0:
138,304,73939,1,0,1:2:0:0:
188,53,74105,5,10,0:0:0:0:
233,320,74270,1,8,0:0:0:0:
233,320,74354,1,8,0:0:0:0:
233,320,74437,6,0,L|331:341,1,93.5000028533936,4|0,1:2|0:0,0:0:0:0:
360,139,74768,2,0,L|262:159,1,93.5000028533936,8|0,0:0|0:0,0:0:0:0:
419,260,75100,1,0,1:2:0:0:
475,77,75265,1,0,1:2:0:0:
302,240,75431,2,0,P|268:184|273:142,1,93.5000028533936,8|0,0:0|0:0,0:0:0:0:
402,22,75763,6,0,P|331:41|301:49,1,93.5000028533936,0|0,1:2|1:2,0:0:0:0:
135,20,76094,2,0,P|153:96|176:191,1,140.25000428009,10|0,0:0|0:0,0:0:0:0:
80,154,76426,2,0,P|67:95|57:58,1,93.5000028533936,2|0,1:2|1:2,0:0:0:0:
222,259,76757,2,0,P|210:304|200:349,1,93.5000028533936,10|0,0:0|1:2,0:0:0:0:
66,254,77089,5,12,0:0:0:0:
277,147,77254,1,0,1:2:0:0:
56,62,77420,1,8,0:0:0:0:
222,259,77586,1,0,1:2:0:0:
322,34,77752,5,8,0:0:0:0:
102,176,77917,1,0,1:2:0:0:
369,274,78083,1,8,0:0:0:0:
200,31,78249,1,2,1:2:0:0:
192,42,78332,1,0,1:2:0:0:
190,56,78415,5,14,0:0:0:0:
222,259,78580,1,0,1:2:0:0:
413,16,78746,5,10,0:0:0:0:
354,304,78912,1,0,1:2:0:0:
121,182,79078,5,10,0:0:0:0:
364,111,79243,1,2,1:2:0:0:
364,111,79326,1,0,1:2:0:0:
364,111,79409,2,0,L|286:94,1,46.7500014266968,10|8,0:0|0:0,0:0:0:0:
222,259,79575,2,0,L|300:242,1,46.7500014266968,10|8,0:0|0:0,0:0:0:0:
96,74,79741,5,6,1:2:0:0:
9,244,79906,1,2,0:0:0:0:
0,45,80072,1,10,0:0:0:0:
121,182,80238,1,2,0:0:0:0:
257,37,80403,2,0,P|191:22|158:15,1,85,2|2,1:2|1:2,0:0:0:0:
273,187,80735,1,10,0:0:0:0:
393,56,80901,1,2,1:2:0:0:
209,121,81066,5,0,1:2:0:0:
414,45,81232,2,0,P|401:112|396:137,1,85,2|10,1:2|0:0,0:0:0:0:
495,239,81564,1,0,0:0:0:0:
273,187,81729,2,0,P|286:254|291:279,1,85,2|2,1:2|1:2,0:0:0:0:
397,128,82061,1,10,0:0:0:0:
181,25,82227,5,2,0:0:0:0:
181,25,82310,1,2,0:0:0:0:
181,25,82392,2,0,P|168:92|163:117,1,85,2|0,1:2|0:0,0:0:0:0:
12,258,82724,1,8,0:0:0:0:
54,92,82890,2,0,P|67:159|72:184,2,85,2|0|0,0:0|1:2|1:2,0:0:0:0:
247,202,83387,2,0,P|193:190|147:183,1,85,10|0,0:0|1:2,0:0:0:0:
302,31,83718,6,0,P|328:86|338:108,1,85,2|0,0:0|1:2,0:0:0:0:
466,235,84050,2,0,P|440:290|430:312,1,85,10|0,0:0|0:0,0:0:0:0:
273,224,84381,1,2,1:2:0:0:
375,367,84547,1,2,1:2:0:0:
426,141,84713,2,0,P|378:107|332:117,1,85,10|2,0:0|1:2,0:0:0:0:
184,62,85044,6,0,P|209:145|213:163,1,93.5000028533936,6|8,1:2|0:0,0:0:0:0:
178,230,85293,1,8,0:0:0:0:
167,225,85376,2,0,L|115:246,1,46.7500014266968,8|8,0:0|0:0,0:0:0:0:
0,293,85542,1,6,1:2:0:0:
15,112,85707,6,0,L|41:172,1,46.7500014266968,8|8,0:0|0:0,0:0:0:0:
134,247,85873,2,0,L|108:307,1,46.7500014266968,8|8,0:0|0:0,0:0:0:0:
2,384,86039,1,6,1:2:0:0:
211,310,86205,5,8,0:0:0:0:
241,275,86287,1,8,0:0:0:0:
247,228,86370,1,8,0:0:0:0:
228,184,86453,1,8,0:0:0:0:
187,160,86536,6,0,P|174:98|192:58,1,93.5000028533936,6|8,1:2|0:0,0:0:0:0:
226,7,86785,1,8,0:0:0:0:
237,0,86868,2,0,L|287:15,1,46.7500014266968,8|8,0:0|0:0,0:0:0:0:
450,62,87033,1,6,1:2:0:0:
263,109,87199,5,8,0:0:0:0:
304,87,87282,1,8,0:0:0:0:
344,110,87365,2,0,L|367:185,1,46.7500014266968,8|8,0:0|0:0,0:0:0:0:
466,260,87531,2,0,L|443:335,1,46.7500014266968,8|8,0:0|0:0,0:0:0:0:
301,384,87696,5,2,0:0:0:0:
255,316,87862,1,2,0:0:0:0:
269,235,88028,1,2,0:0:0:0:
240,158,88194,1,2,0:0:0:0:
158,152,88359,1,2,0:0:0:0:
113,220,88525,1,2,0:0:0:0:
139,297,88691,1,2,0:0:0:0:
86,359,88857,1,2,0:0:0:0:
