osu file format v14

[General]
AudioFilename: audio.mp3
AudioLeadIn: 0
PreviewTime: 56046
Countdown: 0
SampleSet: Soft
StackLeniency: 0.4
Mode: 0
LetterboxInBreaks: 0
WidescreenStoryboard: 0

[Editor]
DistanceSpacing: 1.2
BeatDivisor: 4
GridSize: 32
TimelineZoom: 1.6

[Metadata]
Title:Katte ni MY SOUL (TV Size)
TitleUnicode:勝手にMY SOUL (TV Size)
Artist:DISH//
ArtistUnicode:DISH//
Creator:Smoke
Version:Silver Soul
Source:銀魂. 銀ノ魂篇
Tags:Gintama.: Shirogane no Tamashii-hen browiec japanese anime op opening 20 Gintoki Sakata 坂田 銀時 Hijikata Toushirou 土方 十四郎 jrock j-rock rock silver soul arc
BeatmapID:2460926
BeatmapSetID:1180172

[Difficulty]
HPDrainRate:5.6
CircleSize:4
OverallDifficulty:9
ApproachRate:9
SliderMultiplier:1.7
SliderTickRate:1

[Events]
//Background and Video events
0,0,"gintama bg gintoki and hijikata JPEG.jpg",0,0
Video,0,"vid.mp4"
//Break Periods
//Storyboard Layer 0 (Background)
//Storyboard Layer 1 (Fail)
//Storyboard Layer 2 (Pass)
//Storyboard Layer 3 (Foreground)
//Storyboard Layer 4 (Overlay)
//Storyboard Sound Samples

[TimingPoints]
640,375,4,2,1,60,1,0
640,-142.857142857143,4,2,1,60,0,0
3640,-83.3333333333333,4,2,1,75,0,1
12640,-83.3333333333333,4,2,1,70,0,0
15640,-100,4,2,1,60,0,0
21921,-100,4,2,1,5,0,0
22015,-100,4,2,1,60,0,0
30921,-100,4,2,1,5,0,0
31015,-100,4,2,1,60,0,0
39640,-90.9090909090909,4,2,1,75,0,1
42640,-95.2380952380952,4,2,1,70,0,0
45640,-90.9090909090909,4,2,1,75,0,1
48640,-95.2380952380952,4,2,1,70,0,0
51640,-125,4,2,1,65,0,0
54265,-125,4,2,1,30,0,0
54640,-90.9090909090909,4,2,1,75,0,0
56140,-80,4,2,1,80,0,1
61296,-80,4,2,1,5,0,1
61390,-80,4,2,1,80,0,1
62046,-80,4,2,1,5,0,1
62140,-80,4,2,1,80,0,1
67390,-80,4,2,1,65,0,0
68140,-80,4,2,1,80,0,1
73296,-80,4,2,1,5,0,1
73390,-80,4,2,1,80,0,1
74046,-80,4,2,1,5,0,1
74140,-80,4,2,1,80,0,1
78640,-100,4,2,1,70,0,0
79015,-100,4,2,1,25,0,0
79390,-100,4,2,1,70,0,0
79765,-100,4,2,1,25,0,0
80140,-76.9230769230769,4,2,1,75,0,1
80421,-76.9230769230769,4,2,1,5,0,1
80515,-76.9230769230769,4,2,1,75,0,1
80796,-76.9230769230769,4,2,1,5,0,1
80890,-76.9230769230769,4,2,1,75,0,1
81640,-83.3333333333333,4,2,1,70,0,0
83046,-76.9230769230769,4,2,1,5,0,0
83140,-83.3333333333333,4,2,1,75,0,1
84640,-83.3333333333333,4,2,1,70,0,0

[Colours]
Combo1 : 235,121,52
Combo2 : 121,121,121
Combo3 : 192,192,192
Combo4 : 255,60,60

[HitObjects]
115,345,640,5,2,3:2:0:0:
115,345,827,1,2,3:2:0:0:
193,169,1015,1,10,0:0:0:0:
193,169,1390,5,2,3:2:0:0:
288,360,1577,1,10,0:0:0:0:
79,228,1952,5,2,3:2:0:0:
79,228,2327,1,2,3:2:0:0:
308,184,2515,1,8,0:0:0:0:
211,291,2702,1,2,3:2:0:0:
211,291,3077,2,0,P|202:248|194:217,2,59.4999981842042,2|2|2,0:0|0:0|0:0,0:0:0:0:
41,93,3640,5,14,0:0:0:0:
308,184,3827,1,0,3:2:0:0:
15,216,4015,5,10,0:0:0:0:
285,98,4202,1,0,3:2:0:0:
91,322,4390,5,10,0:0:0:0:
91,322,4483,1,2,0:0:0:0:
91,322,4577,1,2,3:2:0:0:
149,109,4765,1,10,0:0:0:0:
330,280,4952,1,2,3:2:0:0:
121,225,5140,6,0,P|176:212|233:204,1,101.999996887207,8|2,0:0|3:2,0:0:0:0:
425,282,5515,1,10,0:0:0:0:
226,384,5702,2,0,P|218:336|253:282,1,101.999996887207,10|2,0:0|3:2,0:0:0:0:
463,175,6077,1,12,0:0:0:0:
208,88,6265,1,14,0:0:0:0:
330,280,6452,1,0,3:2:0:0:
450,25,6640,5,14,0:0:0:0:
339,271,6827,1,0,3:2:0:0:
350,16,7015,5,10,0:0:0:0:
455,263,7202,1,0,3:2:0:0:
205,178,7390,5,10,0:0:0:0:
205,178,7483,1,2,0:0:0:0:
205,178,7577,1,2,3:2:0:0:
448,110,7765,1,10,0:0:0:0:
316,288,7952,1,2,3:2:0:0:
115,119,8140,6,0,P|62:111|15:142,1,101.999996887207,8|2,0:0|3:2,0:0:0:0:
220,275,8515,1,10,0:0:0:0:
74,368,8702,2,0,P|83:320|104:249,1,101.999996887207,10|2,0:0|3:2,0:0:0:0:
253,80,9077,1,12,0:0:0:0:
22,134,9265,1,14,0:0:0:0:
220,255,9452,1,0,3:2:0:0:
121,22,9640,5,14,0:0:0:0:
0,270,9827,1,0,3:2:0:0:
7,13,10015,5,10,0:0:0:0:
137,251,10202,1,0,3:2:0:0:
324,34,10390,5,10,0:0:0:0:
324,34,10483,1,2,0:0:0:0:
324,34,10577,1,2,3:2:0:0:
91,144,10765,1,10,0:0:0:0:
361,280,10952,1,2,3:2:0:0:
237,99,11140,6,0,P|221:149|206:211,1,101.999996887207,8|2,0:0|3:2,0:0:0:0:
167,368,11515,1,10,0:0:0:0:
361,280,11702,2,0,P|407:280|457:319,1,101.999996887207,10|2,0:0|3:2,0:0:0:0:
209,197,12077,1,12,0:0:0:0:
296,384,12265,2,0,P|282:329|269:283,1,101.999996887207,14|0,0:0|0:0,0:0:0:0:
428,94,12640,1,0,3:2:0:0:
361,280,12827,5,10,3:2:0:0:
237,104,13015,2,0,P|177:93|123:133,1,101.999996887207,10|0,3:2|3:2,0:0:0:0:
243,287,13390,5,10,3:2:0:0:
332,94,13578,2,0,P|310:37|247:10,1,101.999996887207,10|0,3:2|3:2,0:0:0:0:
174,195,13952,5,10,3:2:0:0:
384,175,14140,2,0,P|420:127|413:60,1,101.999996887207,10|0,3:2|3:2,0:0:0:0:
223,95,14515,5,10,3:2:0:0:
345,267,14703,2,0,P|402:275|457:235,1,101.999996887207,10|0,3:2|3:2,0:0:0:0:
223,95,15077,5,10,0:0:0:0:
186,106,15170,1,8,0:0:0:0:
158,131,15264,1,10,0:0:0:0:
142,166,15358,1,8,0:0:0:0:
140,202,15452,1,8,0:0:0:0:
152,238,15545,1,8,0:0:0:0:
178,266,15640,6,0,P|202:306|196:365,1,85,4|0,3:1|0:0,0:0:0:0:
38,329,16015,2,0,P|40:287|63:251,1,85,10|0,0:0|0:0,0:0:0:0:
222,193,16390,2,0,P|176:178|133:162,1,85,2|0,3:2|0:0,0:0:0:0:
34,101,16765,2,0,P|80:86|123:70,1,85,10|0,0:0|0:0,0:0:0:0:
245,9,17140,1,2,3:2:0:0:
245,9,17327,2,0,P|222:46|226:92,1,85,2|8,0:0|0:0,0:0:0:0:
378,134,17702,2,0,P|379:92|356:56,1,85,2|0,0:0|3:2,0:0:0:0:
236,193,18077,1,2,0:0:0:0:
437,246,18265,1,8,0:0:0:0:
437,246,18640,6,0,P|397:258|348:275,1,85,2|0,3:2|0:0,0:0:0:0:
503,375,19015,2,0,P|521:340|504:287,1,85,10|0,0:0|0:0,0:0:0:0:
254,259,19390,2,0,P|266:298|283:347,1,85,2|0,3:2|0:0,0:0:0:0:
367,168,19765,2,0,P|332:149|279:166,1,85,10|0,0:0|0:0,0:0:0:0:
144,269,20140,1,2,3:2:0:0:
144,269,20327,2,0,P|131:226|114:180,1,85,2|8,0:0|0:0,0:0:0:0:
44,68,20702,2,0,B|75:37|75:37|121:47,1,85,2|0,0:0|3:2,0:0:0:0:
254,79,21077,1,2,0:0:0:0:
117,188,21265,1,8,0:0:0:0:
117,188,21640,6,0,P|92:265|81:319,1,127.5,6|0,3:2|0:0,0:0:0:0:
77,357,22015,2,0,P|110:380|161:374,1,85,10|2,0:0|0:0,0:0:0:0:
296,249,22390,1,2,3:2:0:0:
178,288,22577,1,2,0:0:0:0:
335,384,22765,2,0,P|350:337|369:289,1,85,10|2,0:0|0:0,0:0:0:0:
427,175,23140,1,2,3:2:0:0:
427,175,23327,2,0,P|445:213|458:253,1,85,2|8,0:0|0:0,0:0:0:0:
296,249,23702,2,0,B|252:223|197:249|230:266|170:293|119:249,1,170,2|0,0:0|0:0,0:0:0:0:
38,337,24265,2,0,P|26:294|8:246,1,85,8|0,0:0|0:0,0:0:0:0:
224,30,24640,5,6,3:2:0:0:
165,183,24827,1,2,0:0:0:0:
12,93,25014,1,10,0:0:0:0:
207,111,25202,1,2,0:0:0:0:
13,257,25389,1,2,3:2:0:0:
98,45,25577,1,2,0:0:0:0:
253,256,25764,1,10,0:0:0:0:
43,177,25952,1,2,0:0:0:0:
306,63,26140,6,0,B|363:77|363:77|394:128|394:128|449:143,2,170,2|8|0,3:2|0:0|3:2,0:0:0:0:
141,168,27077,1,10,0:0:0:0:
201,9,27265,1,10,0:0:0:0:
209,50,27358,1,8,0:0:0:0:
217,91,27452,1,8,0:0:0:0:
226,132,27546,1,8,0:0:0:0:
234,173,27640,6,0,P|243:216|252:264,1,85,4|2,3:1|0:0,0:0:0:0:
88,87,28015,1,10,0:0:0:0:
88,87,28202,1,2,0:0:0:0:
201,9,28390,2,0,P|187:49|175:90,1,85,2|0,3:2|0:0,0:0:0:0:
129,263,28765,1,10,0:0:0:0:
129,263,28952,1,2,0:0:0:0:
0,191,29140,1,2,3:2:0:0:
0,191,29327,2,0,P|41:165|92:176,1,85,2|8,0:0|0:0,0:0:0:0:
222,249,29702,2,0,B|269:264|318:224|277:219|325:181|378:192,1,170,2|2,0:0|0:0,0:0:0:0:
502,303,30265,2,0,P|484:263|467:206,1,85,10|2,0:0|0:0,0:0:0:0:
512,75,30640,6,0,P|445:84|395:39,1,127.5,2|0,3:2|0:0,0:0:0:0:
379,13,31015,1,10,0:0:0:0:
379,13,31202,1,2,0:0:0:0:
234,92,31390,2,0,P|247:130|260:187,1,85,2|0,3:2|0:0,0:0:0:0:
354,240,31765,1,10,0:0:0:0:
202,272,31952,1,2,0:0:0:0:
352,150,32140,1,2,3:2:0:0:
352,150,32327,2,0,P|397:161|429:201,1,85,2|8,0:0|0:0,0:0:0:0:
494,335,32702,2,0,B|444:297|444:297|325:337,1,170,2|2,0:0|0:0,0:0:0:0:
200,230,33265,1,8,0:0:0:0:
200,230,33452,1,12,0:0:0:0:
134,308,33640,6,0,P|180:320|223:337,1,85,2|2,3:2|0:0,0:0:0:0:
369,226,34015,2,0,P|323:238|280:255,1,85,10|2,0:0|0:0,0:0:0:0:
116,168,34390,1,2,3:2:0:0:
214,333,34577,1,2,0:0:0:0:
279,146,34765,1,10,0:0:0:0:
138,277,34952,1,2,0:0:0:0:
52,109,35140,1,2,3:2:0:0:
52,109,35327,2,0,P|92:83|133:83,1,85,2|8,0:0|0:0,0:0:0:0:
279,146,35702,2,0,B|324:169|374:141|350:124|397:98|449:138,1,170,2|0,0:0|0:0,0:0:0:0:
487,305,36265,2,0,B|454:279|454:279|408:295,1,85,10|0,0:0|0:0,0:0:0:0:
186,177,36640,5,6,3:2:0:0:
289,328,36827,1,2,0:0:0:0:
341,147,37015,1,10,0:0:0:0:
202,302,37202,1,2,0:0:0:0:
155,104,37390,1,2,3:2:0:0:
358,269,37577,1,2,0:0:0:0:
141,197,37765,1,10,0:0:0:0:
399,100,37952,1,2,0:0:0:0:
166,282,38140,6,0,B|123:302|71:275|106:265|49:232|4:264,2,170,2|12|0,3:2|0:0|3:2,0:0:0:0:
323,384,39077,1,10,0:0:0:0:
288,260,39265,1,10,0:0:0:0:
277,223,39358,1,0,3:2:0:0:
267,187,39452,1,0,3:2:0:0:
257,155,39546,1,0,3:2:0:0:
248,119,39640,5,6,3:2:0:0:
373,287,39827,1,2,3:2:0:0:
337,93,40015,5,10,0:0:0:0:
207,271,40202,1,0,3:2:0:0:
462,174,40390,5,10,0:0:0:0:
229,68,40577,1,2,3:2:0:0:
289,313,40765,5,10,0:0:0:0:
424,72,40952,1,0,3:2:0:0:
151,174,41140,5,10,0:0:0:0:
453,289,41327,1,2,3:2:0:0:
124,263,41515,5,10,0:0:0:0:
441,171,41702,1,0,3:2:0:0:
98,90,41890,5,10,0:0:0:0:
294,354,42077,1,2,3:2:0:0:
254,42,42265,5,10,0:0:0:0:
50,322,42452,2,0,P|73:311|106:299,1,46.7500014266968,0|8,3:2|0:0,0:0:0:0:
363,217,42640,6,0,P|349:172|334:123,1,89.2499972763062,6|0,3:2|0:0,0:0:0:0:
124,4,43015,2,0,P|110:46|97:89,1,89.2499972763062,8|0,0:0|0:0,0:0:0:0:
226,235,43390,1,2,3:2:0:0:
226,235,43577,2,0,P|191:208|132:222,1,89.2499972763062,2|8,0:0|0:0,0:0:0:0:
0,331,43952,2,0,B|42:306|101:338|61:347|122:379|166:352,1,178.499994552612,2|0,0:0|0:0,0:0:0:0:
316,250,44515,2,0,P|325:294|338:341,1,89.2499972763062,10|0,0:0|0:0,0:0:0:0:
148,211,44890,1,2,3:2:0:0:
148,211,45077,2,0,P|185:186|248:200,1,89.2499972763062,2|8,0:0|0:0,0:0:0:0:
422,257,45452,1,2,0:0:0:0:
193,355,45640,5,6,3:2:0:0:
337,156,45827,1,2,3:2:0:0:
370,384,46015,5,10,0:0:0:0:
228,188,46202,1,0,3:2:0:0:
496,223,46390,5,10,0:0:0:0:
297,344,46577,1,2,3:2:0:0:
328,97,46765,5,10,0:0:0:0:
459,328,46952,1,0,3:2:0:0:
505,27,47140,5,10,0:0:0:0:
243,195,47327,1,2,3:2:0:0:
512,142,47515,5,10,0:0:0:0:
220,28,47702,1,0,3:2:0:0:
427,320,47890,5,10,0:0:0:0:
490,25,48077,1,2,3:2:0:0:
295,328,48265,5,10,0:0:0:0:
229,17,48452,2,0,P|243:37|254:60,1,46.7500014266968,0|8,3:2|0:0,0:0:0:0:
487,253,48640,6,0,P|443:228|394:237,1,89.2499972763062,6|0,3:2|0:0,0:0:0:0:
131,374,49015,2,0,P|117:329|102:285,1,89.2499972763062,10|0,0:0|0:0,0:0:0:0:
257,261,49390,1,2,3:2:0:0:
257,261,49577,2,0,P|241:302|228:345,1,89.2499972763062,2|8,0:0|0:0,0:0:0:0:
405,231,49952,2,0,B|355:245|300:203|345:194|291:150|230:174,1,178.499994552612,2|0,0:0|0:0,0:0:0:0:
68,79,50515,2,0,P|110:71|164:57,1,89.2499972763062,14|0,0:0|0:0,0:0:0:0:
193,28,50796,1,8,0:0:0:0:
193,28,50890,2,0,P|222:61|280:67,1,89.2499972763062,2|10,3:2|0:0,0:0:0:0:
317,66,51171,1,8,0:0:0:0:
317,66,51265,1,8,0:0:0:0:
464,17,51452,1,2,3:2:0:0:
464,17,51546,1,0,3:2:0:0:
464,17,51640,6,0,P|430:126|405:222,1,204,4|2,3:1|0:0,0:0:0:0:
463,324,52390,2,0,P|405:253|291:290,1,204,4|2,3:1|0:0,0:0:0:0:
173,363,53140,6,0,P|164:330|146:291,1,68,10|2,3:2|0:0,0:0:0:0:
242,180,53515,2,0,P|228:211|219:243,1,68,10|2,3:2|0:0,0:0:0:0:
94,138,53890,2,0,P|129:86|190:115,1,136,10|0,3:2|0:0,0:0:0:0:
188,110,54640,5,2,3:2:0:0:
3,177,54827,1,0,3:2:0:0:
252,242,55015,1,0,3:2:0:0:
63,71,55202,1,0,3:2:0:0:
171,298,55390,1,8,0:0:0:0:
206,328,55483,1,8,0:0:0:0:
251,341,55577,1,8,0:0:0:0:
296,332,55671,1,8,0:0:0:0:
333,302,55765,2,0,P|339:280|346:258,1,46.7500014266968,8|8,0:0|0:0,0:0:0:0:
256,151,55952,2,0,P|249:128|242:106,1,46.7500014266968,8|8,0:0|0:0,0:0:0:0:
364,39,56140,6,0,B|313:7|241:40|287:62|210:97|162:58,1,212.5,4|8,3:1|0:0,0:0:0:0:
13,238,56702,1,2,0:0:0:0:
255,181,56890,1,2,3:2:0:0:
0,244,57077,1,2,0:0:0:0:
264,292,57265,1,10,0:0:0:0:
38,132,57452,1,2,0:0:0:0:
185,345,57640,6,0,P|159:241|127:131,1,212.5,2|8,3:2|0:0,0:0:0:0:
350,31,58202,1,2,0:0:0:0:
280,284,58390,1,2,3:2:0:0:
353,19,58577,1,2,0:0:0:0:
448,264,58765,1,10,0:0:0:0:
213,95,58952,1,2,0:0:0:0:
512,151,59140,6,0,B|451:113|451:113|312:145,1,212.5,2|8,3:2|0:0,0:0:0:0:
188,276,59702,1,2,0:0:0:0:
274,2,59890,1,2,3:2:0:0:
184,289,60077,1,2,0:0:0:0:
393,63,60265,1,10,0:0:0:0:
91,89,60452,1,2,0:0:0:0:
338,250,60640,6,0,P|352:203|375:140,1,106.25,4|0,3:1|0:0,0:0:0:0:
91,89,61015,2,0,P|120:169|171:140,1,159.375,10|0,0:0|0:0,0:0:0:0:
238,81,61390,2,0,P|288:54|353:80,1,106.25,4|0,3:1|0:0,0:0:0:0:
476,264,61765,2,0,B|429:263|394:295|430:304|387:344|338:337,1,159.375,10|0,0:0|0:0,0:0:0:0:
237,200,62140,6,0,B|284:255|284:255|223:399,1,212.5,4|8,3:1|0:0,0:0:0:0:
33,145,62702,1,2,0:0:0:0:
111,365,62890,1,2,3:2:0:0:
30,133,63077,1,2,0:0:0:0:
245,301,63265,1,10,0:0:0:0:
0,271,63452,1,2,0:0:0:0:
152,80,63640,6,0,B|210:40|278:72|241:89|303:120|354:81,1,212.5,2|8,3:2|0:0,0:0:0:0:
496,236,64202,1,2,0:0:0:0:
258,181,64390,1,2,3:2:0:0:
507,239,64577,1,2,0:0:0:0:
264,304,64765,1,10,0:0:0:0:
442,131,64952,1,2,0:0:0:0:
387,363,65140,6,0,P|372:267|346:147,1,212.5,6|8,3:2|0:0,0:0:0:0:
124,136,65702,1,2,0:0:0:0:
230,264,65890,1,2,3:2:0:0:
280,92,66077,1,2,0:0:0:0:
116,284,66265,1,10,0:0:0:0:
40,72,66452,1,2,0:0:0:0:
230,264,66640,5,14,0:0:0:0:
0,179,66827,1,0,3:2:0:0:
289,104,67015,2,0,B|347:106|372:153|341:148|373:197|437:191,1,159.375,10|8,0:0|0:0,0:0:0:0:
453,275,67390,5,10,0:0:0:0:
421,310,67483,1,8,0:0:0:0:
379,327,67577,1,8,0:0:0:0:
333,322,67671,1,8,0:0:0:0:
294,296,67765,2,0,P|287:274|277:244,1,53.125,10|8,0:0|0:0,0:0:0:0:
176,162,67952,2,0,P|169:185|159:213,1,53.125,8|8,0:0|0:0,0:0:0:0:
0,265,68140,6,0,B|51:233|123:266|77:288|154:323|202:284,1,212.5,4|8,3:1|0:0,0:0:0:0:
435,174,68702,1,2,0:0:0:0:
175,98,68890,1,2,3:2:0:0:
445,177,69077,1,2,0:0:0:0:
159,212,69265,1,10,0:0:0:0:
395,72,69452,1,2,0:0:0:0:
183,0,69640,6,0,P|213:101|241:204,1,212.5,2|8,3:2|0:0,0:0:0:0:
398,372,70202,1,2,0:0:0:0:
466,105,70390,1,2,3:2:0:0:
393,384,70577,1,2,0:0:0:0:
313,124,70765,1,10,0:0:0:0:
512,266,70952,1,2,0:0:0:0:
243,362,71140,6,0,B|181:346|181:346|118:386|118:386|40:365,1,212.5,2|8,3:2|0:0,0:0:0:0:
285,243,71702,1,2,0:0:0:0:
0,172,71890,1,2,3:2:0:0:
298,246,72077,1,2,0:0:0:0:
0,293,72265,1,10,0:0:0:0:
260,132,72452,1,2,0:0:0:0:
27,8,72640,6,0,P|45:57|60:108,1,106.25,4|0,3:1|0:0,0:0:0:0:
0,293,73015,2,0,B|21:253|64:257|64:257|96:300|159:278,1,159.375,10|0,0:0|0:0,0:0:0:0:
216,232,73390,2,0,P|271:213|330:236,1,106.25,4|0,3:1|0:0,0:0:0:0:
469,367,73765,2,0,B|482:321|458:278|435:307|415:261|434:214,1,159.375,10|0,0:0|0:0,0:0:0:0:
512,151,74140,6,0,P|416:125|307:86,1,212.5,4|8,3:1|0:0,0:0:0:0:
103,248,74702,1,2,0:0:0:0:
168,0,74890,1,2,3:2:0:0:
100,260,75077,1,2,0:0:0:0:
10,15,75265,1,10,0:0:0:0:
232,127,75452,1,2,0:0:0:0:
0,246,75640,6,0,P|55:168|177:197,1,212.5,2|8,3:2|0:0,0:0:0:0:
335,306,76202,1,2,0:0:0:0:
176,384,76390,2,0,P|190:338|212:273,1,106.25,2|2,3:2|0:0,0:0:0:0:
372,111,76765,1,10,0:0:0:0:
161,180,76952,1,2,0:0:0:0:
431,318,77140,6,0,P|383:220|289:217,1,212.5,2|8,3:2|0:0,0:0:0:0:
97,333,77702,1,2,0:0:0:0:
335,306,77890,1,2,3:2:0:0:
90,194,78077,1,2,0:0:0:0:
266,362,78265,1,10,0:0:0:0:
184,101,78452,1,2,0:0:0:0:
97,333,78640,5,10,3:2:0:0:
184,16,78827,1,8,3:2:0:0:
198,10,79390,5,10,3:2:0:0:
102,347,79577,1,8,3:2:0:0:
0,207,80140,6,0,B|47:177|99:213|70:227|118:260|165:223,1,165.749992412568,4|0,3:1|0:0,0:0:0:0:
208,150,80515,2,0,P|180:221|255:261,1,165.749992412568,4|0,3:1|0:0,0:0:0:0:
330,312,80890,5,8,0:0:0:0:
341,272,80983,1,8,0:0:0:0:
354,232,81077,1,8,0:0:0:0:
367,193,81171,1,8,0:0:0:0:
381,154,81265,1,8,0:0:0:0:
396,113,81358,1,8,0:0:0:0:
411,71,81452,2,0,P|436:55|479:58,1,55.2499974708558,8|8,0:0|0:0,0:0:0:0:
503,302,81640,5,2,3:2:0:0:
208,150,81827,1,0,3:2:0:0:
208,150,82390,6,0,P|189:200|174:252,1,101.999996887207,4|0,3:1|0:0,0:0:0:0:
0,111,82765,2,0,P|30:202|48:282,1,152.999995330811,6|0,3:2|0:0,0:0:0:0:
66,343,83140,5,14,0:0:0:0:
287,243,83327,1,0,3:2:0:0:
54,173,83515,5,10,0:0:0:0:
253,334,83702,1,0,3:2:0:0:
175,114,83890,5,10,0:0:0:0:
175,114,83983,1,2,0:0:0:0:
175,114,84077,1,2,3:2:0:0:
48,317,84265,1,10,0:0:0:0:
271,153,84452,2,0,P|320:155|363:197,1,101.999996887207,2|0,0:0|3:2,0:0:0:0:
459,362,84827,5,10,3:2:0:0:
172,245,85015,1,10,3:2:0:0:
358,188,85202,1,0,3:2:0:0:
153,383,85390,5,10,3:2:0:0:
239,83,85577,1,10,3:2:0:0:
349,287,85765,1,0,3:2:0:0:
66,201,85952,5,10,3:2:0:0:
354,8,86140,2,0,P|338:56|325:105,1,101.999996887207,10|0,3:2|0:0,0:0:0:0:
264,367,86515,5,6,3:2:0:0:
112,49,86702,1,6,3:2:0:0:
