osu file format v14

[General]
AudioFilename: audio.mp3
AudioLeadIn: 0
PreviewTime: 56046
Countdown: 0
SampleSet: Soft
StackLeniency: 0.4
Mode: 0
LetterboxInBreaks: 0
WidescreenStoryboard: 1

[Editor]
DistanceSpacing: 1.5
BeatDivisor: 2
GridSize: 32
TimelineZoom: 1.6

[Metadata]
Title:Katte ni MY SOUL (TV Size)
TitleUnicode:勝手にMY SOUL (TV Size)
Artist:DISH//
ArtistUnicode:DISH//
Creator:Smoke
Version:Hard
Source:銀魂. 銀ノ魂篇
Tags:Gintama.: Shirogane no Tamashii-hen browiec japanese anime op opening 20 Gintoki Sakata 坂田 銀時 Hijikata Toushirou 土方 十四郎 jrock j-rock rock silver soul arc
BeatmapID:2460927
BeatmapSetID:1180172

[Difficulty]
HPDrainRate:4.4
CircleSize:3.4
OverallDifficulty:6.5
ApproachRate:7.5
SliderMultiplier:1.3
SliderTickRate:1

[Events]
//Background and Video events
0,0,"gintama bg gintoki and hijikata JPEG.jpg",0,0
Video,0,"vid.mp4"
//Break Periods
//Storyboard Layer 0 (Background)
//Storyboard Layer 1 (Fail)
//Storyboard Layer 2 (Pass)
//Storyboard Layer 3 (Foreground)
//Storyboard Layer 4 (Overlay)
//Storyboard Sound Samples

[TimingPoints]
640,375,4,2,1,60,1,0
640,-111.111111111111,4,2,1,60,0,0
3640,-90.9090909090909,4,2,1,75,0,1
12640,-90.9090909090909,4,2,1,70,0,0
15640,-100,4,2,1,60,0,0
21921,-100,4,2,1,5,0,0
22015,-100,4,2,1,60,0,0
30921,-100,4,2,1,5,0,0
31015,-100,4,2,1,60,0,0
39640,-90.9090909090909,4,2,1,75,0,1
42640,-95.2380952380952,4,2,1,70,0,0
45640,-90.9090909090909,4,2,1,75,0,1
48640,-95.2380952380952,4,2,1,70,0,0
51640,-125,4,2,1,65,0,0
54265,-125,4,2,1,30,0,0
54640,-90.9090909090909,4,2,1,75,0,0
56140,-86.9565217391304,4,2,1,80,0,1
61296,-86.9565217391304,4,2,1,5,0,1
61390,-86.9565217391304,4,2,1,80,0,1
62046,-86.9565217391304,4,2,1,5,0,1
62140,-86.9565217391304,4,2,1,80,0,1
67390,-86.9565217391304,4,2,1,65,0,0
68140,-86.9565217391304,4,2,1,80,0,1
73296,-86.9565217391304,4,2,1,5,0,1
73390,-86.9565217391304,4,2,1,80,0,1
74046,-86.9565217391304,4,2,1,5,0,1
74140,-86.9565217391304,4,2,1,80,0,1
78640,-100,4,2,1,70,0,0
79015,-100,4,2,1,25,0,0
79390,-100,4,2,1,70,0,0
79765,-100,4,2,1,25,0,0
80140,-83.3333333333333,4,2,1,75,0,1
80421,-83.3333333333333,4,2,1,5,0,1
80515,-83.3333333333333,4,2,1,75,0,1
80796,-83.3333333333333,4,2,1,5,0,1
80890,-83.3333333333333,4,2,1,75,0,1
81640,-90.9090909090909,4,2,1,70,0,0
83046,-90.9090909090909,4,2,1,5,0,0
83140,-83.3333333333333,4,2,1,75,0,1
84640,-83.3333333333333,4,2,1,70,0,0

[Colours]
Combo1 : 235,121,52
Combo2 : 121,121,121
Combo3 : 192,192,192
Combo4 : 255,60,60

[HitObjects]
48,96,640,6,0,P|71:81|108:80,1,58.4999982147217,2|2,3:2|3:2,0:0:0:0:
177,122,1015,1,10,0:0:0:0:
329,33,1390,1,2,3:2:0:0:
329,33,1577,1,10,0:0:0:0:
485,112,1952,1,2,3:2:0:0:
485,112,2327,2,0,P|473:142|465:175,1,58.4999982147217,2|8,3:2|0:0,0:0:0:0:
442,252,2702,1,2,3:2:0:0:
442,252,3640,5,14,0:0:0:0:
351,210,3827,1,0,3:2:0:0:
289,289,4015,2,0,P|257:306|213:303,1,71.5000021820069,10|0,0:0|3:2,0:0:0:0:
153,232,4390,2,0,L|115:245,2,35.7500010910034,10|2|2,0:0|0:0|3:2,0:0:0:0:
211,150,4765,1,10,0:0:0:0:
139,80,4952,2,0,P|83:62|10:122,1,143.000004364014,2|2,3:2|3:2,0:0:0:0:
35,208,5515,1,10,0:0:0:0:
35,208,5702,2,0,P|24:245|13:294,1,71.5000021820069,10|2,0:0|3:2,0:0:0:0:
81,353,6077,1,12,0:0:0:0:
169,305,6265,2,0,P|208:299|246:321,1,71.5000021820069,14|0,0:0|3:2,0:0:0:0:
349,374,6640,5,14,0:0:0:0:
394,285,6827,1,0,3:2:0:0:
316,221,7015,2,0,P|309:188|295:149,1,71.5000021820069,10|0,0:0|3:2,0:0:0:0:
328,57,7390,2,0,P|332:40|340:23,2,35.7500010910034,10|2|2,0:0|0:0|3:2,0:0:0:0:
403,122,7765,1,10,0:0:0:0:
481,60,7952,2,0,B|508:97|508:97|490:196,1,143.000004364014,2|2,3:2|3:2,0:0:0:0:
512,295,8515,1,10,0:0:0:0:
512,295,8702,2,0,P|478:292|439:324,1,71.5000021820069,10|2,0:0|3:2,0:0:0:0:
358,358,9077,1,12,0:0:0:0:
283,290,9265,2,0,P|294:257|313:217,1,71.5000021820069,14|0,0:0|3:2,0:0:0:0:
364,105,9640,5,14,0:0:0:0:
268,134,9827,1,0,3:2:0:0:
189,71,10015,2,0,P|152:71|116:90,1,71.5000021820069,10|0,0:0|3:2,0:0:0:0:
39,144,10390,2,0,P|21:137|0:134,2,35.7500010910034,10|2|2,0:0|0:0|3:2,0:0:0:0:
108,216,10765,1,10,0:0:0:0:
46,294,10952,2,0,B|92:288|125:322|97:325|133:361|187:343,1,143.000004364014,2|2,3:2|3:2,0:0:0:0:
250,284,11515,1,10,0:0:0:0:
250,284,11702,2,0,P|281:282|324:304,1,71.5000021820069,10|2,0:0|3:2,0:0:0:0:
402,349,12077,1,12,0:0:0:0:
473,279,12265,2,0,P|460:245|448:204,2,71.5000021820069,14|0|0,0:0|0:0|3:2,0:0:0:0:
402,349,12827,5,10,3:2:0:0:
402,349,13015,2,0,P|366:337|323:329,1,71.5000021820069,10|0,3:2|3:2,0:0:0:0:
260,269,13390,1,10,3:2:0:0:
260,269,13578,2,0,P|224:281|181:289,1,71.5000021820069,10|0,3:2|3:2,0:0:0:0:
99,321,13952,1,10,3:2:0:0:
99,321,14140,2,0,P|77:280|90:236,1,71.5000021820069,10|0,3:2|3:2,0:0:0:0:
24,178,14515,1,10,3:2:0:0:
24,178,14703,2,0,P|46:137|33:93,1,71.5000021820069,10|0,3:2|3:2,0:0:0:0:
112,42,15077,1,10,0:0:0:0:
112,42,15171,1,8,0:0:0:0:
112,42,15265,2,0,P|135:47|159:59,3,35.7500010910034,10|8|8|8,0:0|0:0|0:0|0:0,0:0:0:0:
187,70,15640,6,0,P|241:31|309:62,1,130,4|10,3:1|0:0,0:0:0:0:
475,11,16390,2,0,P|462:50|453:85,1,65,2|0,3:2|0:0,0:0:0:0:
391,138,16765,2,0,P|404:177|413:212,1,65,10|0,0:0|0:0,0:0:0:0:
437,292,17140,1,2,3:2:0:0:
437,292,17327,2,0,P|413:311|369:314,1,65,2|8,0:0|0:0,0:0:0:0:
304,367,17702,2,0,P|251:328|168:349,1,130,2|2,0:0|0:0,0:0:0:0:
102,360,18265,1,8,0:0:0:0:
102,360,18640,6,0,P|80:294|56:233,1,130,2|10,3:2|0:0,0:0:0:0:
203,128,19390,2,0,P|179:188|158:250,1,130,2|10,3:2|0:0,0:0:0:0:
69,97,20140,1,2,3:2:0:0:
69,97,20327,2,0,P|90:73|133:66,1,65,2|8,0:0|0:0,0:0:0:0:
198,16,20702,2,0,P|231:33|268:45,1,65,2|0,0:0|3:2,0:0:0:0:
347,76,21077,1,2,0:0:0:0:
278,136,21265,1,8,0:0:0:0:
278,136,21640,6,0,P|289:170|304:242,1,97.5,6|0,3:2|0:0,0:0:0:0:
313,274,22015,2,0,P|338:293|375:293,1,65,10|2,0:0|0:0,0:0:0:0:
447,344,22390,2,0,P|475:331|494:299,1,65,2|2,3:2|0:0,0:0:0:0:
470,215,22765,2,0,P|459:183|444:132,1,65,10|2,0:0|0:0,0:0:0:0:
503,80,23140,1,2,3:2:0:0:
503,80,23327,2,0,P|470:69|424:50,1,65,2|8,0:0|0:0,0:0:0:0:
357,23,23702,2,0,B|319:17|289:46|313:48|276:79|236:68,1,130,2|0,0:0|0:0,0:0:0:0:
174,7,24265,1,8,0:0:0:0:
12,91,24640,6,0,P|26:122|43:167,1,65,6|2,3:2|0:0,0:0:0:0:
78,237,25015,1,10,0:0:0:0:
78,237,25202,1,2,0:0:0:0:
164,209,25390,2,0,P|193:209|236:236,1,65,2|2,3:2|0:0,0:0:0:0:
301,274,25765,1,10,0:0:0:0:
301,274,25952,1,2,0:0:0:0:
373,218,26140,2,0,P|386:160|405:82,2,130,2|8|0,3:2|0:0|3:2,0:0:0:0:
447,270,27077,1,10,0:0:0:0:
405,351,27265,2,0,P|381:344|354:342,3,32.5,10|8|8|8,0:0|0:0|0:0|0:0,0:0:0:0:
332,363,27640,6,0,P|297:363|258:334,1,65,4|2,3:1|0:0,0:0:0:0:
202,288,28015,2,0,P|167:288|128:317,1,65,10|2,0:0|0:0,0:0:0:0:
64,351,28390,2,0,P|99:300|66:227,1,130,2|10,3:2|0:0,0:0:0:0:
32,161,28952,1,2,0:0:0:0:
112,115,29140,1,2,3:2:0:0:
112,115,29327,2,0,P|145:127|188:144,1,65,2|8,0:0|0:0,0:0:0:0:
255,175,29702,2,0,P|319:159|388:144,1,130,2|2,0:0|0:0,0:0:0:0:
470,122,30265,1,10,0:0:0:0:
439,301,30640,6,0,P|394:274|342:285,1,97.5,2|0,3:2|0:0,0:0:0:0:
310,300,31015,2,0,P|276:317|244:331,1,65,10|2,0:0|0:0,0:0:0:0:
167,364,31390,2,0,P|139:351|96:343,1,65,2|0,3:2|0:0,0:0:0:0:
38,281,31765,2,0,P|37:251|61:213,1,65,10|2,0:0|0:0,0:0:0:0:
116,154,32140,1,2,3:2:0:0:
116,154,32327,2,0,P|111:125|94:81,1,65,2|8,0:0|0:0,0:0:0:0:
50,14,32702,2,0,P|97:50|162:10,1,130,2|2,0:0|0:0,0:0:0:0:
228,88,33265,1,8,0:0:0:0:
228,88,33452,1,12,0:0:0:0:
306,41,33640,6,0,P|336:49|372:61,1,65,2|2,3:2|0:0,0:0:0:0:
422,132,34015,2,0,P|392:140|356:152,1,65,10|2,0:0|0:0,0:0:0:0:
277,191,34390,2,0,P|298:220|298:263,1,65,2|2,3:2|0:0,0:0:0:0:
381,290,34765,2,0,P|385:258|405:232,1,65,10|2,0:0|0:0,0:0:0:0:
485,186,35140,1,2,3:2:0:0:
485,186,35327,2,0,P|475:153|463:124,1,65,2|8,0:0|0:0,0:0:0:0:
485,36,35702,2,0,P|438:86|363:76,1,130,2|0,0:0|0:0,0:0:0:0:
318,18,36265,1,10,0:0:0:0:
156,101,36640,6,0,P|170:133|182:174,1,65,6|2,3:2|0:0,0:0:0:0:
213,246,37015,1,10,0:0:0:0:
213,246,37202,1,2,0:0:0:0:
161,321,37390,2,0,P|131:334|73:321,1,65,2|2,3:2|0:0,0:0:0:0:
31,280,37765,1,10,0:0:0:0:
31,280,37952,1,2,0:0:0:0:
59,193,38140,6,0,P|39:136|9:68,2,130,2|12|0,3:2|0:0|3:2,0:0:0:0:
141,231,39077,1,10,0:0:0:0:
222,189,39265,2,0,P|241:193|267:203,3,32.5,10|0|0|0,0:0|3:2|3:2|3:2,0:0:0:0:
304,218,39640,5,6,3:2:0:0:
304,218,39827,1,2,3:2:0:0:
384,158,40015,2,0,P|393:194|410:237,1,71.5000021820069,10|0,0:0|3:2,0:0:0:0:
362,327,40390,5,10,0:0:0:0:
362,327,40577,1,2,3:2:0:0:
454,381,40765,2,0,P|463:345|480:302,1,71.5000021820069,10|0,0:0|3:2,0:0:0:0:
509,209,41140,5,10,0:0:0:0:
509,209,41327,1,2,3:2:0:0:
435,126,41515,2,0,P|395:122|356:144,1,71.5000021820069,10|0,0:0|3:2,0:0:0:0:
314,237,41890,5,10,0:0:0:0:
314,237,42077,1,2,3:2:0:0:
253,334,42265,2,0,P|213:338|174:316,1,71.5000021820069,10|0,0:0|3:2,0:0:0:0:
76,366,42640,6,0,P|63:326|48:288,1,68.2499979171754,6|0,3:2|0:0,0:0:0:0:
19,212,43015,1,8,0:0:0:0:
156,79,43390,1,2,3:2:0:0:
156,79,43577,2,0,P|181:106|180:154,1,68.2499979171754,2|8,0:0|0:0,0:0:0:0:
144,222,43952,2,0,P|205:182|279:221,1,136.499995834351,2|0,0:0|0:0,0:0:0:0:
343,250,44515,1,10,0:0:0:0:
481,118,44890,1,2,3:2:0:0:
481,118,45077,2,0,P|445:105|401:95,1,68.2499979171754,2|8,0:0|0:0,0:0:0:0:
353,25,45452,1,2,0:0:0:0:
234,70,45640,5,6,3:2:0:0:
234,70,45827,1,2,3:2:0:0:
146,21,46015,2,0,P|110:19|64:47,1,71.5000021820069,10|0,0:0|3:2,0:0:0:0:
30,121,46390,2,0,P|42:154|55:198,1,71.5000021820069,10|2,0:0|3:2,0:0:0:0:
3,276,46765,2,0,P|43:289|82:303,1,71.5000021820069,10|0,0:0|3:2,0:0:0:0:
170,356,47140,6,0,P|202:343|247:330,1,71.5000021820069,10|2,0:0|3:2,0:0:0:0:
298,244,47515,1,10,0:0:0:0:
244,151,47702,1,0,3:2:0:0:
321,60,47890,2,0,P|356:62|396:93,1,71.5000021820069,10|2,0:0|3:2,0:0:0:0:
421,193,48265,2,0,P|409:232|398:281,1,71.5000021820069,10|0,0:0|3:2,0:0:0:0:
404,381,48640,6,0,P|372:371|315:357,1,68.2499979171754,6|0,3:2|0:0,0:0:0:0:
257,310,49015,1,10,0:0:0:0:
80,377,49390,1,2,3:2:0:0:
80,377,49577,2,0,P|101:354|109:288,1,68.2499979171754,2|8,0:0|0:0,0:0:0:0:
74,230,49952,2,0,P|118:275|190:246,1,136.499995834351,2|0,0:0|0:0,0:0:0:0:
239,179,50515,2,0,P|228:132|210:74,1,102.374996875763,14|8,0:0|0:0,0:0:0:0:
198,34,50890,1,2,3:2:0:0:
289,7,51077,2,0,P|310:1|338:1,2,34.1249989585877,10|8|8,0:0|0:0|0:0,0:0:0:0:
339,113,51452,1,2,3:2:0:0:
339,113,51546,1,0,3:2:0:0:
339,113,51640,6,0,B|395:107|423:143|397:149|434:181|477:173,1,156,4|2,3:1|0:0,0:0:0:0:
511,245,52390,2,0,P|450:261|351:301,1,156,4|2,3:1|0:0,0:0:0:0:
286,326,53140,5,10,3:2:0:0:
162,247,53515,1,10,3:2:0:0:
77,365,53890,2,0,P|41:326|-4:346,1,104,10|0,3:2|0:0,0:0:0:0:
0,341,54640,6,0,P|14:306|31:254,1,71.5000021820069,2|0,3:2|3:2,0:0:0:0:
91,199,55015,2,0,P|77:164|60:112,1,71.5000021820069,0|0,3:2|3:2,0:0:0:0:
114,44,55390,2,0,P|133:47|162:57,3,35.7500010910034,8|8|8|8,0:0|0:0|0:0|0:0,0:0:0:0:
191,77,55765,2,0,P|210:74|239:64,3,35.7500010910034,8|8|8|8,0:0|0:0|0:0|0:0,0:0:0:0:
270,41,56140,6,0,B|317:29|359:65|328:68|361:96|406:92,1,149.500002851486,4|8,3:1|0:0,0:0:0:0:
478,172,56702,1,2,0:0:0:0:
478,172,56890,2,0,P|461:214|449:253,1,74.7500014257431,2|2,3:2|0:0,0:0:0:0:
364,297,57265,1,10,0:0:0:0:
364,297,57452,1,2,0:0:0:0:
261,216,57640,6,0,P|193:192|121:259,1,149.500002851486,2|8,3:2|0:0,0:0:0:0:
62,159,58202,1,2,0:0:0:0:
62,159,58390,2,0,P|39:193|39:243,1,74.7500014257431,2|2,3:2|0:0,0:0:0:0:
83,324,58765,1,10,0:0:0:0:
83,324,58952,1,2,0:0:0:0:
211,364,59140,6,0,P|276:343|372:318,1,149.500002851486,2|8,3:2|0:0,0:0:0:0:
457,360,59702,1,2,0:0:0:0:
457,360,59890,2,0,P|480:332|482:284,1,74.7500014257431,2|2,3:2|0:0,0:0:0:0:
419,212,60265,1,10,0:0:0:0:
469,115,60452,1,2,0:0:0:0:
388,22,60640,6,0,L|295:39,1,74.7500014257431,4|0,3:1|0:0,0:0:0:0:
213,8,61015,2,0,L|120:25,1,74.7500014257431,10|0,0:0|0:0,0:0:0:0:
78,126,61390,2,0,L|169:149,1,74.7500014257431,4|0,3:1|0:0,0:0:0:0:
215,228,61765,2,0,L|306:251,1,74.7500014257431,10|0,0:0|0:0,0:0:0:0:
394,205,62140,6,0,P|337:249|359:336,1,149.500002851486,4|8,3:1|0:0,0:0:0:0:
248,371,62702,1,2,0:0:0:0:
248,371,62890,2,0,P|218:352|170:354,1,74.7500014257431,2|2,3:2|0:0,0:0:0:0:
81,379,63265,1,10,0:0:0:0:
81,379,63452,1,2,0:0:0:0:
6,285,63640,6,0,P|22:225|53:133,1,149.500002851486,2|8,3:2|0:0,0:0:0:0:
39,42,64202,1,2,0:0:0:0:
39,42,64390,2,0,P|78:42|126:82,1,74.7500014257431,2|2,3:2|0:0,0:0:0:0:
191,123,64765,2,0,P|230:122|278:82,1,74.7500014257431,10|2,0:0|0:0,0:0:0:0:
362,33,65140,6,0,B|391:6|435:21|435:21|428:62|468:102,1,149.500002851486,6|8,3:2|0:0,0:0:0:0:
504,188,65702,1,2,0:0:0:0:
504,188,65890,2,0,P|466:198|428:215,1,74.7500014257431,2|2,3:2|0:0,0:0:0:0:
349,270,66265,1,10,0:0:0:0:
349,270,66452,1,2,0:0:0:0:
247,188,66640,6,0,P|219:172|170:175,1,74.7500014257431,14|0,0:0|3:2,0:0:0:0:
154,290,67015,2,0,P|182:306|231:303,1,74.7500014257431,10|0,0:0|0:0,0:0:0:0:
349,270,67390,2,0,L|360:226,3,37.3750007128716,10|8|8|8,0:0|0:0|0:0|0:0,0:0:0:0:
373,193,67765,2,0,L|362:149,3,37.3750007128716,10|8|8|8,0:0|0:0|0:0|0:0,0:0:0:0:
351,105,68140,6,0,B|310:94|310:94|284:47|284:47|222:32,1,149.500002851486,4|8,3:1|0:0,0:0:0:0:
134,16,68702,1,2,0:0:0:0:
134,16,68890,2,0,P|123:54|108:94,1,74.7500014257431,2|2,3:2|0:0,0:0:0:0:
26,147,69265,1,10,0:0:0:0:
26,147,69452,1,2,0:0:0:0:
119,228,69640,6,0,P|182:186|262:220,1,149.500002851486,2|8,3:2|0:0,0:0:0:0:
326,283,70202,1,2,0:0:0:0:
326,283,70390,2,0,P|300:317|300:365,1,74.7500014257431,2|2,3:2|0:0,0:0:0:0:
398,384,70765,1,10,0:0:0:0:
398,384,70952,1,2,0:0:0:0:
496,312,71140,6,0,P|484:238|467:156,1,149.500002851486,2|8,3:2|0:0,0:0:0:0:
504,69,71702,1,2,0:0:0:0:
504,69,71890,2,0,P|479:41|422:38,1,74.7500014257431,2|2,3:2|0:0,0:0:0:0:
354,87,72265,1,10,0:0:0:0:
262,36,72452,1,2,0:0:0:0:
159,108,72640,6,0,P|143:147|132:189,1,74.7500014257431,4|0,3:1|0:0,0:0:0:0:
184,270,73015,2,0,P|168:309|157:351,1,74.7500014257431,10|0,0:0|0:0,0:0:0:0:
295,383,73390,2,0,P|279:344|268:302,1,74.7500014257431,4|0,3:1|0:0,0:0:0:0:
320,221,73765,2,0,P|304:182|293:140,1,74.7500014257431,10|0,0:0|0:0,0:0:0:0:
226,55,74140,6,0,P|273:92|363:73,1,149.500002851486,4|8,3:1|0:0,0:0:0:0:
447,16,74702,1,2,0:0:0:0:
447,16,74890,2,0,P|458:48|475:95,1,74.7500014257431,2|2,3:2|0:0,0:0:0:0:
511,189,75265,1,10,0:0:0:0:
511,189,75452,1,2,0:0:0:0:
431,283,75640,6,0,B|389:255|389:255|285:281,1,149.500002851486,2|8,3:2|0:0,0:0:0:0:
194,305,76202,1,2,0:0:0:0:
194,305,76390,2,0,L|104:279,1,74.7500014257431,2|2,3:2|0:0,0:0:0:0:
18,302,76765,1,10,0:0:0:0:
49,202,76952,1,2,0:0:0:0:
0,86,77140,6,0,P|66:40|148:62,1,149.500002851486,2|8,3:2|0:0,0:0:0:0:
228,6,77702,1,2,0:0:0:0:
228,6,77890,2,0,P|237:45|251:86,1,74.7500014257431,2|2,3:2|0:0,0:0:0:0:
314,159,78265,2,0,P|304:198|291:239,1,74.7500014257431,10|2,0:0|0:0,0:0:0:0:
264,333,78640,5,10,3:2:0:0:
264,333,78827,1,8,3:2:0:0:
511,218,79390,1,10,3:2:0:0:
511,218,79577,1,8,3:2:0:0:
288,42,80140,6,0,B|253:36|226:61|248:70|225:93|178:87,1,116.999996429443,4|0,3:1|0:0,0:0:0:0:
138,63,80515,2,0,P|80:56|26:109,1,116.999996429443,4|0,3:1|0:0,0:0:0:0:
17,140,80890,2,0,L|30:189,3,38.9999988098145,8|8|8|8,0:0|0:0|0:0|0:0,0:0:0:0:
57,222,81265,2,0,L|44:271,3,38.9999988098145,8|8|8|8,0:0|0:0|0:0|0:0,0:0:0:0:
34,311,81640,5,2,3:2:0:0:
34,311,81827,1,0,3:2:0:0:
250,187,82390,6,0,P|262:232|273:277,1,71.5000021820069,4|0,3:1|0:0,0:0:0:0:
290,354,82765,2,0,P|329:324|388:342,1,107.25000327301,6|0,3:2|0:0,0:0:0:0:
429,363,83140,5,14,0:0:0:0:
502,293,83327,1,0,3:2:0:0:
474,195,83515,2,0,P|463:157|448:114,1,77.999997619629,10|0,0:0|3:2,0:0:0:0:
388,40,83890,2,0,P|398:19|412:-1,2,38.9999988098145,10|2|2,0:0|0:0|3:2,0:0:0:0:
307,102,84265,1,10,0:0:0:0:
212,65,84452,2,0,P|172:61|121:91,1,77.999997619629,2|0,0:0|3:2,0:0:0:0:
66,151,84827,5,10,3:2:0:0:
66,151,85015,2,0,P|82:192|90:230,1,77.999997619629,10|0,3:2|3:2,0:0:0:0:
179,297,85390,1,10,3:2:0:0:
179,297,85577,2,0,P|187:259|202:222,1,77.999997619629,10|0,3:2|3:2,0:0:0:0:
291,146,85952,1,10,3:2:0:0:
291,146,86139,2,0,P|299:183|314:220,1,77.999997619629,10|0,3:2|0:0,0:0:0:0:
405,294,86515,1,6,3:2:0:0:
505,220,86702,1,6,3:2:0:0:
