osu file format v14

[General]
AudioFilename: audio.mp3
AudioLeadIn: 0
PreviewTime: 38652
Countdown: 0
SampleSet: Soft
StackLeniency: 0.7
Mode: 0
LetterboxInBreaks: 0
WidescreenStoryboard: 1

[Editor]
Bookmarks: 890,3390,9640,19640,29640,39640,49640,59640,69640,79640,89483
DistanceSpacing: 1.3
BeatDivisor: 4
GridSize: 32
TimelineZoom: 2.2

[Metadata]
Title:FLAME (TV Size)
TitleUnicode:FLAME (TV Size)
Artist:DISH//
ArtistUnicode:DISH//
Creator:Sotarks
Version:Eli's Hard
Source:NARUTO-ナルト-疾風伝
Tags:basensorex elinor [_eli_] eli nymphe reform kujinn shippuden ed ending japanese male vocalist 29 rock anime イショの恋~モテたくて~ saisho no koi ~mote takute~
BeatmapID:2603598
BeatmapSetID:1249344

[Difficulty]
HPDrainRate:4.2
CircleSize:3.6
OverallDifficulty:6.2
ApproachRate:8
SliderMultiplier:1.4
SliderTickRate:1

[Events]
//Background and Video events
0,0,"bg.jpg",0,0
//Break Periods
//Storyboard Layer 0 (Background)
//Storyboard Layer 1 (Fail)
//Storyboard Layer 2 (Pass)
//Storyboard Layer 3 (Foreground)
//Storyboard Layer 4 (Overlay)
//Storyboard Sound Samples

[TimingPoints]
606,312.5,4,2,22,62,1,0
606,-166.666666666667,4,2,22,62,0,0
1856,-100,4,2,22,72,0,0
3106,-100,4,2,22,82,0,0
9356,-111.111111111111,4,2,22,62,0,0
29356,-111.111111111111,4,2,22,72,0,0
34356,-100,4,2,22,72,0,0
35606,-100,4,2,22,82,0,0
38418,-166.666666666667,4,2,22,82,0,0
38496,-166.666666666667,4,2,22,62,0,0
39356,-90.9090909090909,4,2,22,92,0,1
69356,-100,4,2,22,92,0,1
79356,-100,4,2,22,92,0,0

[Colours]
Combo1 : 180,219,231
Combo2 : 255,129,15
Combo3 : 215,211,208
Combo4 : 225,189,227

[HitObjects]
40,44,606,6,0,B|111:13|170:74|144:96|216:168|300:120,1,293.999991027832,8|0,0:2|0:2,0:2:0:0:
388,100,1856,6,0,L|400:176,1,70,8|0,0:2|1:2,0:2:0:0:
408,260,2168,2,0,L|400:296,3,35,8|0|8|0,1:2|1:2|1:2|1:2,0:2:0:0:
425,322,2481,1,0,1:0:0:0:
293,243,2793,2,0,L|284:199,3,35,8|8|8|8,0:0|0:2|0:2|0:0,0:0:0:0:
280,280,3106,6,0,B|200:280|236:336|156:336,1,140,0|8,1:2|0:2,0:0:0:0:
84,284,3574,1,2,0:2:0:0:
44,200,3731,2,0,P|48:160|52:128,1,70,0|0,1:2|1:2,0:0:0:0:
132,84,4043,2,0,P|139:118|145:152,1,70,10|0,0:2|0:2,0:0:0:0:
216,212,4356,6,0,P|284:212|320:156,1,140,2|10,1:2|0:2,0:2:0:0:
320,64,4824,1,0,0:2:0:0:
408,40,4981,2,0,P|432:44|480:52,1,70,2|0,1:2|1:2,0:2:0:0:
504,140,5293,2,0,P|480:144|432:152,1,70,10|0,0:2|0:0,0:2:0:0:
356,196,5606,6,0,B|380:244|380:244|360:328,1,140,0|8,1:2|0:2,0:0:0:0:
276,364,6074,1,2,0:2:0:0:
184,360,6231,2,0,P|152:352|116:340,1,70,0|0,1:2|1:2,0:0:0:0:
80,256,6543,2,0,P|113:244|147:236,1,70,10|0,0:2|0:2,0:0:0:0:
236,216,6856,6,0,B|308:216|288:272|360:272,1,140,2|10,1:2|0:2,0:0:0:0:
448,252,7324,1,0,0:2:0:0:
488,168,7481,2,0,L|476:100,1,70,2|0,1:2|1:2,0:2:0:0:
392,60,7793,2,0,L|380:128,1,70,10|0,0:2|0:2,0:2:0:0:
328,204,8106,5,2,1:2:0:0:
328,204,8262,2,0,P|292:204|260:184,1,70,8|2,1:2|1:2,0:0:0:0:
196,124,8574,1,0,1:2:0:0:
196,124,8652,1,8,0:2:0:0:
196,124,8731,1,8,0:2:0:0:
156,208,8887,2,0,B|176:260|176:260|156:348,1,140,2|8,1:2|1:2,0:2:0:0:
36,356,9356,6,0,L|24:288,1,62.9999980773926,4|0,1:2|1:2,0:0:0:0:
20,212,9668,2,0,P|48:188|84:188,1,62.9999980773926,10|0,0:2|0:0,0:0:0:0:
156,208,9981,2,0,P|184:232|220:232,1,62.9999980773926,2|0,1:2|1:2,0:0:0:0:
288,208,10293,2,0,L|296:136,1,62.9999980773926,10|0,0:2|0:0,0:0:0:0:
296,64,10606,6,0,B|232:48|232:96|176:84,1,125.999996154785,2|10,1:2|0:2,0:0:0:0:
108,36,11074,2,0,L|40:56,1,62.9999980773926,2|0,0:0|1:2,0:0:0:0:
28,132,11387,2,0,L|40:200,1,62.9999980773926,2|8,1:2|0:2,0:0:0:0:
88,260,11699,6,0,B|156:244|144:296|208:280,1,125.999996154785,2|2,0:0|1:2,0:0:0:0:
288,272,12168,2,0,P|294:308|300:344,1,62.9999980773926,10|0,0:2|0:0,0:0:0:0:
376,364,12481,2,0,P|381:329|387:294,1,62.9999980773926,2|2,1:2|1:2,0:0:0:0:
440,240,12793,1,10,0:2:0:0:
440,240,12949,1,0,0:0:0:0:
416,160,13106,6,0,L|272:180,1,125.999996154785,2|10,1:2|0:2,0:0:0:0:
212,164,13574,2,0,P|204:208|200:236,1,62.9999980773926,2|0,0:0|1:2,0:0:0:0:
140,280,13887,2,0,P|72:280|44:236,1,125.999996154785,2|0,1:2|0:0,0:0:0:0:
44,152,14356,6,0,P|76:132|108:132,1,62.9999980773926,0|0,1:2|1:2,0:0:0:0:
180,124,14668,2,0,L|248:108,1,62.9999980773926,10|0,0:2|0:0,0:0:0:0:
296,48,14981,2,0,L|364:60,1,62.9999980773926,2|0,1:2|1:2,0:0:0:0:
436,84,15293,2,0,L|424:152,1,62.9999980773926,10|0,0:2|0:0,0:0:0:0:
388,220,15606,6,0,B|340:196|340:196|256:224,1,125.999996154785,2|10,1:2|0:2,0:0:0:0:
196,248,16074,2,0,P|188:284|196:312,1,62.9999980773926,2|0,0:0|1:2,0:0:0:0:
260,360,16387,2,0,P|300:360|320:348,1,62.9999980773926,2|8,1:2|0:2,0:0:0:0:
392,308,16699,6,0,P|399:230|408:168,1,125.999996154785,2|2,0:0|1:2,0:0:0:0:
416,100,17168,1,10,0:2:0:0:
416,100,17324,2,0,B|356:80|352:132|296:112,1,125.999996154785,2|2,0:0|1:2,0:0:0:0:
232,56,17793,2,0,L|168:64,1,62.9999980773926,10|8,0:2|0:0,0:0:0:0:
128,92,18027,1,8,0:0:0:0:
128,92,18106,6,0,L|136:168,1,62.9999980773926,2|2,1:2|1:2,0:0:0:0:
136,236,18418,1,8,0:2:0:0:
136,236,18574,2,0,L|208:248,1,62.9999980773926,2|0,0:0|1:2,0:0:0:0:
256,184,18887,2,0,L|324:168,1,62.9999980773926,2|8,1:2|0:2,0:0:0:0:
400,164,19199,1,10,0:0:0:0:
400,164,19277,1,8,0:0:0:0:
400,164,19356,6,0,L|468:184,1,62.9999980773926,0|2,1:2|1:2,0:0:0:0:
488,260,19668,2,0,P|488:296|476:328,1,62.9999980773926,10|0,0:2|0:0,0:0:0:0:
400,348,19981,1,2,1:2:0:0:
400,348,20137,2,0,L|328:328,1,62.9999980773926,2|8,1:2|0:2,0:0:0:0:
260,312,20449,1,2,0:0:0:0:
260,312,20606,6,0,B|192:296|200:360|128:340,1,125.999996154785,2|10,1:2|0:2,0:0:0:0:
72,300,21074,2,0,P|64:264|72:232,1,62.9999980773926,2|0,0:0|1:2,0:0:0:0:
104,164,21387,2,0,P|136:156|172:164,1,62.9999980773926,2|8,1:2|0:2,0:0:0:0:
240,192,21699,1,2,0:0:0:0:
240,192,21856,6,0,L|312:204,1,62.9999980773926,2|0,1:2|1:2,0:0:0:0:
364,256,22168,2,0,L|444:240,1,62.9999980773926,10|0,0:2|0:0,0:0:0:0:
480,180,22481,2,0,P|471:147|464:112,1,62.9999980773926,2|2,1:2|1:2,0:0:0:0:
392,80,22793,2,0,P|384:114|375:148,1,62.9999980773926,8|2,0:2|0:0,0:0:0:0:
304,176,23106,6,0,B|236:164|248:228|172:212,1,125.999996154785,2|10,1:2|0:2,0:0:0:0:
112,188,23574,2,0,P|96:156|96:128,1,62.9999980773926,2|0,0:0|1:2,0:0:0:0:
128,48,23887,2,0,P|160:32|188:32,1,62.9999980773926,2|8,1:2|0:2,0:0:0:0:
252,80,24199,6,0,L|272:204,1,125.999996154785,2|0,1:2|1:2,0:0:0:0:
320,272,24668,2,0,P|352:292|380:292,1,62.9999980773926,10|0,0:2|0:0,0:0:0:0:
444,248,24981,2,0,P|456:220|456:188,1,62.9999980773926,2|0,1:2|1:2,0:0:0:0:
436,108,25293,2,0,P|400:100|368:108,1,62.9999980773926,10|0,0:2|0:0,0:0:0:0:
296,124,25606,6,0,L|284:196,1,62.9999980773926,2|0,1:2|1:2,0:0:0:0:
212,220,25918,2,0,L|200:150,1,62.9999980773926,10|0,0:2|0:0,0:0:0:0:
132,112,26231,2,0,P|92:128|60:136,1,62.9999980773926,2|0,1:2|1:2,0:0:0:0:
28,204,26543,2,0,P|61:213|93:226,1,62.9999980773926,10|0,0:2|0:0,0:0:0:0:
148,280,26856,6,0,B|216:287|204:232|268:240,1,125.999996154785,2|8,1:2|0:2,0:0:0:0:
400,328,27481,2,0,L|392:200,1,125.999996154785,2|8,1:2|0:2,0:0:0:0:
380,120,27949,1,0,0:0:0:0:
380,120,28106,6,0,P|308:100|264:120,1,125.999996154785,2|8,1:2|0:2,0:0:0:0:
208,180,28574,1,0,0:0:0:0:
208,180,28731,2,0,L|140:164,1,62.9999980773926,8|4,1:3|1:3,0:0:0:0:
120,88,29043,2,0,L|188:72,1,62.9999980773926,4|4,0:3|0:3,0:0:0:0:
304,64,29356,6,0,P|328:112|328:200,2,125.999996154785,6|8|4,1:2|0:2|0:3,0:0:0:0:
228,32,30137,1,8,0:2:0:0:
228,32,30293,2,0,L|156:48,1,62.9999980773926,0|4,0:2|0:3,0:0:0:0:
92,80,30606,6,0,P|84:112|92:152,1,62.9999980773926,6|8,0:3|0:2,0:0:0:0:
116,216,30918,1,4,0:3:0:0:
116,216,31074,1,4,0:3:0:0:
196,224,31231,2,0,L|264:208,1,62.9999980773926,8|0,0:2|0:2,0:2:0:0:
340,200,31543,2,0,L|408:212,1,62.9999980773926,8|0,0:2|0:2,0:2:0:0:
488,296,31856,6,0,P|448:332|364:332,2,125.999996154785,6|8|4,1:2|0:2|0:3,0:0:0:0:
496,216,32637,1,8,0:2:0:0:
496,216,32793,2,0,L|484:148,1,62.9999980773926,0|4,0:2|0:3,0:0:0:0:
460,76,33106,6,0,P|432:60|400:60,1,62.9999980773926,6|8,0:3|0:2,0:0:0:0:
324,80,33418,1,4,0:3:0:0:
324,80,33574,1,4,0:3:0:0:
256,36,33731,2,0,L|192:48,1,62.9999980773926,8|0,0:2|0:2,0:2:0:0:
156,120,34043,2,0,L|220:136,1,62.9999980773926,8|0,0:2|0:2,0:2:0:0:
284,236,34356,6,0,P|292:280|296:304,1,70,6|0,1:2|1:2,0:0:0:0:
372,356,34668,2,0,P|408:364|440:352,1,70,0|0,1:2|1:2,0:0:0:0:
480,272,34981,2,0,L|468:204,1,70,6|0,1:3|1:2,0:0:0:0:
452,112,35293,2,0,P|416:88|388:88,1,70,0|0,1:2|1:2,0:0:0:0:
300,108,35606,6,0,L|288:184,1,70,6|8,1:3|1:2,0:0:0:0:
236,252,35918,2,0,P|200:252|168:232,1,70,8|8,1:2|1:2,0:0:0:0:
132,152,36231,2,0,L|144:80,1,70,10|8,1:3|1:2,0:0:0:0:
216,32,36543,2,0,P|252:24|284:32,1,70,8|8,1:2|1:2,0:0:0:0:
380,100,36856,6,0,L|372:172,1,70,6|0,1:2|1:2,0:0:0:0:
356,260,37168,1,8,0:2:0:0:
356,260,37324,1,4,1:2:0:0:
272,224,37481,1,0,0:2:0:0:
220,296,37637,2,0,P|192:316|156:316,1,70,0|0,1:2|0:2,0:2:0:0:
72,280,37949,6,0,P|56:248|56:212,1,70,4|0,1:2|2:2,2:2:0:0:
56,124,38262,1,0,1:2:0:0:
140,40,38418,2,0,B|260:32|204:124|328:116,1,209.999993591309,4|0,1:2|0:2,0:2:0:0:
444,104,39356,6,0,L|456:184,1,77.0000023498536,6|0,1:2|0:0,0:2:0:0:
456,280,39668,2,0,P|424:304|388:304,1,77.0000023498536,8|0,0:2|0:2,0:2:0:0:
296,268,39981,1,2,1:2:0:0:
296,268,40137,1,4,1:3:0:0:
196,260,40293,2,0,P|190:293|184:336,1,77.0000023498536,10|0,0:2|0:2,0:2:0:0:
84,360,40606,6,0,P|78:321|71:283,1,77.0000023498536,2|0,1:2|1:2,0:2:0:0:
52,184,40918,2,0,P|92:160|124:160,1,77.0000023498536,8|0,0:2|0:2,0:2:0:0:
220,184,41231,1,2,1:2:0:0:
220,184,41387,1,4,1:3:0:0:
288,256,41543,2,0,P|332:256|360:236,1,77.0000023498536,10|0,0:2|0:2,0:2:0:0:
396,144,41856,6,0,P|396:100|380:72,1,77.0000023498536,2|0,1:2|1:2,0:2:0:0:
292,24,42168,2,0,P|248:24|220:40,1,77.0000023498536,10|0,0:2|0:2,0:2:0:0:
176,128,42481,2,0,P|168:176|164:208,1,77.0000023498536,2|4,1:2|1:3,0:2:0:0:
76,248,42793,2,0,P|70:209|64:171,1,77.0000023498536,10|0,0:2|0:2,0:2:0:0:
44,72,43106,6,0,P|92:28|176:44,1,154.000004699707,2|8,1:2|0:2,0:2:0:0:
236,120,43574,1,0,1:2:0:0:
236,120,43652,1,8,0:2:0:0:
236,120,43731,2,0,L|312:104,1,77.0000023498536,2|4,1:2|1:3,0:0:0:0:
376,28,44043,2,0,L|452:40,1,77.0000023498536,10|0,0:2|0:2,0:2:0:0:
496,152,44356,6,0,B|468:200|468:200|488:296,1,154.000004699707,6|10,1:2|0:2,0:2:0:0:
404,352,44824,1,0,0:2:0:0:
324,288,44981,2,0,P|296:272|252:272,1,77.0000023498536,2|4,1:2|1:3,0:0:0:0:
172,332,45293,2,0,P|144:348|100:348,1,77.0000023498536,10|0,0:2|0:2,0:2:0:0:
32,276,45606,5,2,1:2:0:0:
32,276,45762,1,0,1:2:0:0:
68,184,45918,2,0,L|144:168,1,77.0000023498536,10|0,0:2|0:2,0:2:0:0:
244,164,46231,2,0,L|320:180,1,77.0000023498536,2|4,1:2|1:3,0:0:0:0:
404,232,46543,2,0,L|480:212,1,77.0000023498536,10|0,0:2|0:2,0:2:0:0:
500,112,46856,6,0,P|476:52|392:52,1,154.000004699707,2|10,1:2|0:2,0:2:0:0:
312,104,47324,1,0,0:2:0:0:
236,168,47481,2,0,L|160:152,1,77.0000023498536,2|0,1:2|1:2,0:2:0:0:
68,116,47793,2,0,P|60:80|72:40,1,77.0000023498536,10|0,0:2|1:2,0:0:0:0:
116,20,48027,1,8,0:2:0:0:
116,20,48106,6,0,P|152:8|192:20,1,77.0000023498536,2|0,1:2|1:2,0:0:0:0:
268,108,48418,2,0,L|280:184,1,77.0000023498536,8|0,0:2|0:0,0:2:0:0:
316,280,48731,2,0,P|352:300|388:300,1,77.0000023498536,2|8,1:2|0:2,0:0:0:0:
464,236,49043,2,0,L|472:196,3,38.5000011749268,2|0|8|8,1:2|1:2|0:2|0:2,0:2:0:0:
468,148,49356,6,0,L|388:128,1,77.0000023498536,6|0,1:2|0:0,0:2:0:0:
292,124,49668,2,0,P|280:164|280:200,1,77.0000023498536,8|0,0:2|0:2,0:2:0:0:
280,300,49981,1,2,1:2:0:0:
280,300,50137,1,4,1:3:0:0:
192,344,50293,2,0,L|116:328,1,77.0000023498536,10|0,0:2|0:2,0:2:0:0:
84,232,50606,6,0,L|160:216,1,77.0000023498536,2|0,1:2|1:2,0:2:0:0:
256,196,50918,2,0,P|296:196|328:216,1,77.0000023498536,8|0,0:2|0:2,0:2:0:0:
408,276,51231,1,2,1:2:0:0:
408,276,51387,1,4,1:3:0:0:
472,200,51543,2,0,L|480:120,1,77.0000023498536,10|0,0:2|0:2,0:2:0:0:
432,32,51856,6,0,L|356:48,1,77.0000023498536,2|0,1:2|1:2,0:2:0:0:
300,128,52168,2,0,L|224:112,1,77.0000023498536,10|0,0:2|0:2,0:2:0:0:
164,32,52481,2,0,L|88:48,1,77.0000023498536,2|4,1:2|1:3,0:2:0:0:
28,128,52793,2,0,L|44:208,1,77.0000023498536,10|0,0:2|0:2,0:2:0:0:
84,296,53106,6,0,B|160:272|148:352|228:328,1,154.000004699707,2|8,1:2|0:2,0:2:0:0:
316,284,53574,1,0,1:2:0:0:
316,284,53652,1,8,0:2:0:0:
316,284,53731,2,0,L|324:208,1,77.0000023498536,2|4,1:2|1:3,0:0:0:0:
420,176,54043,2,0,L|404:100,1,77.0000023498536,10|0,0:2|0:2,0:2:0:0:
304,32,54356,6,0,P|232:32|192:96,1,154.000004699707,6|10,1:2|0:2,0:2:0:0:
212,196,54824,1,0,0:2:0:0:
284,268,54981,2,0,P|328:268|356:248,1,77.0000023498536,2|4,1:2|1:3,0:0:0:0:
412,164,55293,2,0,P|456:164|484:180,1,77.0000023498536,10|0,0:2|0:2,0:2:0:0:
496,280,55606,5,2,1:2:0:0:
496,280,55762,1,0,1:2:0:0:
424,348,55918,2,0,L|348:328,1,77.0000023498536,10|0,0:2|0:2,0:2:0:0:
256,288,56231,2,0,L|180:308,1,77.0000023498536,2|4,1:2|1:3,0:0:0:0:
88,340,56543,2,0,L|76:264,1,77.0000023498536,10|0,0:2|0:2,0:2:0:0:
80,164,56856,6,0,B|156:140|152:216|228:188,1,154.000004699707,2|10,1:2|0:2,0:0:0:0:
320,164,57324,1,0,0:2:0:0:
336,64,57481,2,0,P|288:48|260:36,1,77.0000023498536,2|0,1:2|1:2,0:0:0:0:
164,32,57793,2,0,P|126:48|89:61,1,77.0000023498536,10|0,0:2|1:2,0:0:0:0:
24,136,58106,6,0,P|32:172|52:288,1,154.000004699707,2|8,1:2|0:2,0:0:0:0:
128,352,58574,1,0,0:0:0:0:
200,280,58731,2,0,P|236:260|272:260,1,77.0000023498536,2|8,1:2|0:2,0:0:0:0:
348,324,59043,2,0,L|388:320,3,38.5000011749268,10|0|8|8,0:2|0:0|0:2|0:2,0:0:0:0:
420,284,59356,6,0,L|428:208,1,77.0000023498536,6|0,1:2|0:0,0:2:0:0:
436,108,59668,2,0,P|404:88|364:88,1,77.0000023498536,8|0,0:2|0:2,0:2:0:0:
268,108,59981,1,2,1:2:0:0:
268,108,60137,1,4,1:3:0:0:
184,160,60293,2,0,P|173:203|168:235,1,77.0000023498536,10|0,0:2|0:2,0:2:0:0:
80,284,60606,6,0,P|75:245|67:207,1,77.0000023498536,2|0,1:2|1:2,0:2:0:0:
52,108,60918,2,0,P|84:84|124:84,1,77.0000023498536,8|0,0:2|0:2,0:2:0:0:
216,112,61231,1,2,1:2:0:0:
216,112,61387,1,4,1:3:0:0:
292,176,61543,2,0,L|304:256,1,77.0000023498536,10|0,0:2|0:2,0:2:0:0:
352,340,61856,6,0,L|432:324,1,77.0000023498536,2|0,1:2|1:2,0:2:0:0:
480,240,62168,2,0,P|480:192|464:168,1,77.0000023498536,8|0,0:2|0:2,0:2:0:0:
380,112,62481,1,2,1:2:0:0:
380,112,62637,1,4,1:3:0:0:
300,168,62793,2,0,P|264:156|220:144,1,77.0000023498536,10|0,0:2|0:2,0:2:0:0:
192,52,63106,6,0,P|228:40|272:28,1,77.0000023498536,2|0,1:2|1:0,0:2:0:0:
364,24,63418,2,0,P|400:32|440:40,1,77.0000023498536,8|0,0:2|1:2,0:0:0:0:
488,56,63652,1,8,0:2:0:0:
488,56,63731,2,0,P|500:92|492:132,1,77.0000023498536,2|4,1:2|1:3,0:0:0:0:
444,216,64043,2,0,P|408:240|376:240,1,77.0000023498536,10|0,0:2|0:2,0:0:0:0:
288,156,64356,6,0,B|216:148|240:216|148:208,1,154.000004699707,4|10,1:2|0:2,0:0:0:0:
72,144,64824,1,0,0:2:0:0:
92,44,64981,2,0,L|172:28,1,77.0000023498536,2|4,1:2|1:3,0:0:0:0:
268,24,65293,2,0,L|344:40,1,77.0000023498536,10|0,0:2|0:2,0:2:0:0:
440,64,65606,5,2,1:2:0:0:
440,64,65762,1,0,1:2:0:0:
464,160,65918,2,0,P|456:194|448:236,1,77.0000023498536,10|0,0:2|0:2,0:2:0:0:
360,280,66231,2,0,P|352:242|344:204,1,77.0000023498536,2|4,1:2|1:3,0:0:0:0:
308,112,66543,2,0,P|268:102|232:112,1,77.0000023498536,10|0,0:2|0:2,0:2:0:0:
160,180,66856,6,0,B|188:236|188:236|164:328,1,154.000004699707,2|10,1:2|0:2,0:0:0:0:
68,356,67324,1,0,0:2:0:0:
8,276,67481,2,0,L|16:200,1,77.0000023498536,2|0,1:2|1:2,0:0:0:0:
64,112,67793,2,0,L|140:120,1,77.0000023498536,10|0,0:2|1:2,0:0:0:0:
200,200,68106,6,0,L|276:184,1,77.0000023498536,14|0,0:2|1:2,0:0:0:0:
352,120,68418,2,0,P|352:76|336:48,1,77.0000023498536,12|0,0:2|1:2,0:0:0:0:
236,28,68731,2,0,L|196:36,3,38.5000011749268,12|0|4|0,0:2|1:0|1:3|1:0,0:0:0:0:
156,60,69043,2,0,L|118:52,3,38.5000011749268,4|0|4|0,1:3|1:0|1:3|1:0,0:0:0:0:
72,56,69356,6,0,L|56:128,1,70,14|0,0:2|1:2,0:0:0:0:
24,208,69668,2,0,P|24:240|36:276,1,70,8|0,0:2|1:2,0:0:0:0:
104,340,69981,2,0,L|172:324,1,70,10|0,0:2|1:2,0:0:0:0:
216,320,70215,1,0,1:2:0:0:
216,320,70293,2,0,L|288:336,1,70,10|0,0:2|1:2,0:0:0:0:
372,312,70606,5,14,0:2:0:0:
372,312,70762,1,0,1:2:0:0:
356,224,70918,2,0,P|324:204|288:204,1,70,8|0,0:2|1:2,0:0:0:0:
200,192,71231,2,0,L|188:120,1,70,10|0,0:2|1:2,0:0:0:0:
216,36,71543,2,0,L|284:24,1,70,10|0,0:2|1:2,0:0:0:0:
368,60,71856,5,14,0:2:0:0:
368,60,72012,1,0,1:2:0:0:
420,132,72168,2,0,P|412:176|408:204,1,70,10|0,0:2|1:2,0:0:0:0:
384,288,72481,2,0,P|352:308|320:308,1,70,10|0,0:2|1:2,0:0:0:0:
280,292,72715,1,0,1:2:0:0:
280,292,72793,6,0,P|248:272|216:272,1,70,10|0,0:2|1:2,0:0:0:0:
132,308,73106,1,14,0:2:0:0:
132,308,73262,1,0,1:2:0:0:
48,276,73418,2,0,L|36:204,1,70,8|0,0:2|0:2,0:2:0:0:
36,116,73731,2,0,L|104:100,1,70,2|8,1:2|0:2,0:2:0:0:
196,96,74043,2,0,L|236:100,3,35,10|8|8|8,0:2|0:2|0:2|0:2,0:2:0:0:
276,108,74356,6,0,P|284:144|292:184,1,70,6|0,1:2|1:2,0:0:0:0:
368,224,74668,2,0,P|404:212|436:204,1,70,10|0,0:2|0:2,0:2:0:0:
480,124,74981,1,2,1:2:0:0:
480,124,75137,1,4,1:3:0:0:
436,44,75293,2,0,P|416:32|368:32,1,70,10|0,0:2|0:2,0:2:0:0:
288,76,75606,6,0,L|216:64,1,70,2|0,1:2|1:2,0:2:0:0:
128,56,75918,1,10,0:2:0:0:
128,56,76074,1,0,0:2:0:0:
52,108,76231,2,0,P|36:144|36:180,1,70,2|4,1:2|0:3,0:0:0:0:
48,264,76543,2,0,P|56:297|63:332,1,70,10|0,0:2|0:2,0:2:0:0:
152,356,76856,6,0,P|159:321|168:287,1,70,14|0,0:2|1:2,0:0:0:0:
236,228,77168,2,0,P|244:261|252:296,1,70,10|0,0:2|1:2,0:0:0:0:
320,356,77481,2,0,P|360:356|388:336,1,70,14|0,0:2|1:2,0:0:0:0:
408,252,77793,2,0,P|408:208|396:184,1,70,10|8,0:2|0:2,0:0:0:0:
352,164,78027,1,8,0:2:0:0:
352,164,78106,6,0,L|280:176,1,70,14|4,0:2|0:3,0:2:0:0:
208,220,78418,2,0,L|136:204,1,70,8|8,1:3|0:2,0:2:0:0:
76,140,78731,2,0,L|72:104,3,35,10|0|4|4,0:2|0:0|0:3|0:3,0:2:0:0:
76,60,79043,2,0,L|144:36,1,70,6|0,0:3|1:3,0:3:0:0:
188,36,79277,1,0,1:2:0:0:
188,36,79356,6,0,L|256:48,1,70,4|0,1:2|0:0,0:2:0:0:
348,60,79668,2,0,P|364:92|364:132,1,70,8|0,0:2|0:2,0:2:0:0:
332,212,79981,1,0,1:2:0:0:
332,212,80137,1,0,1:2:0:0:
244,228,80293,2,0,P|212:236|176:244,1,70,8|0,0:2|0:0,0:2:0:0:
140,328,80606,6,0,P|172:336|208:344,1,70,0|0,1:2|1:2,0:0:0:0:
300,356,80918,2,0,P|340:356|364:340,1,70,8|0,0:2|0:2,0:2:0:0:
396,256,81231,1,0,1:2:0:0:
396,256,81387,1,0,1:2:0:0:
436,172,81543,2,0,P|428:136|424:104,1,70,8|0,0:2|0:0,0:2:0:0:
340,68,81856,6,0,P|335:102|327:136,1,70,0|0,1:2|1:2,0:0:0:0:
272,208,82168,2,0,P|232:208|208:192,1,70,8|0,0:2|0:0,0:2:0:0:
176,160,82402,1,8,0:2:0:0:
176,160,82481,2,0,L|164:92,1,70,0|0,1:2|1:2,0:0:0:0:
84,48,82793,2,0,L|72:120,1,70,8|0,0:2|0:2,0:2:0:0:
56,208,83106,5,0,1:2:0:0:
84,296,83262,2,0,P|120:316|148:316,1,70,0|8,1:2|0:2,0:0:0:0:
236,296,83574,1,8,0:2:0:0:
284,216,83731,2,0,L|296:148,1,70,0|0,1:2|1:2,0:0:0:0:
380,112,84043,2,0,L|392:180,1,70,8|0,0:2|1:2,0:0:0:0:
432,264,84356,6,0,P|420:300|412:332,1,70,0|0,1:2|1:2,0:2:0:0:
328,360,84668,2,0,P|288:360|264:340,1,70,8|0,0:2|0:0,0:2:0:0:
212,268,84981,1,0,1:2:0:0:
212,268,85137,1,0,1:2:0:0:
256,188,85293,2,0,L|324:176,1,70,8|0,0:2|0:2,0:2:0:0:
360,92,85606,6,0,L|292:80,1,70,0|0,1:2|1:2,0:2:0:0:
200,64,85918,1,8,0:2:0:0:
200,64,86074,1,8,0:2:0:0:
116,96,86231,2,0,P|108:136|104:168,1,70,0|0,1:2|1:2,0:0:0:0:
40,228,86543,2,0,P|51:267|58:298,1,70,8|0,0:2|0:0,0:2:0:0:
132,348,86856,6,0,P|172:348|196:328,1,70,0|0,1:2|1:2,0:2:0:0:
228,244,87168,2,0,P|256:228|296:228,1,70,8|0,0:2|1:2,0:0:0:0:
380,260,87481,1,8,0:2:0:0:
380,260,87637,1,0,1:2:0:0:
460,304,87793,1,8,0:2:0:0:
460,304,87949,1,0,1:2:0:0:
492,220,88106,6,0,P|504:188|496:152,1,70,8|0,1:2|0:2,0:2:0:0:
456,72,88418,2,0,L|420:80,3,35,4|4|4|4,0:3|0:3|0:3|0:3,0:3:0:0:
380,96,88731,2,0,L|345:88,4,35,4|4|4|4|4,0:3|0:3|0:3|0:3|0:3,0:3:0:0:
440,164,89199,5,4,0:3:0:0:
