osu file format v14

[General]
AudioFilename: audio.mp3
AudioLeadIn: 0
PreviewTime: 194154
Countdown: 0
SampleSet: Normal
StackLeniency: 0.7
Mode: 1
LetterboxInBreaks: 0
WidescreenStoryboard: 1

[Editor]
Bookmarks: 21329,31764,56546,77416,87851,108720,121764,142633,153068,163503,184372,194807,215677,236546,243068,256111
DistanceSpacing: 0.1
BeatDivisor: 16
GridSize: 16
TimelineZoom: 2.899999

[Metadata]
Title:Sustain the untruth
TitleUnicode:Sustain the untruth
Artist:DIR EN GREY
ArtistUnicode:DIR EN GREY
Creator:OyeSilence
Version:Oni
Source:
Tags:metal jmetal vkei visual kei japan japanese hard rock drums melodic death black symphonic
BeatmapID:2858121
BeatmapSetID:1383542

[Difficulty]
HPDrainRate:7
CircleSize:4
OverallDifficulty:7
ApproachRate:7
SliderMultiplier:1.4
SliderTickRate:1

[Events]
//Background and Video events
0,0,"direngrey arche phenomenon.jpg",0,100
//Break Periods
//Storyboard Layer 0 (Background)
//Storyboard Layer 1 (Fail)
//Storyboard Layer 2 (Pass)
//Storyboard Layer 3 (Foreground)
//Storyboard Layer 4 (Overlay)
//Storyboard Sound Samples

[TimingPoints]
459.773471094124,652.173913043478,4,1,0,100,1,0
622,-100,4,1,0,100,0,0
948,-97.0873786407767,4,1,0,100,0,0
1030,-94.3396226415094,4,1,0,100,0,0
1111,-90.0900900900901,4,1,0,100,0,0
1274,-86.9565217391304,4,1,0,100,0,0
3068,-80.6451612903226,4,1,0,100,0,0
3231,-77.5193798449612,4,1,0,100,0,0
3394,-75.7575757575758,4,1,0,100,0,0
3557,-74.0740740740741,4,1,0,100,0,0
3639,-71.9424460431655,4,1,0,100,0,0
3720,-70.4225352112676,4,1,0,100,0,0
3883,-68.9655172413793,4,1,0,100,0,0
4209,-68.0272108843537,4,1,0,100,0,0
4372,-66.6666666666667,4,1,0,100,0,0
29155,-67.5675675675676,4,1,0,100,0,0
29318,-68.4931506849315,4,1,0,100,0,0
29481,-69.4444444444444,4,1,0,100,0,0
29644,-70.9219858156028,4,1,0,100,0,0
29807,-72.463768115942,4,1,0,100,0,0
29970,-74.0740740740741,4,1,0,100,0,0
30133,-75.187969924812,4,1,0,100,0,0
30296,-77.5193798449612,4,1,0,100,0,0
30459,-79.3650793650794,4,1,0,100,0,0
30622,-81.3008130081301,4,1,0,100,0,0
30785,-84.0336134453781,4,1,0,100,0,0
30948,-86.2068965517241,4,1,0,100,0,0
31030,-88.4955752212389,4,1,0,100,0,0
31111,-90.9090909090909,4,1,0,100,0,0
31274,-93.4579439252336,4,1,0,100,0,0
31438,-95.2380952380952,4,1,0,100,0,0
31601,-97.0873786407767,4,1,0,100,0,0
31764,-100,4,1,0,100,0,0
51329,652.173913043478,4,1,0,100,1,0
52633,-95.2380952380952,4,1,0,100,0,0
52877,-90.9090909090909,4,1,0,100,0,0
53122,-88.4955752212389,4,1,0,100,0,0
53204,-86.2068965517241,4,1,0,100,0,0
53285,-84.0336134453781,4,1,0,100,0,0
53367,-81.9672131147541,4,1,0,100,0,0
53448,-80,4,1,0,100,0,0
53530,-78.7401574803149,4,1,0,100,0,0
53611,-76.9230769230769,4,1,0,100,0,0
53693,-75.187969924812,4,1,0,100,0,0
53774,-74.0740740740741,4,1,0,100,0,0
53937,-71.4285714285714,4,1,0,100,0,0
54182,-68.9655172413793,4,1,0,100,0,0
54426,-66.6666666666667,4,1,0,100,0,0
54589,-64.5161290322581,4,1,0,100,0,0
54915,-62.5,4,1,0,100,0,0
55242,-60.6060606060606,4,1,0,100,0,0
55405,-58.8235294117647,4,1,0,100,0,0
55568,-57.1428571428571,4,1,0,100,0,0
55894,-55.5555555555556,4,1,0,100,0,0
56057,-54.054054054054,4,1,0,100,0,0
56220,-52.6315789473684,4,1,0,100,0,0
56383,-51.2820512820513,4,1,0,100,0,0
56546,-50,4,1,0,100,0,1
76111,-51.2820512820513,4,1,0,100,0,1
76274,-52.6315789473684,4,1,0,100,0,1
76437,-54.054054054054,4,1,0,100,0,1
76600,-55.5555555555556,4,1,0,100,0,1
76682,-57.1428571428571,4,1,0,100,0,1
76763,-58.8235294117647,4,1,0,100,0,1
76926,-60.6060606060606,4,1,0,100,0,1
77089,-62.5,4,1,0,100,0,1
77252,-64.5161290322581,4,1,0,100,0,1
77415,-66.6666666666667,4,1,0,100,0,0
85242,-68.0272108843537,4,1,0,100,0,0
85405,-68.9655172413793,4,1,0,100,0,0
85568,-69.9300699300699,4,1,0,100,0,0
85731,-71.4285714285714,4,1,0,100,0,0
85894,-72.992700729927,4,1,0,100,0,0
86057,-74.0740740740741,4,1,0,100,0,0
86383,-75.187969924812,4,1,0,100,0,0
86546,-76.9230769230769,4,1,0,100,0,0
86709,-78.7401574803149,4,1,0,100,0,0
86872,-80,4,1,0,100,0,0
87035,-81.3008130081301,4,1,0,100,0,0
87117,-83.3333333333333,4,1,0,100,0,0
87198,-85.4700854700855,4,1,0,100,0,0
87415,-86.9565217391304,4,1,0,100,0,0
87524,-88.4955752212389,4,1,0,100,0,0
87633,-92.5925925925926,4,1,0,100,0,0
87742,-96.1538461538461,4,1,0,100,0,0
87850,-100,4,1,0,100,0,0
107415,-100,4,1,0,100,0,0
107578,-95.2380952380952,4,1,0,100,0,0
107742,-90.9090909090909,4,1,0,100,0,0
107905,-88.4955752212389,4,1,0,100,0,0
108068,-86.9565217391304,4,1,0,100,0,0
108149,-83.3333333333333,4,1,0,100,0,0
108231,-80,4,1,0,100,0,0
108312,-76.9230769230769,4,1,0,100,0,0
108394,-74.0740740740741,4,1,0,100,0,0
108475,-71.4285714285714,4,1,0,100,0,0
108557,-68.9655172413793,4,1,0,100,0,0
108720,-66.6666666666667,4,1,0,100,0,0
119155,-65.359477124183,4,1,0,100,0,0
119644,-64.5161290322581,4,1,0,100,0,0
119807,-63.6942675159236,4,1,0,100,0,0
120133,-62.5,4,1,0,100,0,0
120459,-60.6060606060606,4,1,0,100,0,0
120622,-58.8235294117647,4,1,0,100,0,0
120785,-57.1428571428571,4,1,0,100,0,0
121111,-55.5555555555556,4,1,0,100,0,0
121274,-54.054054054054,4,1,0,100,0,0
121437,-52.6315789473684,4,1,0,100,0,0
121600,-51.2820512820513,4,1,0,100,0,0
121763,-50,4,1,0,100,0,1
141328,-51.2820512820513,4,1,0,100,0,1
141492,-52.6315789473684,4,1,0,100,0,1
141655,-54.054054054054,4,1,0,100,0,1
141818,-55.5555555555556,4,1,0,100,0,1
141899,-57.1428571428571,4,1,0,100,0,1
141981,-58.8235294117647,4,1,0,100,0,1
142144,-60.6060606060606,4,1,0,100,0,1
142307,-62.5,4,1,0,100,0,1
142470,-64.5161290322581,4,1,0,100,0,1
142633,-66.6666666666667,4,1,0,100,0,0
182089,-68.0272108843537,4,1,0,100,0,0
182252,-68.9655172413793,4,1,0,100,0,0
182334,-69.9300699300699,4,1,0,100,0,0
182415,-71.4285714285714,4,1,0,100,0,0
182578,-72.992700729927,4,1,0,100,0,0
182660,-74.0740740740741,4,1,0,100,0,0
182742,-75.187969924812,4,1,0,100,0,0
182905,-76.9230769230769,4,1,0,100,0,0
183068,-78.7401574803149,4,1,0,100,0,0
183231,-80,4,1,0,100,0,0
183394,-83.3333333333333,4,1,0,100,0,0
183557,-86.9565217391304,4,1,0,100,0,0
183720,-90.9090909090909,4,1,0,100,0,0
183883,-95.2380952380952,4,1,0,100,0,0
184372,-100,4,1,0,100,0,0
192035,-95.2380952380952,4,1,0,100,0,0
192198,-90.9090909090909,4,1,0,100,0,0
192361,-86.9565217391304,4,1,0,100,0,0
192524,-83.3333333333333,4,1,0,100,0,0
192687,-80,4,1,0,100,0,0
192850,-76.9230769230769,4,1,0,100,0,0
193068,-74.0740740740741,4,1,0,100,0,0
193176,-71.4285714285714,4,1,0,100,0,0
193285,-68.9655172413793,4,1,0,100,0,0
193394,-66.6666666666667,4,1,0,100,0,0
193502,-64.5161290322581,4,1,0,100,0,0
193665,-62.5,4,1,0,100,0,0
193828,-60.6060606060606,4,1,0,100,0,0
193992,-58.8235294117647,4,1,0,100,0,0
194073,-57.1428571428571,4,1,0,100,0,0
194155,-55.5555555555556,4,1,0,100,0,0
194318,-54.054054054054,4,1,0,100,0,0
194481,-52.6315789473684,4,1,0,100,0,0
194644,-51.2820512820513,4,1,0,100,0,0
194807,-50,4,1,0,100,0,1
235242,-50.761421319797,4,1,0,100,0,1
235405,-51.2820512820513,4,1,0,100,0,1
235568,-52.6315789473684,4,1,0,100,0,1
235649,-54.054054054054,4,1,0,100,0,1
235731,-55.5555555555556,4,1,0,100,0,1
235812,-57.1428571428571,4,1,0,100,0,1
235894,-58.8235294117647,4,1,0,100,0,1
236057,-60.6060606060606,4,1,0,100,0,1
236220,-62.5,4,1,0,100,0,1
236383,-64.5161290322581,4,1,0,100,0,1
236546,-66.6666666666667,4,1,0,100,0,0
243068,-100,4,1,0,100,0,0

[Colours]
Combo1 : 253,248,219
Combo2 : 35,102,116

[HitObjects]
256,192,459,5,0,0:0:0:0:
256,192,622,1,2,0:0:0:0:
256,192,948,1,0,0:0:0:0:
256,192,1030,1,0,0:0:0:0:
256,192,1111,1,2,0:0:0:0:
256,192,1274,1,0,0:0:0:0:
256,192,3068,1,0,0:0:0:0:
256,192,3231,1,2,0:0:0:0:
256,192,3394,1,2,0:0:0:0:
256,192,3557,1,0,0:0:0:0:
256,192,3639,1,0,0:0:0:0:
256,192,3720,1,2,0:0:0:0:
256,192,3883,1,0,0:0:0:0:
256,192,4209,1,0,0:0:0:0:
256,192,4372,1,2,0:0:0:0:
256,192,5677,1,0,0:0:0:0:
256,192,5840,1,0,0:0:0:0:
256,192,6003,1,2,0:0:0:0:
256,192,6166,1,0,0:0:0:0:
256,192,6329,1,2,0:0:0:0:
256,192,6492,1,0,0:0:0:0:
256,192,6818,1,2,0:0:0:0:
256,192,6981,1,0,0:0:0:0:
256,192,7144,1,2,0:0:0:0:
256,192,7307,1,2,0:0:0:0:
256,192,7470,1,0,0:0:0:0:
256,192,7552,1,0,0:0:0:0:
256,192,7633,1,2,0:0:0:0:
256,192,7796,1,2,0:0:0:0:
256,192,7959,1,0,0:0:0:0:
256,192,8122,1,2,0:0:0:0:
256,192,8285,1,0,0:0:0:0:
256,192,8448,1,0,0:0:0:0:
256,192,8611,1,2,0:0:0:0:
256,192,8774,1,0,0:0:0:0:
256,192,8938,1,2,0:0:0:0:
256,192,9101,1,0,0:0:0:0:
256,192,9427,1,2,0:0:0:0:
256,192,9590,1,0,0:0:0:0:
256,192,9807,1,0,0:0:0:0:
256,192,9916,1,2,0:0:0:0:
256,192,10024,1,0,0:0:0:0:
256,192,10133,1,0,0:0:0:0:
256,192,10242,1,0,0:0:0:0:
256,192,10351,1,2,0:0:0:0:
256,192,10459,1,0,0:0:0:0:
256,192,10568,1,0,0:0:0:0:
256,192,10677,1,0,0:0:0:0:
256,192,10785,1,0,0:0:0:0:
256,192,10894,1,0,0:0:0:0:
256,96,11220,1,0,0:0:0:0:
256,96,12851,1,2,0:0:0:0:
256,96,13068,1,2,0:0:0:0:
256,96,13340,1,0,0:0:0:0:
256,96,13421,1,0,0:0:0:0:
256,96,13503,1,2,0:0:0:0:
256,96,13829,1,0,0:0:0:0:
256,96,14155,1,2,0:0:0:0:
256,96,14318,1,0,0:0:0:0:
256,96,14644,1,2,0:0:0:0:
256,96,14807,1,0,0:0:0:0:
256,96,15052,1,0,0:0:0:0:
256,96,15296,1,0,0:0:0:0:
256,96,15459,1,2,0:0:0:0:
256,96,15622,1,0,0:0:0:0:
256,96,15948,1,2,0:0:0:0:
256,96,16111,1,0,0:0:0:0:
256,96,16274,1,0,0:0:0:0:
256,96,16438,1,0,0:0:0:0:
256,96,16764,1,2,0:0:0:0:
256,96,16927,1,0,0:0:0:0:
256,96,17090,1,2,0:0:0:0:
256,96,17253,1,2,0:0:0:0:
256,96,17416,1,0,0:0:0:0:
256,96,17660,1,0,0:0:0:0:
256,96,17905,1,0,0:0:0:0:
256,96,18068,1,2,0:0:0:0:
256,96,18231,1,0,0:0:0:0:
256,96,18394,1,2,0:0:0:0:
256,96,18557,1,2,0:0:0:0:
256,96,18720,1,0,0:0:0:0:
256,96,19046,1,2,0:0:0:0:
256,96,19372,1,2,0:0:0:0:
256,96,19535,1,0,0:0:0:0:
256,96,19698,1,2,0:0:0:0:
256,96,20024,1,0,0:0:0:0:
256,96,20242,1,2,0:0:0:0:
256,96,20459,1,2,0:0:0:0:
256,96,20677,1,2,0:0:0:0:
256,96,21003,1,0,0:0:0:0:
256,96,21166,1,2,0:0:0:0:
256,96,21329,1,0,0:0:0:0:
256,96,21492,1,0,0:0:0:0:
256,96,21655,1,2,0:0:0:0:
256,96,21818,1,0,0:0:0:0:
256,96,21981,1,2,0:0:0:0:
256,96,22144,1,0,0:0:0:0:
256,96,22307,1,2,0:0:0:0:
256,96,22470,1,2,0:0:0:0:
256,96,22633,1,0,0:0:0:0:
256,192,22796,1,2,0:0:0:0:
256,192,22959,1,2,0:0:0:0:
256,192,23122,1,0,0:0:0:0:
256,192,23204,1,0,0:0:0:0:
256,192,23285,1,2,0:0:0:0:
256,192,23448,1,2,0:0:0:0:
256,192,23611,1,0,0:0:0:0:
256,192,23774,1,2,0:0:0:0:
256,192,23938,1,0,0:0:0:0:
256,192,24101,1,0,0:0:0:0:
256,192,24264,1,2,0:0:0:0:
256,192,24427,1,0,0:0:0:0:
256,192,24590,1,2,0:0:0:0:
256,192,24753,1,0,0:0:0:0:
256,192,24916,1,2,0:0:0:0:
256,192,24997,1,2,0:0:0:0:
256,192,25079,1,2,0:0:0:0:
256,192,25242,1,0,0:0:0:0:
256,192,25405,1,2,0:0:0:0:
256,192,25568,1,2,0:0:0:0:
256,192,25731,1,0,0:0:0:0:
256,192,25813,1,0,0:0:0:0:
256,192,25894,1,2,0:0:0:0:
256,192,26057,1,2,0:0:0:0:
256,192,26220,1,0,0:0:0:0:
256,192,26383,1,2,0:0:0:0:
256,192,26546,1,0,0:0:0:0:
256,192,26709,1,0,0:0:0:0:
256,192,26872,1,2,0:0:0:0:
256,192,27035,1,0,0:0:0:0:
256,192,27198,1,2,0:0:0:0:
256,192,27361,1,0,0:0:0:0:
256,192,27524,1,2,0:0:0:0:
256,192,27688,1,2,0:0:0:0:
256,192,27851,1,0,0:0:0:0:
256,192,28014,1,2,0:0:0:0:
256,192,28177,1,2,0:0:0:0:
256,192,28340,1,0,0:0:0:0:
256,192,28421,1,0,0:0:0:0:
256,192,28503,1,2,0:0:0:0:
256,192,28666,1,2,0:0:0:0:
256,192,28829,1,0,0:0:0:0:
256,192,28992,1,2,0:0:0:0:
256,192,29155,1,0,0:0:0:0:
256,192,29318,1,0,0:0:0:0:
256,192,29481,1,2,0:0:0:0:
256,192,29644,1,0,0:0:0:0:
256,192,29807,1,2,0:0:0:0:
256,192,29970,1,0,0:0:0:0:
256,192,30133,1,2,0:0:0:0:
256,192,30296,1,0,0:0:0:0:
256,192,30459,1,0,0:0:0:0:
256,192,30622,1,2,0:0:0:0:
256,192,30785,1,2,0:0:0:0:
256,192,30948,1,0,0:0:0:0:
256,192,31030,1,0,0:0:0:0:
256,192,31111,1,2,0:0:0:0:
256,192,31274,1,2,0:0:0:0:
256,192,31438,1,2,0:0:0:0:
256,192,31601,1,0,0:0:0:0:
256,192,31764,1,0,0:0:0:0:
256,192,32253,1,0,0:0:0:0:
256,192,32416,1,2,0:0:0:0:
256,192,32579,1,0,0:0:0:0:
256,192,32905,1,0,0:0:0:0:
256,192,32986,1,0,0:0:0:0:
256,192,33068,1,0,0:0:0:0:
256,192,33231,1,2,0:0:0:0:
256,192,33557,1,0,0:0:0:0:
256,192,33720,1,2,0:0:0:0:
256,192,33883,1,0,0:0:0:0:
256,192,34046,1,0,0:0:0:0:
256,192,34209,1,2,0:0:0:0:
256,192,34372,1,0,0:0:0:0:
256,192,34861,1,2,0:0:0:0:
256,192,35024,1,2,0:0:0:0:
256,192,35188,1,0,0:0:0:0:
256,192,35351,1,2,0:0:0:0:
256,192,35514,1,0,0:0:0:0:
256,192,35595,1,0,0:0:0:0:
256,192,35677,1,0,0:0:0:0:
256,192,35840,1,2,0:0:0:0:
256,192,36003,1,2,0:0:0:0:
256,192,36166,1,0,0:0:0:0:
256,192,36329,1,2,0:0:0:0:
256,192,36492,1,0,0:0:0:0:
256,192,36655,1,2,0:0:0:0:
256,192,36818,1,2,0:0:0:0:
256,192,36981,1,0,0:0:0:0:
256,192,37307,1,2,0:0:0:0:
256,208,37470,1,0,0:0:0:0:
256,208,37633,1,2,0:0:0:0:
256,208,37796,1,0,0:0:0:0:
256,192,37959,1,2,0:0:0:0:
256,192,38122,1,2,0:0:0:0:
256,192,38204,1,2,0:0:0:0:
256,208,38285,1,0,0:0:0:0:
256,208,38448,1,2,0:0:0:0:
256,208,38774,1,0,0:0:0:0:
256,208,38938,1,2,0:0:0:0:
256,208,39101,1,0,0:0:0:0:
256,192,39264,1,0,0:0:0:0:
256,208,39427,1,2,0:0:0:0:
256,208,39590,1,0,0:0:0:0:
256,192,39916,1,2,0:0:0:0:
256,208,40079,1,2,0:0:0:0:
256,208,40242,1,2,0:0:0:0:
256,208,40405,1,0,0:0:0:0:
256,192,40568,1,2,0:0:0:0:
256,192,40731,1,0,0:0:0:0:
256,192,40813,1,0,0:0:0:0:
256,208,40894,1,0,0:0:0:0:
256,208,41057,1,2,0:0:0:0:
256,192,41220,1,0,0:0:0:0:
256,208,41383,1,0,0:0:0:0:
256,208,41546,1,2,0:0:0:0:
256,192,41709,1,2,0:0:0:0:
256,208,41872,1,0,0:0:0:0:
256,208,42035,1,2,0:0:0:0:
256,208,42198,1,2,0:0:0:0:
256,208,42524,1,2,0:0:0:0:
256,208,42688,1,0,0:0:0:0:
256,208,42851,1,2,0:0:0:0:
256,208,43014,1,0,0:0:0:0:
256,208,43177,1,2,0:0:0:0:
256,208,43340,1,2,0:0:0:0:
256,208,43421,1,2,0:0:0:0:
256,208,43503,1,0,0:0:0:0:
256,208,43666,1,2,0:0:0:0:
256,208,43829,1,2,0:0:0:0:
256,208,43992,1,0,0:0:0:0:
256,208,44155,1,2,0:0:0:0:
256,208,44318,1,0,0:0:0:0:
256,208,44481,1,2,0:0:0:0:
256,208,44644,1,2,0:0:0:0:
256,208,44807,1,0,0:0:0:0:
256,208,45133,1,2,0:0:0:0:
256,208,45296,1,2,0:0:0:0:
256,208,45459,1,2,0:0:0:0:
256,208,45622,1,0,0:0:0:0:
256,208,45785,1,2,0:0:0:0:
256,208,45948,1,2,0:0:0:0:
256,208,46030,1,2,0:0:0:0:
256,208,46111,1,0,0:0:0:0:
256,208,46274,1,2,0:0:0:0:
256,208,46438,1,2,0:0:0:0:
256,208,46601,1,0,0:0:0:0:
256,208,46764,1,2,0:0:0:0:
256,208,46927,1,0,0:0:0:0:
256,208,47090,1,2,0:0:0:0:
256,208,47253,1,2,0:0:0:0:
256,208,47416,1,0,0:0:0:0:
256,208,47742,1,2,0:0:0:0:
256,208,47905,1,0,0:0:0:0:
256,208,48068,1,2,0:0:0:0:
256,208,48231,1,0,0:0:0:0:
256,208,48394,1,2,0:0:0:0:
256,208,48557,1,0,0:0:0:0:
256,208,48639,1,0,0:0:0:0:
256,208,48720,1,0,0:0:0:0:
256,208,48883,1,2,0:0:0:0:
256,208,49046,1,2,0:0:0:0:
256,208,49209,1,0,0:0:0:0:
256,208,49372,1,2,0:0:0:0:
256,208,49535,1,0,0:0:0:0:
256,208,49698,1,2,0:0:0:0:
256,208,49861,1,2,0:0:0:0:
256,208,50024,1,0,0:0:0:0:
256,208,50188,1,2,0:0:0:0:
256,208,50351,1,2,0:0:0:0:
256,208,50514,1,0,0:0:0:0:
256,208,50677,1,2,0:0:0:0:
256,208,50840,1,0,0:0:0:0:
256,208,51003,1,2,0:0:0:0:
256,208,51329,1,0,0:0:0:0:
256,208,51492,1,2,0:0:0:0:
256,208,51655,1,2,0:0:0:0:
256,208,51818,1,0,0:0:0:0:
256,208,51981,1,2,0:0:0:0:
256,208,52144,1,2,0:0:0:0:
256,208,52307,1,2,0:0:0:0:
256,208,52470,1,2,0:0:0:0:
256,192,52633,5,0,0:0:0:0:
256,192,52878,1,0,0:0:0:0:
256,192,53122,1,2,0:0:0:0:
256,192,53204,1,0,0:0:0:0:
256,192,53285,1,0,0:0:0:0:
256,192,53367,1,0,0:0:0:0:
256,192,53448,1,0,0:0:0:0:
256,192,53530,1,0,0:0:0:0:
256,192,53611,1,0,0:0:0:0:
256,192,53693,1,0,0:0:0:0:
256,192,53774,1,0,0:0:0:0:
256,192,53938,1,2,0:0:0:0:
256,192,54182,1,2,0:0:0:0:
256,192,54427,1,0,0:0:0:0:
256,192,54590,1,2,0:0:0:0:
256,192,54916,1,0,0:0:0:0:
256,192,55242,1,2,0:0:0:0:
256,192,55405,1,2,0:0:0:0:
256,192,55568,1,2,0:0:0:0:
256,192,55894,1,0,0:0:0:0:
256,192,56057,1,0,0:0:0:0:
256,192,56220,1,0,0:0:0:0:
256,192,56383,1,0,0:0:0:0:
256,192,56546,1,2,0:0:0:0:
256,192,56709,1,0,0:0:0:0:
256,192,56872,1,2,0:0:0:0:
256,192,57035,1,0,0:0:0:0:
256,192,57198,1,2,0:0:0:0:
256,192,57361,1,0,0:0:0:0:
256,192,57524,1,2,0:0:0:0:
256,192,57687,1,2,0:0:0:0:
256,192,57850,1,0,0:0:0:0:
256,192,58013,1,2,0:0:0:0:
256,192,58176,1,2,0:0:0:0:
256,192,58339,1,0,0:0:0:0:
256,192,58421,1,0,0:0:0:0:
256,192,58502,1,2,0:0:0:0:
256,192,58665,1,2,0:0:0:0:
256,192,58828,1,0,0:0:0:0:
256,192,58991,1,2,0:0:0:0:
256,192,59154,1,0,0:0:0:0:
256,192,59317,1,0,0:0:0:0:
256,192,59480,1,2,0:0:0:0:
256,192,59643,1,0,0:0:0:0:
256,192,59806,1,2,0:0:0:0:
256,192,59969,1,0,0:0:0:0:
256,192,60132,1,2,0:0:0:0:
256,192,60214,1,2,0:0:0:0:
256,192,60296,1,2,0:0:0:0:
256,192,60459,1,0,0:0:0:0:
256,192,60622,1,2,0:0:0:0:
256,192,60785,1,2,0:0:0:0:
256,192,60948,1,0,0:0:0:0:
256,192,61029,1,0,0:0:0:0:
256,192,61111,1,2,0:0:0:0:
256,192,61274,1,2,0:0:0:0:
256,192,61437,1,0,0:0:0:0:
256,192,61600,1,2,0:0:0:0:
256,192,61763,1,0,0:0:0:0:
256,192,61926,1,0,0:0:0:0:
256,192,62089,1,2,0:0:0:0:
256,192,62252,1,0,0:0:0:0:
256,192,62415,1,2,0:0:0:0:
256,192,62578,1,0,0:0:0:0:
256,192,62741,1,2,0:0:0:0:
256,192,62904,1,2,0:0:0:0:
256,192,63067,1,0,0:0:0:0:
256,192,63230,1,2,0:0:0:0:
256,192,63393,1,2,0:0:0:0:
256,192,63556,1,2,0:0:0:0:
256,192,63638,1,0,0:0:0:0:
256,192,63719,1,2,0:0:0:0:
256,192,63882,1,2,0:0:0:0:
256,192,64046,1,0,0:0:0:0:
256,192,64209,1,2,0:0:0:0:
256,192,64372,1,0,0:0:0:0:
256,192,64535,1,0,0:0:0:0:
256,192,64698,1,2,0:0:0:0:
256,192,64861,1,0,0:0:0:0:
256,192,65024,1,2,0:0:0:0:
256,192,65187,1,0,0:0:0:0:
256,192,65350,1,2,0:0:0:0:
256,192,65513,1,2,0:0:0:0:
256,192,65676,1,0,0:0:0:0:
256,192,65839,1,2,0:0:0:0:
256,192,66002,1,2,0:0:0:0:
256,192,66165,1,0,0:0:0:0:
256,192,66247,1,0,0:0:0:0:
256,192,66328,1,2,0:0:0:0:
256,192,66491,1,2,0:0:0:0:
256,192,66654,1,0,0:0:0:0:
256,192,66817,1,2,0:0:0:0:
256,192,66980,1,0,0:0:0:0:
256,192,67143,1,0,0:0:0:0:
256,192,67306,1,2,0:0:0:0:
256,192,67469,1,0,0:0:0:0:
256,192,67632,1,2,0:0:0:0:
256,192,67796,1,0,0:0:0:0:
256,192,67959,1,2,0:0:0:0:
256,192,68122,1,2,0:0:0:0:
240,192,68285,1,0,0:0:0:0:
240,192,68448,1,2,0:0:0:0:
240,192,68611,1,2,0:0:0:0:
240,192,68774,1,0,0:0:0:0:
240,192,68855,1,0,0:0:0:0:
240,192,68937,1,2,0:0:0:0:
240,192,69100,1,2,0:0:0:0:
240,192,69263,1,2,0:0:0:0:
240,192,69426,1,2,0:0:0:0:
240,192,69589,1,0,0:0:0:0:
240,192,69752,1,0,0:0:0:0:
240,192,69915,1,2,0:0:0:0:
240,192,70078,1,2,0:0:0:0:
240,192,70241,1,2,0:0:0:0:
240,192,70404,1,0,0:0:0:0:
240,192,70567,1,2,0:0:0:0:
240,192,70730,1,2,0:0:0:0:
240,192,70893,1,0,0:0:0:0:
240,192,71056,1,2,0:0:0:0:
240,192,71219,1,2,0:0:0:0:
240,192,71382,1,0,0:0:0:0:
240,192,71464,1,0,0:0:0:0:
240,192,71546,1,2,0:0:0:0:
240,192,71709,1,2,0:0:0:0:
240,192,71872,1,0,0:0:0:0:
240,192,72035,1,2,0:0:0:0:
240,192,72198,1,0,0:0:0:0:
240,192,72361,1,0,0:0:0:0:
240,192,72524,1,2,0:0:0:0:
240,192,72687,1,0,0:0:0:0:
240,192,72850,1,2,0:0:0:0:
240,192,73013,1,0,0:0:0:0:
240,192,73176,1,2,0:0:0:0:
240,192,73339,1,2,0:0:0:0:
240,192,73502,1,0,0:0:0:0:
240,192,73665,1,2,0:0:0:0:
240,192,73828,1,2,0:0:0:0:
240,192,73991,1,2,0:0:0:0:
240,192,74073,1,0,0:0:0:0:
240,192,74154,1,2,0:0:0:0:
240,192,74317,1,0,0:0:0:0:
240,192,74480,1,0,0:0:0:0:
240,192,74643,1,2,0:0:0:0:
240,192,74806,1,0,0:0:0:0:
240,192,74969,1,0,0:0:0:0:
240,192,75132,1,2,0:0:0:0:
240,192,75296,1,0,0:0:0:0:
240,192,75459,1,2,0:0:0:0:
240,192,75622,1,0,0:0:0:0:
240,192,75785,1,2,0:0:0:0:
240,192,75948,1,2,0:0:0:0:
240,192,76111,1,0,0:0:0:0:
240,192,76274,1,2,0:0:0:0:
240,192,76437,1,2,0:0:0:0:
240,192,76600,1,0,0:0:0:0:
240,192,76681,1,0,0:0:0:0:
240,192,76763,1,2,0:0:0:0:
240,192,76926,1,0,0:0:0:0:
240,192,77089,1,0,0:0:0:0:
240,192,77252,1,0,0:0:0:0:
240,192,77415,1,0,0:0:0:0:
240,192,77578,1,0,0:0:0:0:
240,192,77741,1,2,0:0:0:0:
240,192,77904,1,0,0:0:0:0:
240,192,78067,1,2,0:0:0:0:
240,192,78230,1,0,0:0:0:0:
240,192,78556,1,2,0:0:0:0:
240,192,78719,1,0,0:0:0:0:
240,192,78882,1,2,0:0:0:0:
240,192,79046,1,2,0:0:0:0:
240,192,79209,1,0,0:0:0:0:
240,192,79290,1,0,0:0:0:0:
240,192,79372,1,2,0:0:0:0:
240,192,79535,1,2,0:0:0:0:
240,192,79698,1,0,0:0:0:0:
240,192,79861,1,2,0:0:0:0:
240,192,80024,1,0,0:0:0:0:
240,192,80187,1,0,0:0:0:0:
240,192,80350,1,2,0:0:0:0:
240,192,80513,1,0,0:0:0:0:
240,192,80676,1,2,0:0:0:0:
240,192,80839,1,0,0:0:0:0:
240,192,81165,1,2,0:0:0:0:
240,192,81328,1,0,0:0:0:0:
240,192,81491,1,2,0:0:0:0:
240,192,81654,1,2,0:0:0:0:
240,192,81817,1,0,0:0:0:0:
240,192,81899,1,0,0:0:0:0:
240,192,81980,1,2,0:0:0:0:
240,192,82143,1,2,0:0:0:0:
240,192,82306,1,0,0:0:0:0:
240,192,82469,1,2,0:0:0:0:
240,192,82795,1,0,0:0:0:0:
240,192,82958,1,2,0:0:0:0:
240,192,83121,1,0,0:0:0:0:
240,192,83284,1,2,0:0:0:0:
240,192,83447,1,0,0:0:0:0:
240,192,83773,1,2,0:0:0:0:
240,192,83936,1,0,0:0:0:0:
240,192,84099,1,2,0:0:0:0:
240,192,84263,1,2,0:0:0:0:
240,192,84426,1,0,0:0:0:0:
240,192,84507,1,0,0:0:0:0:
240,192,84589,1,2,0:0:0:0:
240,192,84752,1,2,0:0:0:0:
240,192,84915,1,0,0:0:0:0:
240,192,85078,1,2,0:0:0:0:
240,192,85241,1,0,0:0:0:0:
240,192,85404,1,0,0:0:0:0:
240,192,85567,1,2,0:0:0:0:
240,192,85730,1,0,0:0:0:0:
240,192,85893,1,2,0:0:0:0:
240,192,86056,1,0,0:0:0:0:
240,192,86382,1,2,0:0:0:0:
240,192,86545,1,0,0:0:0:0:
240,192,86708,1,2,0:0:0:0:
240,192,86871,1,2,0:0:0:0:
240,192,87034,1,0,0:0:0:0:
240,192,87116,1,0,0:0:0:0:
240,192,87197,1,2,0:0:0:0:
240,192,87415,1,0,0:0:0:0:
240,192,87523,1,0,0:0:0:0:
240,192,87632,1,0,0:0:0:0:
240,192,87741,1,2,0:0:0:0:
256,192,87850,5,0,0:0:0:0:
256,192,88176,1,0,0:0:0:0:
256,192,88502,1,2,0:0:0:0:
256,192,88665,1,0,0:0:0:0:
256,192,88828,1,0,0:0:0:0:
256,192,89154,1,0,0:0:0:0:
256,192,89399,1,0,0:0:0:0:
256,192,89480,1,2,0:0:0:0:
256,192,89643,1,0,0:0:0:0:
256,192,89806,1,2,0:0:0:0:
256,192,89969,1,0,0:0:0:0:
256,192,90132,1,2,0:0:0:0:
256,192,90295,1,2,0:0:0:0:
256,192,90459,1,2,0:0:0:0:
256,192,90785,1,2,0:0:0:0:
256,192,91111,1,2,0:0:0:0:
256,192,91274,1,0,0:0:0:0:
256,192,91437,1,2,0:0:0:0:
256,192,91763,1,0,0:0:0:0:
256,192,92007,1,0,0:0:0:0:
256,192,92089,1,2,0:0:0:0:
256,192,92252,1,0,0:0:0:0:
256,192,92415,1,2,0:0:0:0:
256,192,92578,1,0,0:0:0:0:
256,192,92741,1,2,0:0:0:0:
256,192,92904,1,2,0:0:0:0:
256,192,93067,1,0,0:0:0:0:
256,192,93393,1,0,0:0:0:0:
256,192,93719,1,2,0:0:0:0:
256,192,93882,1,0,0:0:0:0:
256,192,94045,1,2,0:0:0:0:
256,192,94372,1,2,0:0:0:0:
256,192,94616,1,0,0:0:0:0:
256,192,94698,1,2,0:0:0:0:
256,192,94861,1,0,0:0:0:0:
256,192,95024,1,2,0:0:0:0:
256,192,95187,1,0,0:0:0:0:
256,192,95350,1,0,0:0:0:0:
256,192,95513,1,2,0:0:0:0:
256,192,95676,1,2,0:0:0:0:
256,192,96002,1,0,0:0:0:0:
256,192,96328,1,2,0:0:0:0:
256,192,96491,1,0,0:0:0:0:
256,192,96654,1,2,0:0:0:0:
256,192,96980,1,2,0:0:0:0:
256,192,97225,1,0,0:0:0:0:
256,192,97306,1,2,0:0:0:0:
256,192,97469,1,0,0:0:0:0:
256,192,97632,1,2,0:0:0:0:
256,192,97795,1,0,0:0:0:0:
256,192,97959,1,2,0:0:0:0:
256,192,98122,1,2,0:0:0:0:
256,192,98285,1,0,0:0:0:0:
256,192,98774,1,0,0:0:0:0:
256,192,98937,1,2,0:0:0:0:
256,192,99100,1,0,0:0:0:0:
256,192,99263,1,2,0:0:0:0:
256,192,99589,1,0,0:0:0:0:
256,192,99752,1,2,0:0:0:0:
256,192,100078,1,0,0:0:0:0:
256,192,100241,1,2,0:0:0:0:
256,192,100404,1,0,0:0:0:0:
256,192,100567,1,2,0:0:0:0:
256,192,100730,1,2,0:0:0:0:
256,192,100893,1,0,0:0:0:0:
256,192,101382,1,0,0:0:0:0:
256,192,101545,1,2,0:0:0:0:
256,192,101709,1,0,0:0:0:0:
256,192,101872,1,2,0:0:0:0:
256,192,102198,1,0,0:0:0:0:
256,192,102361,1,2,0:0:0:0:
256,192,102687,1,0,0:0:0:0:
256,192,102850,1,2,0:0:0:0:
256,192,103013,1,0,0:0:0:0:
256,192,103176,1,2,0:0:0:0:
256,192,103339,1,2,0:0:0:0:
256,192,103502,1,0,0:0:0:0:
256,192,103828,1,2,0:0:0:0:
256,192,103991,1,0,0:0:0:0:
256,192,104154,1,2,0:0:0:0:
256,192,104317,1,0,0:0:0:0:
256,192,104806,1,0,0:0:0:0:
256,192,104969,1,2,0:0:0:0:
256,192,105132,1,2,0:0:0:0:
256,192,105295,1,0,0:0:0:0:
256,192,105459,1,2,0:0:0:0:
256,192,105622,1,0,0:0:0:0:
256,192,105785,1,2,0:0:0:0:
256,192,105948,1,2,0:0:0:0:
256,192,106111,1,0,0:0:0:0:
256,192,106274,1,0,0:0:0:0:
256,192,106437,1,2,0:0:0:0:
256,192,106600,1,0,0:0:0:0:
256,192,106763,1,2,0:0:0:0:
256,192,106926,1,0,0:0:0:0:
256,192,107089,1,0,0:0:0:0:
256,192,107415,1,0,0:0:0:0:
256,192,107578,1,2,0:0:0:0:
256,192,107741,1,2,0:0:0:0:
256,192,107904,1,0,0:0:0:0:
256,192,108067,1,2,0:0:0:0:
256,192,108149,1,2,0:0:0:0:
256,192,108230,1,0,0:0:0:0:
256,192,108312,1,0,0:0:0:0:
256,192,108393,1,0,0:0:0:0:
256,192,108475,1,0,0:0:0:0:
256,192,108556,1,0,0:0:0:0:
256,192,108719,5,0,0:0:0:0:
256,192,108964,1,0,0:0:0:0:
256,192,109209,1,0,0:0:0:0:
256,192,109372,1,2,0:0:0:0:
256,192,109453,1,2,0:0:0:0:
256,192,109535,1,0,0:0:0:0:
256,192,109616,1,0,0:0:0:0:
256,192,109698,1,2,0:0:0:0:
256,192,109779,1,2,0:0:0:0:
256,192,109861,1,0,0:0:0:0:
256,192,109942,1,0,0:0:0:0:
256,192,110024,1,0,0:0:0:0:
256,192,110268,1,0,0:0:0:0:
256,192,110350,1,2,0:0:0:0:
256,192,110513,1,0,0:0:0:0:
256,192,110676,1,2,0:0:0:0:
256,192,110839,1,0,0:0:0:0:
256,192,111002,1,2,0:0:0:0:
256,192,111165,1,2,0:0:0:0:
256,192,111328,1,0,0:0:0:0:
256,192,111573,1,0,0:0:0:0:
256,192,111817,1,0,0:0:0:0:
256,192,111980,1,2,0:0:0:0:
256,192,112143,1,0,0:0:0:0:
256,192,112225,1,2,0:0:0:0:
256,192,112388,1,0,0:0:0:0:
256,192,112469,1,2,0:0:0:0:
256,192,112632,1,0,0:0:0:0:
256,192,112877,1,0,0:0:0:0:
256,192,112959,1,2,0:0:0:0:
256,192,113122,1,0,0:0:0:0:
256,192,113285,1,2,0:0:0:0:
256,192,113448,1,0,0:0:0:0:
256,192,113611,1,2,0:0:0:0:
256,192,113774,1,2,0:0:0:0:
256,192,113937,1,0,0:0:0:0:
256,192,114181,1,0,0:0:0:0:
256,192,114426,1,0,0:0:0:0:
256,192,114589,1,2,0:0:0:0:
256,192,114670,1,2,0:0:0:0:
256,192,114834,1,0,0:0:0:0:
256,192,114915,1,0,0:0:0:0:
256,192,114997,1,0,0:0:0:0:
256,192,115078,1,0,0:0:0:0:
256,192,115241,1,0,0:0:0:0:
256,192,115486,1,0,0:0:0:0:
256,192,115567,1,2,0:0:0:0:
256,192,115730,1,0,0:0:0:0:
256,192,115893,1,2,0:0:0:0:
256,192,116056,1,0,0:0:0:0:
256,192,116219,1,2,0:0:0:0:
256,192,116382,1,2,0:0:0:0:
256,192,116545,1,0,0:0:0:0:
256,192,116790,1,2,0:0:0:0:
256,192,117035,1,0,0:0:0:0:
256,192,117198,1,2,0:0:0:0:
256,192,117361,1,0,0:0:0:0:
256,192,117442,1,2,0:0:0:0:
256,192,117524,1,0,0:0:0:0:
256,192,117687,1,2,0:0:0:0:
256,192,117850,1,0,0:0:0:0:
256,192,118094,1,0,0:0:0:0:
256,192,118176,1,2,0:0:0:0:
256,192,118339,1,0,0:0:0:0:
256,192,118502,1,2,0:0:0:0:
256,192,118828,1,2,0:0:0:0:
256,192,119154,1,0,0:0:0:0:
256,192,119643,1,0,0:0:0:0:
256,192,119806,1,2,0:0:0:0:
256,192,120132,1,0,0:0:0:0:
256,192,120459,1,2,0:0:0:0:
256,192,120622,1,0,0:0:0:0:
256,192,120785,1,0,0:0:0:0:
256,192,121111,1,0,0:0:0:0:
256,192,121274,1,0,0:0:0:0:
256,192,121437,1,0,0:0:0:0:
256,192,121600,1,0,0:0:0:0:
256,192,121763,5,2,0:0:0:0:
256,192,121926,1,0,0:0:0:0:
256,192,122089,1,2,0:0:0:0:
256,192,122252,1,0,0:0:0:0:
256,192,122415,1,2,0:0:0:0:
256,192,122578,1,0,0:0:0:0:
256,192,122741,1,2,0:0:0:0:
256,192,122904,1,2,0:0:0:0:
256,192,123067,1,0,0:0:0:0:
256,192,123230,1,2,0:0:0:0:
256,192,123393,1,2,0:0:0:0:
256,192,123556,1,0,0:0:0:0:
256,192,123638,1,0,0:0:0:0:
256,192,123719,1,2,0:0:0:0:
256,192,123882,1,2,0:0:0:0:
256,192,124045,1,0,0:0:0:0:
256,192,124208,1,2,0:0:0:0:
256,192,124371,1,0,0:0:0:0:
256,192,124534,1,0,0:0:0:0:
256,192,124697,1,2,0:0:0:0:
256,192,124860,1,0,0:0:0:0:
256,192,125023,1,2,0:0:0:0:
256,192,125186,1,0,0:0:0:0:
256,192,125349,1,2,0:0:0:0:
256,192,125431,1,2,0:0:0:0:
256,192,125513,1,2,0:0:0:0:
256,192,125676,1,0,0:0:0:0:
256,192,125839,1,2,0:0:0:0:
256,192,126002,1,2,0:0:0:0:
256,192,126165,1,0,0:0:0:0:
256,192,126246,1,0,0:0:0:0:
256,192,126328,1,2,0:0:0:0:
256,192,126491,1,2,0:0:0:0:
256,192,126654,1,0,0:0:0:0:
256,192,126817,1,2,0:0:0:0:
256,192,126980,1,0,0:0:0:0:
256,192,127143,1,0,0:0:0:0:
256,192,127306,1,2,0:0:0:0:
256,192,127469,1,0,0:0:0:0:
256,192,127632,1,2,0:0:0:0:
256,192,127795,1,0,0:0:0:0:
256,192,127958,1,2,0:0:0:0:
256,192,128121,1,2,0:0:0:0:
256,192,128284,1,0,0:0:0:0:
256,192,128447,1,2,0:0:0:0:
256,192,128610,1,2,0:0:0:0:
256,192,128773,1,2,0:0:0:0:
256,192,128855,1,0,0:0:0:0:
256,192,128936,1,2,0:0:0:0:
256,192,129099,1,2,0:0:0:0:
256,192,129263,1,0,0:0:0:0:
256,192,129426,1,2,0:0:0:0:
256,192,129589,1,0,0:0:0:0:
256,192,129752,1,0,0:0:0:0:
256,192,129915,1,2,0:0:0:0:
256,192,130078,1,0,0:0:0:0:
256,192,130241,1,2,0:0:0:0:
256,192,130404,1,0,0:0:0:0:
256,192,130567,1,2,0:0:0:0:
256,192,130730,1,2,0:0:0:0:
256,192,130893,1,0,0:0:0:0:
256,192,131056,1,2,0:0:0:0:
256,192,131219,1,2,0:0:0:0:
256,192,131382,1,0,0:0:0:0:
256,192,131464,1,0,0:0:0:0:
256,192,131545,1,2,0:0:0:0:
256,192,131708,1,2,0:0:0:0:
256,192,131871,1,0,0:0:0:0:
256,192,132034,1,2,0:0:0:0:
256,192,132197,1,0,0:0:0:0:
256,192,132360,1,0,0:0:0:0:
256,192,132523,1,2,0:0:0:0:
256,192,132686,1,0,0:0:0:0:
256,192,132849,1,2,0:0:0:0:
256,192,133013,1,0,0:0:0:0:
256,192,133176,1,2,0:0:0:0:
256,192,133339,1,2,0:0:0:0:
240,192,133502,1,0,0:0:0:0:
240,192,133665,1,2,0:0:0:0:
240,192,133828,1,2,0:0:0:0:
240,192,133991,1,0,0:0:0:0:
240,192,134072,1,0,0:0:0:0:
240,192,134154,1,2,0:0:0:0:
240,192,134317,1,2,0:0:0:0:
240,192,134480,1,2,0:0:0:0:
240,192,134643,1,2,0:0:0:0:
240,192,134806,1,0,0:0:0:0:
240,192,134969,1,0,0:0:0:0:
240,192,135132,1,2,0:0:0:0:
240,192,135295,1,2,0:0:0:0:
240,192,135458,1,2,0:0:0:0:
240,192,135621,1,0,0:0:0:0:
240,192,135784,1,2,0:0:0:0:
240,192,135947,1,2,0:0:0:0:
240,192,136110,1,0,0:0:0:0:
240,192,136273,1,2,0:0:0:0:
240,192,136436,1,2,0:0:0:0:
240,192,136599,1,0,0:0:0:0:
240,192,136681,1,0,0:0:0:0:
240,192,136763,1,2,0:0:0:0:
240,192,136926,1,2,0:0:0:0:
240,192,137089,1,0,0:0:0:0:
240,192,137252,1,2,0:0:0:0:
240,192,137415,1,0,0:0:0:0:
240,192,137578,1,0,0:0:0:0:
240,192,137741,1,2,0:0:0:0:
240,192,137904,1,0,0:0:0:0:
240,192,138067,1,2,0:0:0:0:
240,192,138230,1,0,0:0:0:0:
240,192,138393,1,2,0:0:0:0:
240,192,138556,1,2,0:0:0:0:
240,192,138719,1,0,0:0:0:0:
240,192,138882,1,2,0:0:0:0:
240,192,139045,1,2,0:0:0:0:
240,192,139208,1,2,0:0:0:0:
240,192,139290,1,0,0:0:0:0:
240,192,139371,1,2,0:0:0:0:
240,192,139534,1,0,0:0:0:0:
240,192,139697,1,0,0:0:0:0:
240,192,139860,1,2,0:0:0:0:
240,192,140023,1,0,0:0:0:0:
240,192,140186,1,0,0:0:0:0:
240,192,140349,1,2,0:0:0:0:
240,192,140513,1,0,0:0:0:0:
240,192,140676,1,2,0:0:0:0:
240,192,140839,1,0,0:0:0:0:
240,192,141002,1,2,0:0:0:0:
240,192,141165,1,2,0:0:0:0:
240,192,141328,1,0,0:0:0:0:
240,192,141491,1,2,0:0:0:0:
240,192,141654,1,2,0:0:0:0:
240,192,141817,1,0,0:0:0:0:
240,192,141898,1,0,0:0:0:0:
240,192,141980,1,2,0:0:0:0:
240,192,142143,1,0,0:0:0:0:
240,192,142306,1,0,0:0:0:0:
240,192,142469,1,0,0:0:0:0:
240,192,142632,1,0,0:0:0:0:
240,192,142795,1,0,0:0:0:0:
240,192,142958,1,2,0:0:0:0:
240,192,143121,1,0,0:0:0:0:
240,192,143284,1,2,0:0:0:0:
240,192,143447,1,0,0:0:0:0:
240,192,143773,1,2,0:0:0:0:
240,192,143936,1,0,0:0:0:0:
240,192,144099,1,2,0:0:0:0:
240,192,144263,1,2,0:0:0:0:
240,192,144426,1,0,0:0:0:0:
240,192,144507,1,0,0:0:0:0:
240,192,144589,1,2,0:0:0:0:
240,192,144752,1,2,0:0:0:0:
240,192,144915,1,0,0:0:0:0:
240,192,145078,1,2,0:0:0:0:
240,192,145241,1,0,0:0:0:0:
240,192,145404,1,0,0:0:0:0:
240,192,145567,1,2,0:0:0:0:
240,192,145730,1,0,0:0:0:0:
240,192,145893,1,2,0:0:0:0:
240,192,146056,1,0,0:0:0:0:
240,192,146382,1,2,0:0:0:0:
240,192,146545,1,0,0:0:0:0:
240,192,146708,1,2,0:0:0:0:
240,192,146871,1,2,0:0:0:0:
240,192,147034,1,0,0:0:0:0:
240,192,147116,1,0,0:0:0:0:
240,192,147197,1,2,0:0:0:0:
240,192,147360,1,2,0:0:0:0:
240,192,147523,1,0,0:0:0:0:
240,192,147686,1,2,0:0:0:0:
240,192,147850,1,0,0:0:0:0:
240,192,148012,1,0,0:0:0:0:
240,192,148175,1,2,0:0:0:0:
240,192,148338,1,0,0:0:0:0:
240,192,148501,1,2,0:0:0:0:
240,192,148664,1,0,0:0:0:0:
240,192,148992,1,2,0:0:0:0:
240,192,149155,1,0,0:0:0:0:
240,192,149318,1,2,0:0:0:0:
240,192,149482,1,2,0:0:0:0:
240,192,149643,1,0,0:0:0:0:
240,192,149724,1,0,0:0:0:0:
240,192,149806,1,2,0:0:0:0:
240,192,149969,1,2,0:0:0:0:
240,192,150132,1,0,0:0:0:0:
240,192,150295,1,2,0:0:0:0:
240,192,150458,1,0,0:0:0:0:
240,192,150621,1,0,0:0:0:0:
240,192,150784,1,2,0:0:0:0:
240,192,150947,1,0,0:0:0:0:
240,192,151110,1,2,0:0:0:0:
240,192,151273,1,0,0:0:0:0:
240,192,151599,1,2,0:0:0:0:
240,192,151762,1,0,0:0:0:0:
240,192,151925,1,2,0:0:0:0:
240,192,152088,1,2,0:0:0:0:
240,192,152251,1,0,0:0:0:0:
240,192,152333,1,0,0:0:0:0:
240,192,152414,1,2,0:0:0:0:
240,192,152634,1,0,0:0:0:0:
240,192,152742,1,0,0:0:0:0:
240,192,152851,1,0,0:0:0:0:
240,192,152960,1,2,0:0:0:0:
240,192,153068,5,0,0:0:0:0:
240,192,153394,1,0,0:0:0:0:
240,192,155024,1,2,0:0:0:0:
240,192,155242,1,0,0:0:0:0:
240,192,155513,1,2,0:0:0:0:
240,192,155595,1,2,0:0:0:0:
240,192,155676,1,0,0:0:0:0:
240,192,156002,1,0,0:0:0:0:
240,192,156328,1,0,0:0:0:0:
240,192,157633,1,2,0:0:0:0:
240,192,157850,1,2,0:0:0:0:
240,192,157959,1,2,0:0:0:0:
240,192,158068,1,0,0:0:0:0:
240,192,158176,1,0,0:0:0:0:
240,192,158285,1,2,0:0:0:0:
240,192,158611,1,0,0:0:0:0:
240,192,160242,1,2,0:0:0:0:
240,192,160405,1,0,0:0:0:0:
240,192,160731,1,2,0:0:0:0:
240,192,160812,1,2,0:0:0:0:
240,192,160894,1,0,0:0:0:0:
240,192,161098,1,2,0:0:0:0:
240,192,161220,1,2,0:0:0:0:
240,192,161301,1,0,0:0:0:0:
240,192,161424,1,0,0:0:0:0:
240,192,161546,1,0,0:0:0:0:
240,192,161872,1,2,0:0:0:0:
240,192,162035,1,0,0:0:0:0:
240,192,162198,1,2,0:0:0:0:
240,192,162524,1,2,0:0:0:0:
240,192,162646,1,2,0:0:0:0:
240,192,162728,1,2,0:0:0:0:
240,192,162809,1,0,0:0:0:0:
240,192,162891,1,0,0:0:0:0:
240,192,162973,1,2,0:0:0:0:
240,192,163054,1,2,0:0:0:0:
240,192,163176,1,2,0:0:0:0:
256,192,163502,5,2,0:0:0:0:
256,192,163828,1,0,0:0:0:0:
256,192,163991,1,2,0:0:0:0:
256,192,164154,1,0,0:0:0:0:
256,192,164480,1,2,0:0:0:0:
256,192,164806,1,0,0:0:0:0:
256,192,164969,1,2,0:0:0:0:
256,192,165132,1,0,0:0:0:0:
256,192,165255,1,0,0:0:0:0:
256,192,165459,1,2,0:0:0:0:
256,192,165622,1,0,0:0:0:0:
256,192,165948,1,2,0:0:0:0:
256,192,166111,1,0,0:0:0:0:
256,192,166437,1,0,0:0:0:0:
256,192,166600,1,2,0:0:0:0:
256,192,166763,1,0,0:0:0:0:
256,192,166926,1,0,0:0:0:0:
256,192,167089,1,2,0:0:0:0:
256,192,167415,1,0,0:0:0:0:
256,192,167578,1,2,0:0:0:0:
256,192,167741,1,0,0:0:0:0:
256,192,167904,1,0,0:0:0:0:
256,192,168067,1,2,0:0:0:0:
256,192,168230,1,0,0:0:0:0:
256,192,168393,1,2,0:0:0:0:
256,192,168556,1,0,0:0:0:0:
256,192,168638,1,0,0:0:0:0:
256,192,168719,1,2,0:0:0:0:
256,192,169045,1,0,0:0:0:0:
256,192,169209,1,2,0:0:0:0:
256,192,169372,1,0,0:0:0:0:
256,192,169535,1,0,0:0:0:0:
256,192,169698,1,2,0:0:0:0:
256,192,170024,1,0,0:0:0:0:
256,192,170187,1,2,0:0:0:0:
256,192,170350,1,0,0:0:0:0:
256,192,170513,1,0,0:0:0:0:
256,192,170676,1,2,0:0:0:0:
256,192,170839,1,0,0:0:0:0:
256,192,171165,1,2,0:0:0:0:
256,192,171328,1,0,0:0:0:0:
256,192,171654,1,0,0:0:0:0:
256,192,171817,1,2,0:0:0:0:
256,192,171980,1,0,0:0:0:0:
256,192,172143,1,0,0:0:0:0:
256,192,172306,1,2,0:0:0:0:
256,192,172632,1,0,0:0:0:0:
256,192,172795,1,2,0:0:0:0:
256,192,172959,1,0,0:0:0:0:
256,192,173122,1,0,0:0:0:0:
256,192,173285,1,2,0:0:0:0:
256,192,173448,1,0,0:0:0:0:
256,192,173611,1,2,0:0:0:0:
256,192,173774,1,0,0:0:0:0:
256,192,173855,1,0,0:0:0:0:
256,192,173937,1,2,0:0:0:0:
256,192,174263,1,0,0:0:0:0:
256,192,174426,1,2,0:0:0:0:
256,192,174589,1,0,0:0:0:0:
256,192,174752,1,0,0:0:0:0:
256,192,174915,1,2,0:0:0:0:
256,192,175241,1,0,0:0:0:0:
256,192,175404,1,2,0:0:0:0:
256,192,175567,1,0,0:0:0:0:
256,192,175730,1,0,0:0:0:0:
256,192,175893,1,2,0:0:0:0:
256,192,176056,1,0,0:0:0:0:
256,192,176382,1,2,0:0:0:0:
256,192,176545,1,0,0:0:0:0:
256,192,176872,1,0,0:0:0:0:
256,192,177035,1,2,0:0:0:0:
256,192,177198,1,0,0:0:0:0:
256,192,177361,1,0,0:0:0:0:
256,192,177524,1,2,0:0:0:0:
256,192,177850,1,0,0:0:0:0:
256,192,178013,1,2,0:0:0:0:
256,192,178176,1,0,0:0:0:0:
256,192,178339,1,0,0:0:0:0:
256,192,178502,1,2,0:0:0:0:
256,192,178665,1,0,0:0:0:0:
256,192,178828,1,2,0:0:0:0:
256,192,178991,1,0,0:0:0:0:
256,192,179073,1,0,0:0:0:0:
256,192,179154,1,2,0:0:0:0:
256,192,179480,1,0,0:0:0:0:
256,192,179643,1,2,0:0:0:0:
256,192,179806,1,0,0:0:0:0:
256,192,179969,1,0,0:0:0:0:
256,192,180132,1,2,0:0:0:0:
256,192,180295,1,0,0:0:0:0:
256,192,180459,1,2,0:0:0:0:
256,192,180785,1,0,0:0:0:0:
256,192,180948,1,2,0:0:0:0:
256,192,181111,1,0,0:0:0:0:
256,192,181274,1,0,0:0:0:0:
256,192,181437,1,2,0:0:0:0:
256,192,181600,1,0,0:0:0:0:
256,192,181681,1,0,0:0:0:0:
256,192,181763,1,2,0:0:0:0:
256,192,182089,1,0,0:0:0:0:
256,192,182252,1,2,0:0:0:0:
256,192,182334,1,2,0:0:0:0:
256,192,182415,1,0,0:0:0:0:
256,192,182578,1,0,0:0:0:0:
256,192,182660,1,2,0:0:0:0:
256,192,182741,1,2,0:0:0:0:
256,192,182905,1,0,0:0:0:0:
256,192,183067,1,2,0:0:0:0:
256,192,183230,1,2,0:0:0:0:
256,192,183393,1,2,0:0:0:0:
256,192,183556,1,0,0:0:0:0:
256,192,183719,1,2,0:0:0:0:
256,192,183882,1,2,0:0:0:0:
256,192,184209,1,2,0:0:0:0:
256,192,184372,1,2,0:0:0:0:
256,192,184535,1,0,0:0:0:0:
256,192,184861,1,2,0:0:0:0:
256,192,185024,1,2,0:0:0:0:
256,192,185187,1,0,0:0:0:0:
256,192,185350,1,2,0:0:0:0:
256,192,185513,1,0,0:0:0:0:
256,192,185676,1,0,0:0:0:0:
256,192,185839,1,2,0:0:0:0:
256,192,186002,1,2,0:0:0:0:
256,192,186165,1,0,0:0:0:0:
256,192,186247,1,0,0:0:0:0:
256,192,186328,1,2,0:0:0:0:
256,192,186492,1,0,0:0:0:0:
256,192,186655,1,0,0:0:0:0:
256,192,186818,1,2,0:0:0:0:
256,192,186981,1,0,0:0:0:0:
256,192,187144,1,0,0:0:0:0:
256,192,187307,1,2,0:0:0:0:
256,192,187470,1,0,0:0:0:0:
256,192,187633,1,2,0:0:0:0:
256,192,187796,1,0,0:0:0:0:
256,192,188122,1,2,0:0:0:0:
256,192,188285,1,0,0:0:0:0:
256,192,188448,1,2,0:0:0:0:
256,192,188611,1,2,0:0:0:0:
256,192,188693,1,2,0:0:0:0:
256,192,188774,1,0,0:0:0:0:
256,192,188856,1,0,0:0:0:0:
256,192,188937,1,2,0:0:0:0:
256,192,189100,1,2,0:0:0:0:
256,192,189263,1,0,0:0:0:0:
256,192,189426,1,2,0:0:0:0:
256,192,189589,1,0,0:0:0:0:
256,192,189752,1,0,0:0:0:0:
256,192,189915,1,2,0:0:0:0:
256,192,190078,1,0,0:0:0:0:
256,192,190242,1,2,0:0:0:0:
256,192,190405,1,0,0:0:0:0:
256,192,190568,1,0,0:0:0:0:
256,192,190731,1,2,0:0:0:0:
256,192,190894,1,0,0:0:0:0:
256,192,191057,1,2,0:0:0:0:
256,192,191220,1,2,0:0:0:0:
256,192,191383,1,0,0:0:0:0:
256,192,191464,1,0,0:0:0:0:
256,192,191546,1,2,0:0:0:0:
256,192,191709,1,2,0:0:0:0:
256,192,191872,1,0,0:0:0:0:
256,192,192035,1,2,0:0:0:0:
256,192,192198,1,0,0:0:0:0:
256,192,192361,1,2,0:0:0:0:
256,192,192524,1,2,0:0:0:0:
256,192,192687,1,0,0:0:0:0:
256,192,192850,1,2,0:0:0:0:
256,192,193068,1,2,0:0:0:0:
256,192,193176,1,2,0:0:0:0:
256,192,193285,1,0,0:0:0:0:
256,192,193394,1,0,0:0:0:0:
256,192,193502,1,2,0:0:0:0:
256,192,193665,1,2,0:0:0:0:
256,192,193828,1,2,0:0:0:0:
256,192,193992,1,0,0:0:0:0:
256,192,194073,1,0,0:0:0:0:
256,192,194155,1,0,0:0:0:0:
256,192,194318,1,0,0:0:0:0:
256,192,194481,1,0,0:0:0:0:
256,192,194644,1,0,0:0:0:0:
256,192,194807,1,2,0:0:0:0:
256,192,194970,5,0,0:0:0:0:
256,192,195133,1,2,0:0:0:0:
256,192,195296,1,0,0:0:0:0:
256,192,195459,1,2,0:0:0:0:
256,192,195622,1,0,0:0:0:0:
256,192,195785,1,2,0:0:0:0:
256,192,195948,1,2,0:0:0:0:
256,192,196111,1,0,0:0:0:0:
256,192,196274,1,2,0:0:0:0:
256,192,196437,1,2,0:0:0:0:
256,192,196600,1,0,0:0:0:0:
256,192,196682,1,0,0:0:0:0:
256,192,196763,1,2,0:0:0:0:
256,192,196926,1,2,0:0:0:0:
256,192,197089,1,0,0:0:0:0:
256,192,197252,1,2,0:0:0:0:
256,192,197415,1,2,0:0:0:0:
256,192,197497,1,2,0:0:0:0:
256,192,197578,1,0,0:0:0:0:
256,192,197660,1,0,0:0:0:0:
256,192,197742,1,2,0:0:0:0:
256,192,197823,1,2,0:0:0:0:
256,192,197905,1,0,0:0:0:0:
256,192,198068,1,2,0:0:0:0:
256,192,198231,1,0,0:0:0:0:
256,192,198394,1,2,0:0:0:0:
256,192,198557,1,2,0:0:0:0:
256,192,198720,1,2,0:0:0:0:
256,192,198883,1,2,0:0:0:0:
256,192,199046,1,2,0:0:0:0:
256,192,199209,1,2,0:0:0:0:
256,192,199290,1,0,0:0:0:0:
256,192,199372,1,2,0:0:0:0:
256,192,199535,1,2,0:0:0:0:
256,192,199698,1,0,0:0:0:0:
256,192,199861,1,2,0:0:0:0:
256,192,200024,1,0,0:0:0:0:
256,192,200187,1,0,0:0:0:0:
256,192,200350,1,2,0:0:0:0:
256,192,200513,1,0,0:0:0:0:
256,192,200676,1,2,0:0:0:0:
256,192,200839,1,0,0:0:0:0:
256,192,201002,1,2,0:0:0:0:
256,192,201165,1,2,0:0:0:0:
256,192,201328,1,0,0:0:0:0:
256,192,201492,1,2,0:0:0:0:
256,192,201655,1,2,0:0:0:0:
256,192,201818,1,0,0:0:0:0:
256,192,201899,1,0,0:0:0:0:
256,192,201981,1,2,0:0:0:0:
256,192,202144,1,2,0:0:0:0:
256,192,202307,1,0,0:0:0:0:
256,192,202470,1,2,0:0:0:0:
256,192,202633,1,2,0:0:0:0:
256,192,202796,1,0,0:0:0:0:
256,192,202959,1,2,0:0:0:0:
256,192,203122,1,0,0:0:0:0:
256,192,203285,1,2,0:0:0:0:
256,192,203448,1,0,0:0:0:0:
256,192,203611,1,2,0:0:0:0:
256,192,203693,1,2,0:0:0:0:
256,192,203774,1,0,0:0:0:0:
256,192,203937,1,0,0:0:0:0:
256,192,204100,1,2,0:0:0:0:
256,192,204263,1,2,0:0:0:0:
256,192,204426,1,0,0:0:0:0:
256,192,204508,1,0,0:0:0:0:
256,192,204589,1,2,0:0:0:0:
368,192,204671,1,0,0:0:0:0:
256,192,204752,1,2,0:0:0:0:
256,192,204915,1,2,0:0:0:0:
256,192,205078,1,2,0:0:0:0:
256,192,205242,1,0,0:0:0:0:
256,192,205405,1,0,0:0:0:0:
256,192,205568,1,2,0:0:0:0:
256,192,205731,1,0,0:0:0:0:
256,192,205894,1,2,0:0:0:0:
256,192,206057,1,0,0:0:0:0:
256,192,206220,1,2,0:0:0:0:
256,192,206383,1,2,0:0:0:0:
256,192,206546,1,0,0:0:0:0:
256,192,206709,1,2,0:0:0:0:
256,192,206872,1,2,0:0:0:0:
256,192,207035,1,0,0:0:0:0:
256,192,207117,1,0,0:0:0:0:
256,192,207198,1,2,0:0:0:0:
256,192,207361,1,2,0:0:0:0:
256,192,207524,1,0,0:0:0:0:
256,192,207687,1,2,0:0:0:0:
256,192,207850,1,0,0:0:0:0:
256,192,208013,1,0,0:0:0:0:
256,192,208176,1,2,0:0:0:0:
256,192,208339,1,0,0:0:0:0:
256,192,208502,1,2,0:0:0:0:
256,192,208665,1,0,0:0:0:0:
256,192,208828,1,2,0:0:0:0:
256,192,208992,1,2,0:0:0:0:
256,192,209155,1,2,0:0:0:0:
256,192,209318,1,2,0:0:0:0:
256,192,209481,1,2,0:0:0:0:
256,192,209644,1,0,0:0:0:0:
256,192,209725,1,0,0:0:0:0:
256,192,209807,1,2,0:0:0:0:
256,192,209970,1,2,0:0:0:0:
256,192,210133,1,2,0:0:0:0:
256,192,210296,1,2,0:0:0:0:
256,192,210459,1,2,0:0:0:0:
256,192,210622,1,0,0:0:0:0:
256,192,210785,1,2,0:0:0:0:
256,192,210948,1,0,0:0:0:0:
256,192,211111,1,2,0:0:0:0:
256,192,211274,1,0,0:0:0:0:
256,192,211437,1,2,0:0:0:0:
256,192,211600,1,2,0:0:0:0:
256,192,211763,1,0,0:0:0:0:
256,192,211926,1,2,0:0:0:0:
256,192,212089,1,2,0:0:0:0:
256,192,212252,1,0,0:0:0:0:
256,192,212334,1,0,0:0:0:0:
256,192,212415,1,2,0:0:0:0:
256,192,212578,1,2,0:0:0:0:
256,192,212742,1,2,0:0:0:0:
256,192,212905,1,2,0:0:0:0:
256,192,213068,1,0,0:0:0:0:
256,192,213231,1,0,0:0:0:0:
256,192,213394,1,2,0:0:0:0:
256,192,213557,1,0,0:0:0:0:
256,192,213720,1,2,0:0:0:0:
256,192,213883,1,0,0:0:0:0:
256,192,214046,1,2,0:0:0:0:
256,192,214209,1,2,0:0:0:0:
256,192,214372,1,0,0:0:0:0:
256,192,214535,1,2,0:0:0:0:
256,192,214617,1,2,0:0:0:0:
256,192,214698,1,2,0:0:0:0:
256,192,214780,1,0,0:0:0:0:
256,192,214861,1,2,0:0:0:0:
256,192,214943,1,2,0:0:0:0:
256,192,215024,1,0,0:0:0:0:
256,192,215187,1,2,0:0:0:0:
256,192,215350,1,0,0:0:0:0:
256,192,215513,1,0,0:0:0:0:
256,192,215676,1,2,0:0:0:0:
256,192,215839,5,0,0:0:0:0:
256,192,216002,1,2,0:0:0:0:
256,192,216165,1,0,0:0:0:0:
256,192,216328,1,2,0:0:0:0:
256,192,216492,1,0,0:0:0:0:
256,192,216655,1,2,0:0:0:0:
256,192,216818,1,2,0:0:0:0:
256,192,216981,1,0,0:0:0:0:
256,192,217144,1,2,0:0:0:0:
256,192,217307,1,2,0:0:0:0:
256,192,217470,1,0,0:0:0:0:
256,192,217551,1,0,0:0:0:0:
256,192,217633,1,2,0:0:0:0:
256,192,217796,1,2,0:0:0:0:
256,192,217959,1,0,0:0:0:0:
256,192,218122,1,2,0:0:0:0:
256,192,218285,1,0,0:0:0:0:
400,176,218448,1,2,0:0:0:0:
400,176,218530,1,2,0:0:0:0:
400,176,218611,1,2,0:0:0:0:
256,192,218774,1,0,0:0:0:0:
256,192,218937,1,2,0:0:0:0:
256,192,219100,1,0,0:0:0:0:
256,192,219263,1,2,0:0:0:0:
256,192,219426,1,2,0:0:0:0:
256,192,219589,1,0,0:0:0:0:
256,192,219752,1,2,0:0:0:0:
256,192,219915,1,2,0:0:0:0:
256,192,220078,1,0,0:0:0:0:
256,192,220160,1,0,0:0:0:0:
256,192,220242,1,2,0:0:0:0:
256,192,220405,1,2,0:0:0:0:
256,192,220568,1,0,0:0:0:0:
256,192,220731,1,2,0:0:0:0:
256,192,220894,1,0,0:0:0:0:
256,192,221057,1,0,0:0:0:0:
256,192,221220,1,2,0:0:0:0:
256,192,221383,1,2,0:0:0:0:
256,192,221546,1,2,0:0:0:0:
256,192,221709,1,0,0:0:0:0:
256,192,221872,1,2,0:0:0:0:
256,192,222035,1,2,0:0:0:0:
256,192,222198,1,0,0:0:0:0:
256,192,222361,1,2,0:0:0:0:
256,192,222524,1,2,0:0:0:0:
256,192,222687,1,0,0:0:0:0:
256,192,222769,1,0,0:0:0:0:
256,192,222850,1,2,0:0:0:0:
256,192,223013,1,2,0:0:0:0:
256,192,223176,1,0,0:0:0:0:
256,192,223339,1,2,0:0:0:0:
256,192,223502,1,0,0:0:0:0:
256,192,223665,1,0,0:0:0:0:
256,192,223828,1,2,0:0:0:0:
256,192,223992,1,0,0:0:0:0:
256,192,224155,1,2,0:0:0:0:
256,192,224318,1,0,0:0:0:0:
256,192,224481,1,2,0:0:0:0:
256,192,224644,1,2,0:0:0:0:
256,192,224807,1,0,0:0:0:0:
256,192,224970,1,2,0:0:0:0:
256,192,225133,1,2,0:0:0:0:
256,192,225296,1,0,0:0:0:0:
256,192,225377,1,0,0:0:0:0:
256,192,225459,1,2,0:0:0:0:
256,192,225622,1,2,0:0:0:0:
256,192,225785,1,0,0:0:0:0:
256,192,225948,1,2,0:0:0:0:
256,192,226111,1,0,0:0:0:0:
256,192,226274,1,0,0:0:0:0:
256,192,226437,1,2,0:0:0:0:
256,192,226600,1,0,0:0:0:0:
256,192,226763,1,2,0:0:0:0:
256,192,226926,1,0,0:0:0:0:
256,192,227089,1,2,0:0:0:0:
256,192,227252,1,2,0:0:0:0:
256,192,227415,1,0,0:0:0:0:
256,192,227578,1,2,0:0:0:0:
256,192,227742,1,2,0:0:0:0:
256,192,227905,1,0,0:0:0:0:
256,192,227986,1,0,0:0:0:0:
256,192,228068,1,2,0:0:0:0:
256,192,228231,1,2,0:0:0:0:
256,192,228394,1,0,0:0:0:0:
256,192,228557,1,2,0:0:0:0:
256,192,228720,1,0,0:0:0:0:
256,192,228883,1,0,0:0:0:0:
256,192,229046,1,2,0:0:0:0:
256,192,229209,1,0,0:0:0:0:
256,192,229372,1,2,0:0:0:0:
256,192,229535,1,0,0:0:0:0:
256,192,229698,1,2,0:0:0:0:
256,192,229861,1,2,0:0:0:0:
256,192,230024,1,0,0:0:0:0:
256,192,230187,1,2,0:0:0:0:
256,192,230350,1,2,0:0:0:0:
256,192,230513,1,2,0:0:0:0:
256,192,230595,1,0,0:0:0:0:
256,192,230676,1,2,0:0:0:0:
256,192,230839,1,2,0:0:0:0:
256,192,231002,1,0,0:0:0:0:
256,192,231165,1,2,0:0:0:0:
256,192,231328,1,0,0:0:0:0:
256,192,231492,1,0,0:0:0:0:
256,192,231655,1,2,0:0:0:0:
256,192,231818,1,0,0:0:0:0:
256,192,231981,1,2,0:0:0:0:
256,192,232144,1,0,0:0:0:0:
256,192,232307,1,2,0:0:0:0:
256,192,232470,1,2,0:0:0:0:
256,192,232633,1,0,0:0:0:0:
256,192,232796,1,2,0:0:0:0:
256,192,232959,1,2,0:0:0:0:
256,192,233122,1,0,0:0:0:0:
256,192,233203,1,2,0:0:0:0:
256,192,233285,1,2,0:0:0:0:
256,192,233448,1,2,0:0:0:0:
256,192,233611,1,0,0:0:0:0:
256,192,233774,1,2,0:0:0:0:
256,192,233937,1,0,0:0:0:0:
256,192,234100,1,0,0:0:0:0:
256,192,234263,1,2,0:0:0:0:
256,192,234426,1,0,0:0:0:0:
256,192,234589,1,2,0:0:0:0:
256,192,234752,1,0,0:0:0:0:
256,192,234915,1,2,0:0:0:0:
256,192,235078,1,2,0:0:0:0:
256,192,235242,1,0,0:0:0:0:
256,192,235405,1,2,0:0:0:0:
256,192,235568,1,2,0:0:0:0:
256,192,235649,1,2,0:0:0:0:
256,192,235731,1,0,0:0:0:0:
256,192,235812,1,0,0:0:0:0:
256,192,235894,1,2,0:0:0:0:
256,192,236057,1,2,0:0:0:0:
256,192,236220,1,2,0:0:0:0:
256,192,236383,1,2,0:0:0:0:
256,192,236546,5,0,0:0:0:0:
256,192,236709,1,0,0:0:0:0:
256,192,236872,1,2,0:0:0:0:
256,192,237035,1,0,0:0:0:0:
256,192,237198,1,2,0:0:0:0:
256,192,237361,1,0,0:0:0:0:
256,192,237687,1,2,0:0:0:0:
256,192,237850,1,0,0:0:0:0:
256,192,238013,1,2,0:0:0:0:
256,192,238176,1,2,0:0:0:0:
256,192,238339,1,0,0:0:0:0:
256,192,238421,1,0,0:0:0:0:
256,192,238502,1,2,0:0:0:0:
256,192,238665,1,2,0:0:0:0:
256,192,238828,1,0,0:0:0:0:
256,192,238992,1,2,0:0:0:0:
256,192,239155,1,0,0:0:0:0:
256,192,239318,1,0,0:0:0:0:
256,192,239481,1,2,0:0:0:0:
256,192,239644,1,0,0:0:0:0:
256,192,239807,1,2,0:0:0:0:
256,192,239970,1,0,0:0:0:0:
256,192,240296,1,2,0:0:0:0:
256,192,240459,1,0,0:0:0:0:
256,192,240622,1,2,0:0:0:0:
256,192,240785,1,2,0:0:0:0:
256,192,240948,1,0,0:0:0:0:
256,192,241111,1,2,0:0:0:0:
256,192,241328,1,2,0:0:0:0:
256,192,241437,1,2,0:0:0:0:
256,192,241546,1,0,0:0:0:0:
256,192,241655,1,2,0:0:0:0:
256,192,243068,1,0,0:0:0:0:
256,192,243557,1,0,0:0:0:0:
256,192,243720,1,0,0:0:0:0:
256,192,244209,1,0,0:0:0:0:
256,192,244372,1,2,0:0:0:0:
256,192,244698,1,2,0:0:0:0:
256,192,244861,1,0,0:0:0:0:
256,192,245024,1,2,0:0:0:0:
256,192,245350,1,2,0:0:0:0:
256,192,245676,1,0,0:0:0:0:
256,192,246002,1,2,0:0:0:0:
256,192,246165,1,2,0:0:0:0:
256,192,246328,1,0,0:0:0:0:
256,192,246655,1,2,0:0:0:0:
256,192,246818,1,0,0:0:0:0:
256,192,246981,1,2,0:0:0:0:
256,192,247144,1,2,0:0:0:0:
256,192,247796,1,2,0:0:0:0:
256,192,247877,1,2,0:0:0:0:
256,192,247959,1,2,0:0:0:0:
256,192,248040,1,0,0:0:0:0:
256,192,248122,1,0,0:0:0:0:
256,192,248285,1,0,0:0:0:0:
256,192,248611,1,2,0:0:0:0:
256,192,248774,1,0,0:0:0:0:
256,192,248937,1,2,0:0:0:0:
256,192,249100,1,0,0:0:0:0:
256,192,249263,1,2,0:0:0:0:
256,192,249589,1,0,0:0:0:0:
256,192,249752,1,2,0:0:0:0:
256,192,249915,1,2,0:0:0:0:
256,192,250078,1,0,0:0:0:0:
256,192,250242,1,2,0:0:0:0:
256,192,250405,1,0,0:0:0:0:
256,192,250568,1,2,0:0:0:0:
256,192,250731,1,2,0:0:0:0:
256,192,250894,1,0,0:0:0:0:
256,192,251220,1,2,0:0:0:0:
256,192,251383,1,2,0:0:0:0:
256,192,251546,1,2,0:0:0:0:
256,192,251709,1,0,0:0:0:0:
256,192,252035,1,2,0:0:0:0:
256,192,252198,1,0,0:0:0:0:
256,192,252361,1,2,0:0:0:0:
256,192,252524,1,2,0:0:0:0:
256,192,252687,1,0,0:0:0:0:
256,192,252850,1,2,0:0:0:0:
256,192,253013,1,0,0:0:0:0:
256,192,253176,1,2,0:0:0:0:
256,192,253339,1,2,0:0:0:0:
256,192,253502,1,0,0:0:0:0:
256,192,253828,1,2,0:0:0:0:
256,192,253992,1,2,0:0:0:0:
256,192,254155,1,2,0:0:0:0:
256,192,254318,1,0,0:0:0:0:
256,192,254481,1,2,0:0:0:0:
256,192,254644,1,2,0:0:0:0:
256,192,254807,1,0,0:0:0:0:
256,192,254970,1,2,0:0:0:0:
256,192,255133,1,2,0:0:0:0:
256,192,255296,1,0,0:0:0:0:
256,192,255459,1,2,0:0:0:0:
256,192,255622,1,0,0:0:0:0:
256,192,255785,1,2,0:0:0:0:
256,192,255948,1,2,0:0:0:0:
256,192,256111,1,0,0:0:0:0:
