osu file format v14

[General]
AudioFilename: audio.mp3
AudioLeadIn: 0
PreviewTime: -1
Countdown: 1
SampleSet: None
StackLeniency: 0.7
Mode: 0
LetterboxInBreaks: 0
WidescreenStoryboard: 1

[Editor]
DistanceSpacing: 0.8
BeatDivisor: 2
GridSize: 32
TimelineZoom: 1

[Metadata]
Title:DOZING GREEN
TitleUnicode:DOZING GREEN
Artist:DIR EN GREY
ArtistUnicode:DIR EN GREY
Creator:alexcraft808
Version:Normal
Source:
Tags:
BeatmapID:1104663
BeatmapSetID:520041

[Difficulty]
HPDrainRate:5
CircleSize:5
OverallDifficulty:6
ApproachRate:6
SliderMultiplier:1.6
SliderTickRate:1

[Events]
//Background and Video events
Video,0,"DIR EN GREY - DOZING GREEN PV (Full).mp4"
0,0,"Cover.jpg",0,0
//Break Periods
2,187120,204186
2,214278,221870
//Storyboard Layer 0 (Background)
//Storyboard Layer 1 (Fail)
//Storyboard Layer 2 (Pass)
//Storyboard Layer 3 (Foreground)
//Storyboard Sound Samples

[TimingPoints]
604.909485615114,631.578947368421,4,2,0,100,1,0

[HitObjects]
96,288,20815,5,0,0:0:0:0:
160,224,21447,1,0,0:0:0:0:
224,160,22078,1,0,0:0:0:0:
256,128,22394,1,0,0:0:0:0:
288,96,22710,1,0,0:0:0:0:
288,128,23341,6,0,B|384:128|384:256|288:256,1,213.333333333333
224,256,24604,2,0,B|128:256|128:128|224:128,1,213.333333333333
416,160,25868,5,0,0:0:0:0:
384,160,26183,1,0,0:0:0:0:
352,160,26499,2,0,L|352:320,1,160
288,320,27447,6,0,P|96:320|128:64,1,480
160,64,29657,1,0,0:0:0:0:
288,64,29973,1,0,0:0:0:0:
448,64,30920,5,0,0:0:0:0:
448,128,31236,1,0,0:0:0:0:
448,224,31552,1,0,0:0:0:0:
448,320,31868,1,0,0:0:0:0:
352,320,32499,5,0,0:0:0:0:
320,320,32815,1,0,0:0:0:0:
288,320,33131,1,0,0:0:0:0:
288,224,33762,5,0,0:0:0:0:
288,192,34078,1,0,0:0:0:0:
288,160,34394,1,0,0:0:0:0:
192,128,35973,6,0,P|192:320|384:288,1,440
384,224,38183,2,0,P|384:128|160:96,1,360
256,32,40078,2,0,B|160:192|64:192|320:96,1,320
352,96,41657,6,0,B|448:160|416:64|352:192,4,160
64,64,44815,5,0,0:0:0:0:
128,64,45131,1,0,0:0:0:0:
192,64,45447,1,0,0:0:0:0:
256,64,45762,2,0,L|256:320,1,240
320,320,47025,5,0,0:0:0:0:
384,288,47341,1,0,0:0:0:0:
448,256,47657,1,0,0:0:0:0:
448,192,47973,2,0,P|448:32|224:64,1,400
192,96,49868,5,0,0:0:0:0:
192,160,50183,1,0,0:0:0:0:
192,224,50499,1,0,0:0:0:0:
192,288,50815,2,0,P|384:320|416:96,1,400
416,96,52710,5,0,0:0:0:0:
352,96,53025,1,0,0:0:0:0:
288,96,53341,1,0,0:0:0:0:
224,96,53657,2,0,P|96:160|320:288,1,480
320,288,55868,2,0,L|320:192,3,80
320,128,57131,6,0,P|448:224|320:352,1,320
320,352,58710,2,0,P|128:224|224:96,2,400
320,288,62183,1,0,0:0:0:0:
320,224,62499,1,0,0:0:0:0:
320,160,62815,1,0,0:0:0:0:
288,160,65657,5,0,0:0:0:0:
224,160,65973,1,0,0:0:0:0:
224,224,66289,1,0,0:0:0:0:
288,224,66604,1,0,0:0:0:0:
352,224,66920,5,0,0:0:0:0:
352,160,67236,1,0,0:0:0:0:
352,96,67552,1,0,0:0:0:0:
288,96,67868,1,0,0:0:0:0:
224,96,68183,1,0,0:0:0:0:
160,96,68499,1,0,0:0:0:0:
160,160,68815,1,0,0:0:0:0:
160,224,69131,1,0,0:0:0:0:
160,288,69447,1,0,0:0:0:0:
224,288,69762,5,0,0:0:0:0:
288,288,70078,1,0,0:0:0:0:
352,288,70394,1,0,0:0:0:0:
416,288,70710,1,0,0:0:0:0:
480,288,71025,1,0,0:0:0:0:
480,224,71341,1,0,0:0:0:0:
480,160,71657,1,0,0:0:0:0:
480,96,71973,1,0,0:0:0:0:
480,32,72289,1,0,0:0:0:0:
416,32,72604,5,0,0:0:0:0:
352,32,72920,1,0,0:0:0:0:
288,32,73236,1,0,0:0:0:0:
224,32,73552,1,0,0:0:0:0:
160,32,73868,1,0,0:0:0:0:
96,32,74183,1,0,0:0:0:0:
32,32,74499,1,0,0:0:0:0:
32,96,74815,1,0,0:0:0:0:
32,160,75131,1,0,0:0:0:0:
32,224,75447,1,0,0:0:0:0:
32,288,75762,5,0,0:0:0:0:
32,352,76078,2,0,P|512:352|480:352,1,480
512,288,78289,2,0,L|512:32,1,240
448,32,79552,2,0,P|128:128|320:320,1,720
256,192,85868,12,0,90604,0:0:0:0:
448,64,93447,5,0,0:0:0:0:
416,128,93762,2,0,P|320:288|128:192,1,400
160,160,95657,1,0,0:0:0:0:
192,96,95973,1,0,0:0:0:0:
256,96,96289,6,0,P|448:64|384:288,1,480
352,288,98499,2,0,P|160:288|192:64,1,400
192,64,100394,5,0,0:0:0:0:
256,64,100710,1,0,0:0:0:0:
320,64,101025,1,0,0:0:0:0:
384,64,101341,1,0,0:0:0:0:
448,96,101657,2,0,P|384:288|128:192,1,480
128,192,103868,1,0,0:0:0:0:
128,128,104183,1,0,0:0:0:0:
224,32,104815,6,0,P|448:192|320:288,1,480
376,273,107025,2,0,P|448:192|256:32,1,400
288,96,108920,1,0,0:0:0:0:
320,160,109236,1,0,0:0:0:0:
352,224,109552,1,0,0:0:0:0:
384,288,109868,6,0,P|224:288|128:64,1,400
192,96,111762,6,0,L|320:96,8,80
288,192,114920,2,0,L|192:192,6,80
288,288,117447,2,0,L|192:288,9,80
256,192,121868,12,0,126920,0:0:0:0:
224,64,127236,6,0,P|224:256|416:288,1,400
384,192,129131,2,0,P|288:96|64:160,1,320
128,256,131025,2,0,B|256:288|320:96|256:96,1,240
384,160,132604,2,0,P|288:288|64:64,1,560
192,96,135447,2,0,P|384:224|160:288,1,560
160,256,138289,2,0,P|128:128|416:160,1,560
320,256,140815,6,0,B|160:288|192:128|256:128,1,240
416,192,142394,2,0,L|256:128,1,160
320,288,143657,2,0,P|160:224|320:96,1,400
352,160,145552,2,0,L|256:256,1,80
160,256,146183,2,0,L|128:128,1,80
256,128,146815,2,0,L|288:224,1,80
256,256,147447,2,0,P|160:224|352:128,1,480
128,320,151552,6,0,L|128:224,1,80
192,224,152183,2,0,L|288:224,1,80
352,192,152815,2,0,L|352:96,1,80
320,64,153447,2,0,L|224:64,1,80
160,96,154078,2,0,L|160:192,1,80
224,224,154710,5,0,0:0:0:0:
288,224,155025,1,0,0:0:0:0:
352,224,155341,1,0,0:0:0:0:
352,160,155657,1,0,0:0:0:0:
352,96,155973,1,0,0:0:0:0:
288,96,156289,6,0,L|288:288,1,160
224,256,157236,2,0,L|384:256,1,160
320,192,158183,2,0,L|320:352,1,160
256,288,159131,2,0,L|416:288,1,160
416,224,160078,1,0,0:0:0:0:
416,160,160394,1,0,0:0:0:0:
416,96,160710,1,0,0:0:0:0:
352,96,161025,5,0,0:0:0:0:
288,96,161341,1,0,0:0:0:0:
224,96,161657,1,0,0:0:0:0:
160,96,161973,6,0,P|160:288|288:288,1,320
320,288,163552,2,0,L|416:288,1,80
416,224,164183,2,0,L|416:128,1,80
352,96,164815,2,0,L|256:96,1,80
192,96,165447,5,0,0:0:0:0:
192,160,165762,1,0,0:0:0:0:
192,224,166078,1,0,0:0:0:0:
192,288,166394,1,0,0:0:0:0:
192,352,166710,1,0,0:0:0:0:
288,352,167025,6,0,P|448:352|448:128,1,400
384,160,168920,2,0,P|160:96|192:64,1,480
256,64,171131,2,0,P|384:128|320:256,1,240
320,160,172394,5,0,0:0:0:0:
256,128,172710,1,0,0:0:0:0:
192,96,173025,1,0,0:0:0:0:
192,160,173341,5,0,0:0:0:0:
192,224,173657,1,0,0:0:0:0:
192,288,173973,1,0,0:0:0:0:
256,288,174289,5,0,0:0:0:0:
320,288,174604,1,0,0:0:0:0:
384,288,174920,1,0,0:0:0:0:
384,224,175236,6,0,P|384:96|192:96,1,320
192,128,176815,2,0,P|160:288|320:320,1,320
352,288,178394,2,0,P|320:160|416:64,1,240
416,160,179657,2,0,P|320:320|192:288,1,320
160,256,181236,6,0,L|160:128,1,80
224,128,181868,2,0,L|320:128,1,80
352,192,182499,2,0,L|352:288,1,80
288,320,183131,2,0,L|192:320,1,80
160,256,183762,6,0,P|160:96|416:96,1,400
320,192,186604,1,0,0:0:0:0:
320,192,186920,1,0,0:0:0:0:
256,192,205236,12,0,206815,0:0:0:0:
256,192,207762,12,0,209341,0:0:0:0:
256,192,210289,12,0,211868,0:0:0:0:
256,192,212499,12,0,214078,0:0:0:0:
256,192,222920,12,0,225131,0:0:0:0:
64,256,225447,6,0,L|64:160,1,80
64,96,226078,1,0,0:0:0:0:
128,96,226394,1,0,0:0:0:0:
224,96,226710,6,0,L|224:192,1,80
224,256,227341,1,0,0:0:0:0:
288,256,227657,1,0,0:0:0:0:
