osu file format v14

[General]
AudioFilename: audio.mp3
AudioLeadIn: 0
PreviewTime: 169425
Countdown: 0
SampleSet: Soft
StackLeniency: 0.7
Mode: 0
LetterboxInBreaks: 0
WidescreenStoryboard: 1

[Editor]
DistanceSpacing: 0.7
BeatDivisor: 4
GridSize: 32
TimelineZoom: 2.2

[Metadata]
Title:Beethoven Virus
TitleUnicode:Beethoven Virus
Artist:DIANA
ArtistUnicode:DIANA
Creator:Orkay
Version:Insane
Source:PUMP IT UP –THE PERFECT COLLECTION-
Tags:video game electronic neo classical modern pop crossover instrumental dance mezelyus' tournament mezelyus'un duo turnuvası mdt2022 semifinals sf dt2 베토벤 바이러스 piu vgm music sk south korea 2006 violin piano sonata pathetique rondo allegro banya boncheva ludwig van andy warhol aranel
BeatmapID:3524604
BeatmapSetID:1724615

[Difficulty]
HPDrainRate:5.6
CircleSize:4
OverallDifficulty:7.4
ApproachRate:8
SliderMultiplier:1.6
SliderTickRate:1

[Events]
//Background and Video events
0,0,"bground.jpg",0,0
//Break Periods
//Storyboard Layer 0 (Background)
//Storyboard Layer 1 (Fail)
//Storyboard Layer 2 (Pass)
//Storyboard Layer 3 (Foreground)
//Storyboard Layer 4 (Overlay)
//Storyboard Sound Samples

[TimingPoints]
195,384.615384615385,4,2,1,50,1,0
195,-166.666666666667,4,2,1,50,0,0
6348,-125,4,2,1,50,0,0
7502,-166.666666666667,4,2,1,50,0,0
9425,-100,4,2,1,55,0,0
9521,-100,4,2,1,30,0,0
9618,-100,4,2,1,32,0,0
9714,-100,4,2,1,34,0,0
9810,-100,4,2,1,36,0,0
9906,-100,4,2,1,38,0,0
10002,-100,4,2,1,55,0,0
10098,-100,4,2,1,42,0,0
10195,-100,4,2,1,44,0,0
10291,-100,4,2,1,46,0,0
10387,-100,4,2,1,48,0,0
10483,-100,4,2,1,50,0,0
10579,-125,4,2,1,52,0,0
10675,-125,4,2,1,54,0,0
10771,-125,4,2,1,56,0,0
10868,-125,4,2,1,58,0,0
10964,-125,4,2,1,60,0,0
11925,-100,4,2,1,65,0,0
12118,-90.9090909090909,4,2,1,65,0,0
12310,-83.3333333333333,4,2,1,65,0,0
12502,-90.9090909090909,4,2,1,70,0,0
12887,-100,4,2,1,70,0,0
15579,-90.9090909090909,4,2,1,70,0,0
15675,-90.9090909090909,4,2,1,5,0,0
15964,-90.9090909090909,4,2,1,70,0,0
16060,-90.9090909090909,4,2,1,5,0,0
16348,-83.3333333333333,4,2,1,70,0,0
16445,-83.3333333333333,4,2,1,5,0,0
16733,-83.3333333333333,4,2,1,70,0,0
16829,-83.3333333333333,4,2,1,5,0,0
17118,-90.9090909090909,4,2,1,70,0,0
17502,-100,4,2,1,70,0,0
19329,-100,4,2,1,5,0,0
19425,-100,4,2,1,70,0,0
24810,-90.9090909090909,4,2,1,70,0,0
25195,-100,4,2,1,70,0,0
27887,-90.9090909090909,4,2,1,70,0,0
27983,-90.9090909090909,4,2,1,5,0,0
28271,-90.9090909090909,4,2,1,70,0,0
28368,-90.9090909090909,4,2,1,5,0,0
28656,-83.3333333333333,4,2,1,70,0,0
28752,-83.3333333333333,4,2,1,5,0,0
29041,-83.3333333333333,4,2,1,70,0,0
29137,-83.3333333333333,4,2,1,5,0,0
29425,-90.9090909090909,4,2,1,70,0,0
29810,-100,4,2,1,70,0,0
31637,-100,4,2,1,5,0,0
31733,-100,4,2,1,70,0,0
38175,-100,4,2,1,5,0,0
38271,-100,4,2,1,70,0,0
41252,-100,4,2,1,5,0,0
41348,-100,4,2,1,70,0,0
49425,-90.9090909090909,4,2,1,70,0,0
49810,-100,4,2,1,70,0,0
55579,-90.9090909090909,4,2,1,70,0,0
55964,-100,4,2,1,70,0,0
58656,-90.9090909090909,4,2,1,70,0,0
59041,-100,4,2,1,70,0,0
61733,-100,4,2,1,60,0,0
64810,-90.9090909090909,4,2,1,65,0,0
66348,-83.3333333333333,4,2,1,65,0,0
67310,-125,4,2,1,65,0,0
67887,-90.9090909090909,4,2,1,70,0,0
68271,-100,4,2,1,70,0,0
70964,-90.9090909090909,4,2,1,70,0,0
71060,-90.9090909090909,4,2,1,5,0,0
71348,-90.9090909090909,4,2,1,70,0,0
71445,-90.9090909090909,4,2,1,5,0,0
71733,-83.3333333333333,4,2,1,70,0,0
71829,-83.3333333333333,4,2,1,5,0,0
72118,-83.3333333333333,4,2,1,70,0,0
72214,-83.3333333333333,4,2,1,5,0,0
72502,-90.9090909090909,4,2,1,70,0,0
72887,-100,4,2,1,70,0,0
74714,-100,4,2,1,5,0,0
74810,-100,4,2,1,70,0,0
80195,-90.9090909090909,4,2,1,70,0,0
81733,-100,4,2,1,70,0,0
83271,-90.9090909090909,4,2,1,70,0,0
84810,-100,4,2,1,70,0,0
86348,-90.9090909090909,4,2,1,70,0,0
87310,-100,4,2,1,70,0,0
87695,-90.9090909090909,4,2,1,70,0,0
88464,-100,4,2,1,70,0,0
89425,-90.9090909090909,4,2,1,70,0,0
90964,-100,4,2,1,70,0,0
92502,-90.9090909090909,4,2,1,70,0,0
94041,-100,4,2,1,70,0,0
95579,-90.9090909090909,4,2,1,70,0,0
97118,-100,4,2,1,70,0,0
98656,-90.9090909090909,4,2,1,70,0,0
100964,-100,4,2,1,70,0,0
101733,-90.9090909090909,4,2,1,70,0,0
102695,-100,4,2,1,70,0,0
103079,-90.9090909090909,4,2,1,70,0,0
104041,-100,4,2,1,70,0,0
104810,-111.111111111111,4,2,1,50,0,0
117118,-100,4,2,1,60,0,0
129425,-83.3333333333333,4,2,1,70,0,0
129810,-90.9090909090909,4,2,1,70,0,0
130964,-83.3333333333333,4,2,1,70,0,0
131349,-90.9090909090909,4,2,1,70,0,0
132502,-83.3333333333333,4,2,1,70,0,0
132887,-90.9090909090909,4,2,1,70,0,0
134041,-83.3333333333333,4,2,1,70,0,0
134426,-90.9090909090909,4,2,1,70,0,0
135579,-83.3333333333333,4,2,1,70,0,0
135964,-90.9090909090909,4,2,1,70,0,0
137118,-83.3333333333333,4,2,1,70,0,0
137503,-90.9090909090909,4,2,1,70,0,0
138656,-83.3333333333333,4,2,1,70,0,0
139041,-90.9090909090909,4,2,1,70,0,0
140195,-83.3333333333333,4,2,1,70,0,0
141348,-90.9090909090909,4,2,1,70,0,0
141733,-83.3333333333333,4,2,1,70,0,0
142502,-90.9090909090909,4,2,1,70,0,0
142887,-83.3333333333333,4,2,1,70,0,0
143656,-250,4,2,1,70,0,0
144233,-125,4,2,1,70,0,0
144810,384.615384615385,4,2,1,70,1,0
144810,-100,4,2,1,70,0,0
145868,-100,4,2,1,5,0,0
145964,-100,4,2,1,70,0,0
148945,-100,4,2,1,5,0,0
149041,-100,4,2,1,70,0,0
157118,-90.9090909090909,4,2,1,70,0,0
157503,-100,4,2,1,70,0,0
163271,-90.9090909090909,4,2,1,70,0,0
163656,-100,4,2,1,70,0,0
166348,-90.9090909090909,4,2,1,70,0,0
166733,-100,4,2,1,70,0,0
169425,-83.3333333333333,4,2,1,75,0,0
169810,-90.9090909090909,4,2,1,75,0,0
170964,-83.3333333333333,4,2,1,75,0,0
171348,-90.9090909090909,4,2,1,75,0,0
172502,-83.3333333333333,4,2,1,75,0,0
172886,-90.9090909090909,4,2,1,75,0,0
174041,-83.3333333333333,4,2,1,75,0,0
174425,-90.9090909090909,4,2,1,75,0,0
175579,-83.3333333333333,4,2,1,75,0,0
175963,-90.9090909090909,4,2,1,75,0,0
177118,-83.3333333333333,4,2,1,75,0,0
177502,-90.9090909090909,4,2,1,75,0,0
178656,-83.3333333333333,4,2,1,75,0,0
179040,-90.9090909090909,4,2,1,75,0,0
181733,-83.3333333333333,4,2,1,75,0,0
183271,384.615384615385,4,2,1,80,1,0
183271,-90.9090909090909,4,2,1,80,0,0
183656,-83.3333333333333,4,2,1,80,0,0
184041,-90.9090909090909,4,2,1,80,0,0
184425,-83.3333333333333,4,2,1,80,0,0
184809,-90.9090909090909,4,2,1,80,0,0
185098,-90.9090909090909,4,2,1,5,0,0
185195,-83.3333333333333,4,2,1,80,0,0
185964,-90.9090909090909,4,2,1,80,0,0
186348,-83.3333333333333,4,2,1,80,0,0
186445,-83.3333333333333,4,2,1,5,0,0
186733,-83.3333333333333,4,2,1,80,0,0
186829,-83.3333333333333,4,2,1,5,0,0
187118,-76.9230769230769,4,2,1,80,0,0
187214,-76.9230769230769,4,2,1,5,0,0
187502,-76.9230769230769,4,2,1,80,0,0
187598,-76.9230769230769,4,2,1,5,0,0
187887,-83.3333333333333,4,2,1,80,0,0
188271,-90.9090909090909,4,2,1,80,0,0
190098,-90.9090909090909,4,2,1,5,0,0
190195,-90.9090909090909,4,2,1,80,0,0
195579,-90.9090909090909,4,2,1,80,0,0
195964,-83.3333333333333,4,2,1,80,0,0
196348,-90.9090909090909,4,2,1,80,0,0
196733,-83.3333333333333,4,2,1,80,0,0
197118,-90.9090909090909,4,2,1,80,0,0
197406,-90.9090909090909,4,2,1,5,0,0
197502,-83.3333333333333,4,2,1,80,0,0
198271,-90.9090909090909,4,2,1,80,0,0
198656,-83.3333333333333,4,2,1,80,0,0
198752,-83.3333333333333,4,2,1,5,0,0
199041,-83.3333333333333,4,2,1,80,0,0
199137,-83.3333333333333,4,2,1,5,0,0
199425,-76.9230769230769,4,2,1,80,0,0
199521,-76.9230769230769,4,2,1,5,0,0
199810,-76.9230769230769,4,2,1,80,0,0
199906,-76.9230769230769,4,2,1,5,0,0
200195,-83.3333333333333,4,2,1,80,0,0
200579,-90.9090909090909,4,2,1,80,0,0
202406,-90.9090909090909,4,2,1,5,0,0
202502,-90.9090909090909,4,2,1,80,0,0
207887,-83.3333333333333,4,2,1,80,0,0
208271,-90.9090909090909,4,2,1,80,0,0
208560,-90.9090909090909,4,2,1,5,0,0
208656,-90.9090909090909,4,2,1,80,0,0

[Colours]
Combo1 : 205,207,139
Combo2 : 89,109,181
Combo3 : 199,80,80
Combo4 : 135,184,183

[HitObjects]
6,19,195,6,0,P|76:33|146:50,1,143.999995605469,0|0,1:0|1:0,0:0:0:0:
10,23,3271,6,0,P|80:37|150:54,1,143.999995605469,0|0,1:0|1:0,0:0:0:0:
14,27,6348,6,0,P|76:39|139:54,1,128,2|0,1:2|0:0,0:0:0:0:
59,116,6925,2,0,P|121:101|184:88,1,128,2|0,1:2|0:0,0:0:0:0:
259,51,7502,6,0,P|267:29|267:6,2,47.9999985351563,2|0|0,0:0|0:0|0:0,0:0:0:0:
218,165,8079,2,0,P|239:154|254:136,2,47.9999985351563,2|0|0,0:0|0:0|0:0,0:0:0:0:
334,143,8656,2,0,P|335:120|327:98,2,47.9999985351563,2|0|0,0:0|0:0|0:0,0:0:0:0:
187,92,9233,1,2,0:0:0:0:
122,131,9425,6,0,P|102:126|82:122,5,40,2|0|0|0|0|0,1:2|3:0|3:0|3:0|3:0|3:0,0:0:0:0:
158,199,10002,2,0,P|177:194|197:190,5,40,2|0|0|0|0|0,1:2|3:0|3:0|3:0|3:0|3:0,0:0:0:0:
109,259,10579,5,2,3:2:0:0:
111,266,10675,1,0,3:0:0:0:
113,274,10771,1,0,3:0:0:0:
116,281,10867,1,0,3:0:0:0:
118,289,10964,6,0,P|114:304|110:320,3,32,0|0|2|0,1:0|3:0|3:2|3:0,0:0:0:0:
30,353,11348,2,0,P|33:368|37:384,3,32,0|0|0|0,1:0|3:0|3:0|3:0,0:0:0:0:
0,241,11733,5,2,1:2:0:0:
99,214,11925,6,0,P|112:199|120:181,1,40,2|0,1:2|3:0,0:0:0:0:
60,68,12118,2,0,P|77:82|88:101,1,44.0000013427735,2|0,1:2|3:0,0:0:0:0:
103,218,12310,2,0,P|118:199|125:177,1,47.9999985351563,2|0,1:2|3:0,0:0:0:0:
33,168,12502,6,0,P|119:183|205:204,1,176.000005371094,6|8,1:2|0:0,0:0:0:0:
392,300,13079,1,2,0:0:0:0:
476,243,13271,2,0,P|397:256|319:274,1,160,2|8,1:2|0:0,0:0:0:0:
186,325,13848,1,2,0:0:0:0:
265,381,14041,6,0,P|280:305|233:243,2,160,2|8|0,1:2|0:0|1:0,0:0:0:0:
63,272,15002,5,2,0:0:0:0:
89,262,15098,1,2,0:0:0:0:
111,245,15194,1,10,0:0:0:0:
128,223,15290,1,2,0:0:0:0:
139,197,15386,1,2,0:0:0:0:
142,169,15482,1,2,0:0:0:0:
137,141,15579,6,0,P|129:126|130:143,1,44.0000013427735,2|0,1:2|0:0,0:0:0:0:
203,76,15964,6,0,P|212:62|212:79,1,44.0000013427735,10|0,0:0|0:0,0:0:0:0:
65,41,16348,6,0,P|51:29|56:48,1,47.9999985351563,2|0,1:2|0:0,0:0:0:0:
300,112,16733,6,0,P|314:100|309:118,1,47.9999985351563,10|0,0:0|0:0,0:0:0:0:
489,0,17118,6,0,P|468:85|450:171,1,176.000005371094,6|8,1:2|0:0,0:0:0:0:
430,263,17695,1,0,0:0:0:0:
321,325,17887,2,0,P|356:344|374:379,1,80,0|0,1:0|0:0,0:0:0:0:
489,348,18271,1,10,0:0:0:0:
434,267,18464,1,2,0:0:0:0:
311,226,18656,6,0,P|272:233|244:259,1,80,2|0,1:2|0:0,0:0:0:0:
181,384,19041,2,0,P|168:325|154:267,1,120,8|0,0:0|0:0,0:0:0:0:
138,295,19425,2,0,P|166:322|205:328,1,80,2|0,1:2|0:0,0:0:0:0:
315,230,19810,1,10,0:0:0:0:
332,132,20002,1,2,0:0:0:0:
231,59,20195,6,0,P|179:117|188:194,1,160,2|8,1:2|0:0,0:0:0:0:
507,271,20964,2,0,P|429:284|350:301,1,160,2|10,1:2|0:0,0:0:0:0:
446,370,21541,1,2,0:0:0:0:
412,193,21733,6,0,P|420:153|429:115,2,80,2|0|8,1:2|0:0|0:0,0:0:0:0:
512,275,22310,1,2,0:0:0:0:
354,305,22502,2,0,P|275:288|197:274,1,160,2|8,1:2|0:0,0:0:0:0:
259,374,23079,1,2,0:0:0:0:
197,188,23271,6,0,P|158:194|129:221,1,80,2|0,1:2|0:0,0:0:0:0:
217,70,23656,2,0,P|281:114|290:191,1,160,8|0,0:0|1:0,0:0:0:0:
499,115,24234,5,2,1:2:0:0:
474,127,24330,1,0,3:0:0:0:
451,142,24426,1,10,1:2:0:0:
428,158,24522,1,0,3:0:0:0:
407,175,24618,1,2,1:2:0:0:
387,194,24714,1,0,3:0:0:0:
366,214,24810,6,0,P|447:189|476:109,1,176.000005371094,6|8,1:2|0:0,0:0:0:0:
226,76,25387,1,2,0:0:0:0:
324,19,25579,2,0,P|307:97|292:175,1,160,2|8,1:2|0:0,0:0:0:0:
68,163,26156,1,2,0:0:0:0:
166,218,26348,6,0,P|148:140|132:62,2,160,2|8|0,1:2|0:0|1:0,0:0:0:0:
5,378,27310,5,2,0:0:0:0:
23,357,27406,1,2,0:0:0:0:
43,338,27502,1,10,0:0:0:0:
64,321,27598,1,2,0:0:0:0:
87,306,27694,1,2,0:0:0:0:
112,294,27790,1,2,0:0:0:0:
139,283,27887,6,0,B|156:296|156:296|134:294,1,44.0000013427735,2|0,1:2|0:0,0:0:0:0:
226,372,28271,6,0,B|243:358|243:358|221:360,1,44.0000013427735,10|0,0:0|0:0,0:0:0:0:
26,246,28656,6,0,B|7:231|7:231|30:233,1,47.9999985351563,2|0,1:2|0:0,0:0:0:0:
290,282,29041,6,0,B|308:267|308:267|285:269,1,47.9999985351563,10|0,0:0|0:0,0:0:0:0:
86,381,29425,6,0,P|67:295|46:209,1,176.000005371094,6|8,1:2|0:0,0:0:0:0:
16,120,30002,1,0,0:0:0:0:
135,18,30195,2,0,P|129:57|102:86,1,80,0|0,1:0|0:0,0:0:0:0:
20,124,30579,1,10,0:0:0:0:
114,164,30771,1,2,0:0:0:0:
178,272,30964,6,0,P|170:312|161:350,1,80,2|0,1:2|0:0,0:0:0:0:
0,218,31348,2,0,P|57:228|100:190,1,120,8|0,0:0|0:0,0:0:0:0:
110,159,31733,2,0,P|131:126|167:111,1,80,2|0,1:2|0:0,0:0:0:0:
284,181,32118,1,10,0:0:0:0:
299,280,32310,1,2,0:0:0:0:
201,345,32502,6,0,B|172:314|177:271|177:271|164:312|125:327,1,160,2|8,1:2|0:0,0:0:0:0:
356,220,33271,2,0,P|435:237|512:257,1,160,2|10,1:2|0:0,0:0:0:0:
414,322,33848,1,2,0:0:0:0:
488,159,34041,6,0,P|482:120|455:91,2,80,2|0|8,1:2|0:0|0:0,0:0:0:0:
361,224,34618,1,2,0:0:0:0:
499,336,34810,2,0,P|420:353|343:373,1,160,2|8,1:2|0:0,0:0:0:0:
177,272,35387,1,2,0:0:0:0:
243,345,35579,6,0,P|269:316|275:277,1,80,2|0,1:2|0:0,0:0:0:0:
138,173,35964,2,0,P|78:223|75:301,1,160,8|0,0:0|1:0,0:0:0:0:
354,223,36541,5,2,1:2:0:0:
329,209,36637,1,0,3:0:0:0:
305,193,36733,1,10,1:2:0:0:
282,177,36829,1,0,3:0:0:0:
260,159,36925,1,2,1:2:0:0:
240,139,37021,1,0,3:0:0:0:
221,118,37118,5,6,1:2:0:0:
300,71,37310,2,0,P|340:79|378:88,2,80,2|10|2,0:0|0:0|0:0,0:0:0:0:
219,0,37887,2,0,P|183:46|125:52,1,120,2|0,1:2|0:0,0:0:0:0:
95,41,38271,1,10,0:0:0:0:
225,114,38464,1,2,0:0:0:0:
151,161,38656,6,0,P|159:200|168:239,1,80,2|2,1:2|0:0,0:0:0:0:
252,258,39041,2,0,P|242:296|232:335,1,80,10|2,0:0|0:0,0:0:0:0:
103,369,39425,2,0,B|141:358|141:358|172:383,1,80,2|2,1:2|0:0,0:0:0:0:
391,299,39810,2,0,B|352:288|352:288|321:313,1,80,10|2,0:0|0:0,0:0:0:0:
248,254,40195,5,2,1:2:0:0:
325,203,40387,2,0,P|330:164|313:129,2,80,2|10|2,0:0|0:0|0:0,0:0:0:0:
387,295,40964,2,0,P|432:257|436:199,1,120,2|0,1:2|0:0,0:0:0:0:
423,169,41348,1,10,0:0:0:0:
330,46,41541,1,2,0:0:0:0:
406,0,41733,6,0,P|446:8|485:17,1,80,2|2,1:2|0:0,0:0:0:0:
333,50,42118,2,0,P|294:58|255:66,1,80,10|2,0:0|0:0,0:0:0:0:
427,173,42502,1,2,1:2:0:0:
456,95,42695,1,2,0:0:0:0:
310,175,42887,2,0,P|271:166|232:158,1,80,10|2,0:0|0:0,0:0:0:0:
127,92,43271,6,0,P|118:52|109:14,2,80,2|2|10,1:2|0:0|0:0,0:0:0:0:
86,169,43848,1,2,0:0:0:0:
191,235,44041,1,2,1:2:0:0:
195,239,44425,1,10,0:0:0:0:
199,243,44810,6,0,P|160:249|131:276,1,80,2|2,1:2|0:0,0:0:0:0:
40,284,45195,2,0,P|16:315|15:355,1,80,10|2,0:0|0:0,0:0:0:0:
176,384,45579,1,2,1:2:0:0:
227,316,45771,2,0,P|225:277|201:246,2,80,2|10|2,0:0|0:0|0:0,0:0:0:0:
112,225,46348,6,0,P|121:187|129:148,2,80,2|2|10,1:2|0:0|0:0,0:0:0:0:
44,288,46925,1,2,0:0:0:0:
189,383,47118,2,0,P|220:358|231:321,1,80,2|0,1:2|0:0,0:0:0:0:
116,229,47502,1,10,0:0:0:0:
133,150,47695,1,2,0:0:0:0:
22,205,47887,6,0,P|30:243|39:282,2,80,2|2|10,1:2|0:0|0:0,0:0:0:0:
79,35,48464,1,2,0:0:0:0:
4,88,48656,2,0,P|29:119|66:130,1,80,2|0,1:2|1:0,0:0:0:0:
116,125,48945,1,0,3:0:0:0:
116,125,49041,1,8,1:2:0:0:
268,7,49233,1,2,0:0:0:0:
268,7,49329,1,2,0:0:0:0:
268,7,49425,6,0,P|245:91|224:177,1,176.000005371094,6|8,1:2|0:0,0:0:0:0:
320,294,50002,1,2,0:0:0:0:
320,294,50098,1,2,0:0:0:0:
320,294,50195,2,0,P|295:325|258:336,1,80,2|2,1:2|0:0,0:0:0:0:
122,227,50579,1,10,0:0:0:0:
205,264,50771,1,2,0:0:0:0:
318,203,50964,5,2,1:2:0:0:
335,190,51060,1,2,0:0:0:0:
354,179,51156,1,2,0:0:0:0:
374,169,51252,1,2,0:0:0:0:
395,162,51348,2,0,P|433:152|472:144,1,80,10|2,0:0|0:0,0:0:0:0:
502,293,51733,1,2,1:2:0:0:
490,265,51829,1,2,0:0:0:0:
478,238,51925,1,2,0:0:0:0:
465,211,52021,1,2,0:0:0:0:
451,184,52117,1,10,0:0:0:0:
437,158,52213,1,2,0:0:0:0:
423,131,52309,1,2,0:0:0:0:
408,105,52406,1,2,0:0:0:0:
391,79,52502,6,0,P|331:31|254:49,1,160,2|8,1:2|0:0,0:0:0:0:
505,10,53079,1,2,0:0:0:0:
505,10,53175,1,2,0:0:0:0:
505,10,53271,2,0,P|494:48|484:87,1,80,2|2,1:2|0:0,0:0:0:0:
395,160,53656,2,0,P|403:200|412:238,1,80,10|2,0:0|0:0,0:0:0:0:
507,289,54041,5,2,1:2:0:0:
479,277,54137,1,2,0:0:0:0:
450,272,54233,1,2,0:0:0:0:
420,273,54329,1,2,0:0:0:0:
391,282,54425,1,10,0:0:0:0:
365,296,54521,1,2,0:0:0:0:
343,317,54617,1,2,0:0:0:0:
326,341,54714,1,2,0:0:0:0:
316,373,54810,6,0,P|334:364|345:348,3,40,2|2|2|2,1:2|0:0|0:0|0:0,0:0:0:0:
419,315,55195,2,0,P|428:297|429:278,1,40,10|2,0:0|0:0,0:0:0:0:
305,240,55387,1,2,0:0:0:0:
305,240,55483,1,2,0:0:0:0:
305,240,55579,6,0,B|329:264|352:305|352:305|353:314|353:314|381:345|403:384,1,176.000005371094,2|8,1:2|0:0,0:0:0:0:
232,341,56156,1,2,0:0:0:0:
232,341,56252,1,2,0:0:0:0:
232,341,56348,2,0,P|220:324|218:305,3,40,2|2|2|2,1:2|0:0|0:0|0:0,0:0:0:0:
309,245,56733,1,10,0:0:0:0:
328,221,56829,1,2,0:0:0:0:
343,196,56925,1,2,0:0:0:0:
355,168,57021,1,2,0:0:0:0:
362,140,57118,6,0,P|360:99|337:69,1,80,2|2,1:2|0:0,0:0:0:0:
302,52,57406,1,2,0:0:0:0:
302,52,57502,1,10,0:0:0:0:
217,179,57695,2,0,P|254:167|278:136,1,80,2|2,0:0|1:2,0:0:0:0:
143,49,58079,2,0,P|164:81|201:97,1,80,2|10,0:0|0:0,0:0:0:0:
222,13,58464,1,2,0:0:0:0:
221,183,58656,6,0,B|225:231|187:266|170:243|131:277|137:324,1,176.000005371094,2|8,1:2|0:0,0:0:0:0:
171,357,59137,1,2,0:0:0:0:
176,310,59233,1,2,0:0:0:0:
161,265,59329,1,2,0:0:0:0:
126,232,59425,2,0,B|115:193|115:193|140:162,1,80,0|2,1:0|0:0,0:0:0:0:
0,234,59810,2,0,B|14:270|14:270|54:280,1,80,10|2,0:0|0:0,0:0:0:0:
225,187,60195,5,2,1:2:0:0:
253,197,60291,1,2,0:0:0:0:
280,209,60387,1,2,0:0:0:0:
307,222,60483,1,2,0:0:0:0:
334,236,60579,1,10,0:0:0:0:
360,251,60675,1,2,0:0:0:0:
385,266,60771,1,2,0:0:0:0:
410,283,60868,1,2,0:0:0:0:
434,301,60964,1,2,1:2:0:0:
447,328,61060,1,2,0:0:0:0:
441,357,61156,1,2,0:0:0:0:
415,371,61252,1,2,0:0:0:0:
387,361,61348,1,10,0:0:0:0:
370,337,61444,1,2,0:0:0:0:
362,309,61540,1,2,1:2:0:0:
361,279,61637,1,2,0:0:0:0:
366,247,61733,6,0,P|373:207|381:168,1,80,6|0,1:2|0:0,0:0:0:0:
291,60,62118,2,0,P|299:99|308:138,1,80,8|0,0:0|0:0,0:0:0:0:
370,251,62502,2,0,P|377:211|385:172,1,80,0|0,1:2|0:0,0:0:0:0:
295,64,62887,2,0,P|303:103|312:142,1,80,8|0,0:0|0:0,0:0:0:0:
133,68,63271,6,0,P|158:37|195:26,1,80,2|0,1:2|0:0,0:0:0:0:
159,188,63656,2,0,P|134:157|96:146,1,80,8|0,0:0|0:0,0:0:0:0:
137,72,64041,2,0,P|162:41|199:30,1,80,0|0,1:2|0:0,0:0:0:0:
163,192,64425,1,8,0:0:0:0:
36,223,64618,1,0,1:0:0:0:
36,223,64714,1,0,3:0:0:0:
36,223,64810,6,0,B|24:265|24:265|52:300,1,88.000002685547,4|0,1:2|0:0,0:0:0:0:
168,377,65195,2,0,B|156:335|156:335|184:300,1,88.000002685547,8|0,0:0|0:0,0:0:0:0:
40,227,65579,2,0,B|28:269|28:269|56:304,1,88.000002685547,0|0,1:2|0:0,0:0:0:0:
172,381,65964,2,0,B|160:339|160:339|188:304,1,88.000002685547,8|0,0:0|0:0,0:0:0:0:
282,208,66348,5,0,1:2:0:0:
251,222,66444,1,0,3:0:0:0:
221,238,66540,1,0,1:0:0:0:
193,256,66636,1,0,3:0:0:0:
166,277,66732,1,8,0:0:0:0:
140,298,66828,1,0,3:0:0:0:
116,322,66924,1,0,1:0:0:0:
94,347,67021,1,0,3:0:0:0:
73,373,67118,1,0,1:0:0:0:
207,350,67310,6,0,P|238:356|269:363,2,64,2|2|2,0:0|0:0|0:0,0:0:0:0:
65,246,67887,6,0,P|150:226|237:209,1,176.000005371094,6|8,1:2|0:0,0:0:0:0:
375,114,68464,1,2,0:0:0:0:
325,36,68656,2,0,P|247:17|168:2,1,160,2|8,1:2|0:0,0:0:0:0:
40,149,69233,1,2,0:0:0:0:
16,54,69425,6,0,P|92:64|136:128,2,160,2|8|0,1:2|0:0|1:0,0:0:0:0:
61,250,70387,5,2,0:0:0:0:
86,259,70483,1,2,0:0:0:0:
111,270,70579,1,10,0:0:0:0:
135,284,70675,1,2,0:0:0:0:
157,301,70771,1,2,0:0:0:0:
178,319,70867,1,2,0:0:0:0:
197,340,70964,6,0,P|189:355|190:338,1,44.0000013427735,2|0,1:2|0:0,0:0:0:0:
269,263,71348,6,0,P|261:248|262:265,1,44.0000013427735,10|0,0:0|0:0,0:0:0:0:
76,341,71733,6,0,P|71:359|86:347,1,47.9999985351563,2|0,1:2|0:0,0:0:0:0:
320,365,72118,6,0,P|324:383|309:371,1,47.9999985351563,10|0,0:0|0:0,0:0:0:0:
492,192,72502,6,0,P|407:202|366:276,1,176.000005371094,6|8,1:2|0:0,0:0:0:0:
408,360,73079,1,0,0:0:0:0:
429,247,73271,2,0,P|420:207|411:168,1,80,0|0,1:0|0:0,0:0:0:0:
360,78,73656,1,10,0:0:0:0:
430,139,73848,1,2,0:0:0:0:
327,226,74041,6,0,P|288:220|259:193,1,80,2|0,1:2|0:0,0:0:0:0:
245,0,74425,2,0,P|231:58|217:116,1,120,8|0,0:0|0:0,0:0:0:0:
202,89,74809,2,0,P|230:62|269:56,1,80,2|0,1:2|0:0,0:0:0:0:
354,154,75195,1,10,0:0:0:0:
263,189,75387,1,2,0:0:0:0:
186,284,75579,6,0,B|194:326|237:344|245:320|288:339|298:382,1,160,2|8,1:2|0:0,0:0:0:0:
512,214,76348,2,0,P|495:136|480:58,1,160,2|10,1:2|0:0,0:0:0:0:
316,20,76925,1,2,0:0:0:0:
406,0,77118,6,0,P|396:38|386:77,2,80,2|0|8,1:2|0:0|0:0,0:0:0:0:
485,63,77695,1,2,0:0:0:0:
409,186,77887,2,0,P|333:176|289:112,1,160,2|8,1:2|0:0,0:0:0:0:
495,242,78464,1,2,0:0:0:0:
421,311,78656,6,0,P|420:350|442:383,1,80,2|0,1:2|0:0,0:0:0:0:
387,212,79041,2,0,P|309:227|231:244,1,160,8|0,0:0|1:0,0:0:0:0:
78,286,79618,5,2,1:2:0:0:
93,262,79714,1,0,3:0:0:0:
108,238,79810,1,10,1:2:0:0:
121,212,79906,1,0,3:0:0:0:
132,186,80002,1,2,1:2:0:0:
142,160,80098,1,0,3:0:0:0:
149,134,80195,6,0,P|107:60|22:56,1,176.000005371094,6|8,1:2|0:0,0:0:0:0:
281,0,80771,2,0,P|285:43|262:79,1,88.000002685547,2|0,1:2|3:0,0:0:0:0:
233,101,81060,1,0,3:0:0:0:
233,101,81156,1,8,3:2:0:0:
60,133,81348,2,0,P|37:165|41:213,1,88.000002685547,10|0,1:2|3:0,0:0:0:0:
61,244,81637,1,0,3:0:0:0:
61,244,81733,6,0,P|100:252|139:261,2,80,8|0|8,3:2|1:0|0:0,0:0:0:0:
9,369,82310,1,0,3:0:0:0:
32,362,82406,1,0,3:0:0:0:
55,356,82502,1,0,3:0:0:0:
78,351,82598,1,0,3:0:0:0:
102,346,82694,2,0,P|141:337|180:329,1,80,8|8,3:2|3:2,0:0:0:0:
373,224,83079,1,0,1:0:0:0:
373,224,83175,1,0,1:0:0:0:
372,223,83272,6,0,P|289:237|258:316,1,176.000005371094,2|8,1:2|3:2,0:0:0:0:
184,130,83848,2,0,P|160:165|160:208,1,88.000002685547,2|0,1:2|3:0,0:0:0:0:
185,241,84137,1,0,3:0:0:0:
185,241,84233,1,8,3:2:0:0:
356,336,84425,2,0,P|399:338|436:315,1,88.000002685547,2|0,1:2|3:0,0:0:0:0:
456,284,84714,1,0,3:0:0:0:
456,284,84810,6,0,L|465:245,2,40,0|0|0,1:2|3:0|3:0,0:0:0:0:
293,384,85195,1,8,0:0:0:0:
258,313,85387,1,0,1:0:0:0:
256,305,85484,1,0,3:0:0:0:
254,297,85580,1,8,3:2:0:0:
264,270,85676,1,8,3:2:0:0:
282,248,85772,1,0,1:0:0:0:
305,232,85868,1,0,3:0:0:0:
331,223,85964,1,8,3:2:0:0:
357,213,86060,1,8,3:2:0:0:
380,198,86156,1,8,3:2:0:0:
397,176,86252,1,8,3:2:0:0:
408,147,86348,6,0,P|374:79|281:72,1,176.000005371094,2|8,1:2|0:0,0:0:0:0:
131,168,86925,2,0,P|165:193|209:192,1,88.000002685547,0|0,1:2|3:0,0:0:0:0:
242,174,87214,1,0,3:0:0:0:
242,174,87310,2,0,L|233:135,2,40,8|0|8,3:2|3:0|3:2,0:0:0:0:
141,29,87695,6,0,P|98:18|55:9,1,88.000002685547,2|8,1:2|3:2,0:0:0:0:
262,95,88079,2,0,P|304:84|347:75,1,88.000002685547,2|8,1:2|0:0,0:0:0:0:
494,22,88464,1,0,3:0:0:0:
487,45,88560,1,0,3:0:0:0:
481,68,88656,1,0,3:0:0:0:
476,91,88752,1,0,3:0:0:0:
471,115,88848,2,0,P|470:154|492:186,1,80,8|8,3:2|3:2,0:0:0:0:
303,281,89233,1,0,1:0:0:0:
303,281,89329,1,0,1:0:0:0:
303,281,89425,6,0,B|298:232|339:202|354:225|393:193|390:143,1,176.000005371094,2|8,1:2|3:2,0:0:0:0:
435,255,90002,2,0,P|425:297|415:341,1,88.000002685547,2|0,1:2|3:0,0:0:0:0:
411,378,90291,1,0,3:0:0:0:
411,378,90387,1,8,3:2:0:0:
512,342,90579,1,8,0:0:0:0:
308,380,90771,6,0,P|269:381|232:349,1,88.000002685547,2|0,1:2|1:2,0:0:0:0:
226,313,91060,1,0,3:0:0:0:
226,313,91156,1,0,3:0:0:0:
404,207,91348,2,0,P|395:245|386:285,1,80,8|0,0:0|1:0,0:0:0:0:
274,235,91733,1,8,3:2:0:0:
267,231,91829,1,0,3:0:0:0:
259,228,91925,1,2,1:2:0:0:
231,224,92021,1,0,3:0:0:0:
202,227,92118,1,10,3:2:0:0:
176,238,92214,1,0,3:0:0:0:
154,255,92310,1,2,3:2:0:0:
128,266,92406,1,0,3:0:0:0:
98,266,92502,6,0,P|57:253|32:218,1,88.000002685547,6|0,1:2|0:0,0:0:0:0:
27,49,92887,1,8,0:0:0:0:
27,49,93079,2,0,P|1:83|3:127,1,88.000002685547,2|0,1:2|1:0,0:0:0:0:
196,103,93464,1,2,0:0:0:0:
93,150,93656,2,0,P|135:138|178:128,1,88.000002685547,10|0,0:0|0:0,0:0:0:0:
263,12,94041,6,0,P|281:90|300:168,1,160,0|8,1:0|0:0,0:0:0:0:
395,239,94618,1,2,0:0:0:0:
395,239,94714,1,2,0:0:0:0:
395,239,94810,2,0,P|393:278|369:309,1,80,2|2,1:2|0:0,0:0:0:0:
285,382,95195,2,0,P|271:346|237:326,1,80,10|2,0:0|1:2,0:0:0:0:
199,333,95483,1,0,1:0:0:0:
199,333,95579,5,2,1:2:0:0:
214,224,95771,1,2,0:0:0:0:
300,168,95964,1,10,0:0:0:0:
222,232,96156,2,0,B|174:244|134:212|153:191|113:159|68:174,1,176.000005371094,2|2,1:2|0:0,0:0:0:0:
0,266,96733,2,0,P|11:308|22:351,1,88.000002685547,10|0,0:0|0:0,0:0:0:0:
141,383,97118,6,0,P|149:344|158:305,2,80,0|0|8,1:0|3:0|0:0,0:0:0:0:
87,250,97695,1,0,3:0:0:0:
102,227,97791,1,0,3:0:0:0:
126,212,97887,1,0,1:0:0:0:
153,205,97983,1,0,3:0:0:0:
179,196,98079,1,0,3:0:0:0:
200,178,98175,1,0,3:0:0:0:
212,153,98271,2,0,P|207:133|202:114,1,40,10|0,0:0|3:0,0:0:0:0:
132,12,98464,1,2,3:2:0:0:
132,12,98560,1,2,3:2:0:0:
132,12,98656,6,0,P|49:26|20:105,1,176.000005371094,6|8,1:2|0:0,0:0:0:0:
193,71,99233,2,0,P|235:61|278:52,1,88.000002685547,2|0,1:2|1:0,0:0:0:0:
341,108,99618,1,2,0:0:0:0:
282,203,99810,1,10,0:0:0:0:
282,203,99906,1,2,0:0:0:0:
282,203,100002,6,0,B|270:245|270:245|297:279,1,88.000002685547,2|0,1:2|1:0,0:0:0:0:
404,371,100387,2,0,B|361:382|361:382|328:355,1,88.000002685547,2|8,1:2|0:0,0:0:0:0:
231,328,100771,1,0,3:0:0:0:
386,287,100964,1,0,1:0:0:0:
413,285,101060,1,0,3:0:0:0:
440,291,101156,1,0,3:0:0:0:
464,304,101252,1,0,3:0:0:0:
480,326,101348,2,0,P|487:344|490:364,1,40,10|0,0:0|3:0,0:0:0:0:
328,356,101541,1,2,1:2:0:0:
328,356,101637,1,0,1:0:0:0:
328,356,101733,6,0,P|347:270|368:184,1,176.000005371094,2|8,1:2|0:0,0:0:0:0:
339,35,102310,2,0,P|316:73|321:116,1,88.000002685547,2|0,1:2|1:0,0:0:0:0:
441,138,102695,2,0,P|460:103|456:64,1,80,2|8,0:0|0:0,0:0:0:0:
324,120,103079,6,0,P|241:108|208:31,1,176.000005371094,2|2,1:2|0:0,0:0:0:0:
239,12,103560,1,2,0:0:0:0:
239,12,103656,1,10,1:2:0:0:
253,48,103752,1,2,3:2:0:0:
267,86,103848,1,2,1:2:0:0:
276,124,103944,1,2,3:2:0:0:
284,164,104040,5,6,1:2:0:0:
281,169,104810,6,0,P|245:176|210:183,1,71.9999978027344,2|2,1:2|0:0,0:0:0:0:
178,211,105098,1,2,0:0:0:0:
178,211,105195,2,0,P|142:203|107:195,1,71.9999978027344,2|2,0:0|1:2,0:0:0:0:
13,178,105579,1,10,0:0:0:0:
13,178,105771,1,2,0:0:0:0:
44,267,105964,2,0,L|36:303,3,35.9999989013672,2|2|2|2,0:0|0:0|0:0|0:0,0:0:0:0:
11,339,106348,6,0,P|43:352|62:383,1,71.9999978027344,2|2,0:0|1:2,0:0:0:0:
144,351,106734,1,2,0:0:0:0:
150,334,106830,1,2,0:0:0:0:
162,320,106926,1,2,1:2:0:0:
178,311,107022,1,2,0:0:0:0:
195,306,107118,2,0,L|231:314,3,35.9999989013672,10|2|2|2,0:0|0:0|0:0|0:0,0:0:0:0:
282,373,107502,2,0,L|318:365,3,35.9999989013672,2|2|2|2,0:0|0:0|3:2|0:0,0:0:0:0:
394,384,107887,6,0,P|401:348|409:313,1,71.9999978027344,2|2,1:2|0:0,0:0:0:0:
367,244,108271,1,2,0:0:0:0:
349,247,108367,1,2,0:0:0:0:
331,251,108463,1,2,1:2:0:0:
314,255,108559,1,2,0:0:0:0:
296,259,108656,2,0,P|288:223|280:188,1,71.9999978027344,10|2,0:0|0:0,0:0:0:0:
274,146,108945,1,2,0:0:0:0:
274,146,109041,2,0,P|277:129|284:112,3,35.9999989013672,2|2|2|2,0:0|0:0|0:0|0:0,0:0:0:0:
197,199,109425,6,0,P|161:191|126:182,1,71.9999978027344,2|2,0:0|1:2,0:0:0:0:
89,105,109810,1,2,0:0:0:0:
85,87,109906,1,2,0:0:0:0:
74,72,110002,1,2,1:2:0:0:
58,62,110098,1,2,0:0:0:0:
40,59,110195,2,0,L|4:67,4,35.9999989013672,10|2|2|2|2,0:0|0:0|0:0|0:0|0:0,0:0:0:0:
295,9,110964,6,0,P|241:51|245:121,1,143.999995605469,2|2,1:2|0:0,0:0:0:0:
327,154,111541,1,2,1:2:0:0:
327,154,111733,2,0,P|362:145|397:137,1,71.9999978027344,10|2,0:0|0:0,0:0:0:0:
481,177,112118,1,2,0:0:0:0:
478,194,112214,1,2,0:0:0:0:
474,212,112310,1,2,0:0:0:0:
470,229,112406,1,2,0:0:0:0:
466,247,112502,6,0,P|430:238|395:230,1,71.9999978027344,2|2,0:0|1:2,0:0:0:0:
312,270,112887,1,2,0:0:0:0:
315,287,112983,1,2,0:0:0:0:
319,305,113079,1,2,1:2:0:0:
323,322,113175,1,2,0:0:0:0:
327,340,113271,2,0,L|319:376,3,35.9999989013672,10|2|2|2,0:0|0:0|0:0|0:0,0:0:0:0:
230,384,113656,2,0,L|222:348,3,35.9999989013672,2|2|2|2,0:0|0:0|3:2|0:0,0:0:0:0:
149,295,114041,6,0,P|181:282|200:251,1,71.9999978027344,2|2,1:2|0:0,0:0:0:0:
266,185,114425,1,2,0:0:0:0:
260,168,114521,1,2,0:0:0:0:
248,154,114617,1,2,1:2:0:0:
232,145,114713,1,2,0:0:0:0:
214,140,114810,2,0,P|178:148|143:156,1,71.9999978027344,10|2,0:0|0:0,0:0:0:0:
68,203,115195,2,0,P|33:195|0:186,1,71.9999978027344,2|2,0:0|0:0,0:0:0:0:
25,100,115579,5,2,1:2:0:0:
25,100,115771,1,2,0:0:0:0:
114,70,115964,1,2,1:2:0:0:
114,70,116156,1,2,0:0:0:0:
143,156,116348,1,10,1:2:0:0:
138,180,116444,1,2,0:0:0:0:
132,205,116541,1,2,0:0:0:0:
127,230,116636,1,2,0:0:0:0:
121,255,116733,1,2,0:0:0:0:
125,259,117118,6,0,P|91:242|72:207,1,80,2|2,1:2|0:0,0:0:0:0:
85,165,117406,1,2,0:0:0:0:
85,165,117502,1,10,0:0:0:0:
244,240,117695,1,2,1:2:0:0:
194,307,117887,2,0,P|203:345|212:384,1,80,2|2,1:2|0:0,0:0:0:0:
309,347,118271,1,10,0:0:0:0:
315,319,118368,1,2,0:0:0:0:
320,292,118463,1,2,0:0:0:0:
327,265,118560,1,2,0:0:0:0:
332,238,118656,6,0,P|355:206|392:193,1,80,2|2,1:2|0:0,0:0:0:0:
512,303,119040,1,10,0:0:0:0:
484,296,119137,1,2,0:0:0:0:
457,292,119232,1,2,1:2:0:0:
430,285,119329,1,2,0:0:0:0:
403,280,119425,2,0,L|364:289,3,40,2|2|2|2,1:2|0:0|0:0|0:0,0:0:0:0:
293,360,119810,1,10,0:0:0:0:
286,327,119907,1,2,0:0:0:0:
280,296,120002,1,2,0:0:0:0:
272,265,120099,1,2,0:0:0:0:
266,233,120195,6,0,P|248:197|214:178,1,80,2|2,1:2|0:0,0:0:0:0:
118,46,120579,1,10,0:0:0:0:
144,37,120675,1,2,0:0:0:0:
172,40,120771,1,2,1:2:0:0:
196,54,120867,1,2,0:0:0:0:
211,78,120964,2,0,P|201:117|192:156,1,80,2|2,1:2|0:0,0:0:0:0:
173,197,121252,1,2,0:0:0:0:
173,197,121348,2,0,L|134:206,3,40,10|2|2|2,0:0|0:0|0:0|0:0,0:0:0:0:
274,154,121733,6,0,P|312:163|351:172,1,80,2|2,1:2|0:0,0:0:0:0:
400,184,122021,1,2,0:0:0:0:
400,184,122118,1,10,0:0:0:0:
425,178,122214,1,2,0:0:0:0:
449,161,122310,1,2,1:2:0:0:
462,137,122406,1,2,0:0:0:0:
464,109,122502,2,0,P|466:88|473:70,3,40,2|2|2|2,1:2|0:0|0:0|0:0,0:0:0:0:
406,0,122887,1,10,0:0:0:0:
512,244,123271,6,0,P|473:252|434:261,1,80,2|2,1:2|0:0,0:0:0:0:
374,343,123656,1,10,0:0:0:0:
401,348,123752,1,2,0:0:0:0:
428,355,123849,1,2,1:2:0:0:
455,359,123944,1,2,0:0:0:0:
482,364,124041,2,0,P|489:346|491:326,3,40,2|2|2|2,1:2|0:0|0:0|0:0,0:0:0:0:
428,264,124425,2,0,P|420:247|406:232,3,40,10|2|2|2,0:0|0:0|0:0|0:0,0:0:0:0:
317,241,124810,6,0,P|294:273|293:312,1,80,2|2,1:2|0:0,0:0:0:0:
222,381,125195,1,10,0:0:0:0:
190,384,125291,1,2,0:0:0:0:
159,375,125387,1,2,1:2:0:0:
135,354,125483,1,2,0:0:0:0:
124,324,125579,2,0,L|163:333,3,40,2|2|2|2,1:2|0:0|0:0|0:0,0:0:0:0:
52,371,125964,2,0,L|13:380,3,40,10|2|2|2,0:0|0:0|0:0|0:0,0:0:0:0:
49,286,126348,6,0,P|40:247|30:208,1,80,0|2,1:2|0:0,0:0:0:0:
0,117,126734,1,10,0:0:0:0:
10,91,126830,1,2,0:0:0:0:
32,74,126926,1,2,1:2:0:0:
59,68,127022,1,2,0:0:0:0:
85,75,127118,2,0,L|76:114,3,40,2|2|2|2,1:2|0:0|0:0|0:0,0:0:0:0:
161,134,127502,2,0,L|152:173,3,40,10|2|2|2,0:0|0:0|0:0|0:0,0:0:0:0:
257,102,127887,5,2,1:2:0:0:
257,102,128079,1,2,0:0:0:0:
240,10,128271,1,2,1:2:0:0:
240,10,128463,1,2,0:0:0:0:
350,70,128656,1,2,1:2:0:0:
377,75,128751,1,2,0:0:0:0:
404,82,128848,1,2,0:0:0:0:
431,86,128945,1,2,0:0:0:0:
458,92,129040,1,10,1:2:0:0:
462,96,129425,6,0,B|476:142|476:142|445:178,1,95.9999970703126,6|2,1:2|0:0,0:0:0:0:
416,214,129714,1,2,0:0:0:0:
416,214,129810,1,10,1:2:0:0:
512,338,130002,1,2,0:0:0:0:
421,374,130195,2,0,P|430:331|439:288,1,88.000002685547,2|2,1:2|0:0,0:0:0:0:
358,148,130579,1,10,1:2:0:0:
332,145,130675,1,2,0:0:0:0:
306,150,130771,1,2,0:0:0:0:
286,167,130868,1,2,0:0:0:0:
275,191,130964,6,0,P|285:237|295:284,1,95.9999970703126,6|2,1:2|0:0,0:0:0:0:
242,384,131348,5,10,1:2:0:0:
224,363,131444,1,2,0:0:0:0:
200,351,131540,1,2,0:0:0:0:
173,348,131636,1,2,0:0:0:0:
147,352,131732,1,2,1:2:0:0:
121,355,131828,1,2,0:0:0:0:
95,352,131924,1,2,0:0:0:0:
71,340,132021,1,2,0:0:0:0:
56,318,132118,2,0,L|65:274,3,44.0000013427735,10|2|2|2,1:2|0:0|0:0|0:0,0:0:0:0:
0,189,132502,6,0,B|47:198|47:198|79:163,1,95.9999970703126,6|2,1:2|0:0,0:0:0:0:
162,97,132887,1,10,1:2:0:0:
188,90,132983,1,2,0:0:0:0:
214,95,133079,1,2,0:0:0:0:
234,112,133176,1,2,0:0:0:0:
244,135,133271,2,0,P|234:178|225:221,1,88.000002685547,2|2,1:2|0:0,0:0:0:0:
220,268,133560,1,2,0:0:0:0:
220,268,133656,2,0,P|223:289|229:310,3,44.0000013427735,10|2|2|2,1:2|0:0|0:0|0:0,0:0:0:0:
316,373,134041,6,0,P|363:362|410:352,1,95.9999970703126,6|2,1:2|0:0,0:0:0:0:
460,346,134329,1,2,0:0:0:0:
460,346,134425,1,10,1:2:0:0:
465,320,134521,1,2,0:0:0:0:
471,294,134617,1,2,0:0:0:0:
477,268,134713,1,2,0:0:0:0:
482,241,134810,2,0,L|438:232,3,44.0000013427735,2|2|2|2,1:2|0:0|0:0|0:0,0:0:0:0:
347,277,135195,1,10,1:2:0:0:
508,126,135579,6,0,B|462:110|462:110|426:140,1,95.9999970703126,6|2,1:2|0:0,0:0:0:0:
312,195,135964,1,10,1:2:0:0:
286,190,136060,1,2,0:0:0:0:
260,184,136156,1,2,0:0:0:0:
234,178,136252,1,2,0:0:0:0:
208,173,136349,2,0,P|200:152|199:130,3,44.0000013427735,2|2|2|2,1:2|0:0|0:0|0:0,0:0:0:0:
167,53,136733,2,0,P|177:33|193:17,3,44.0000013427735,10|2|2|2,1:2|0:0|0:0|0:0,0:0:0:0:
285,1,137118,6,0,P|311:39|302:85,1,95.9999970703126,6|2,1:2|0:0,0:0:0:0:
204,177,137502,1,10,1:2:0:0:
174,182,137598,1,2,0:0:0:0:
144,189,137694,1,2,0:0:0:0:
114,196,137790,1,2,0:0:0:0:
84,202,137887,2,0,P|68:185|58:165,3,44.0000013427735,2|2|2|2,1:2|0:0|0:0|0:0,0:0:0:0:
0,108,138271,2,0,P|1:85|9:64,3,44.0000013427735,10|2|2|2,1:2|0:0|0:0|0:0,0:0:0:0:
88,14,138656,6,0,P|134:24|181:34,1,95.9999970703126,6|2,1:2|0:0,0:0:0:0:
305,89,139041,2,0,L|349:80,3,44.0000013427735,10|2|2|2,1:2|0:0|0:0|0:0,0:0:0:0:
223,128,139425,1,2,1:2:0:0:
218,155,139521,1,2,0:0:0:0:
224,181,139617,1,2,0:0:0:0:
239,203,139713,1,2,0:0:0:0:
259,221,139809,1,10,1:2:0:0:
278,239,139905,1,2,0:0:0:0:
292,261,140001,1,2,0:0:0:0:
299,287,140098,1,2,0:0:0:0:
293,313,140195,6,0,B|257:343|257:343|211:327,1,95.9999970703126,6|2,1:2|0:0,0:0:0:0:
354,204,140579,2,0,B|400:188|400:188|436:218,1,95.9999970703126,14|2,1:2|0:0,0:0:0:0:
503,359,140964,1,6,1:2:0:0:
473,353,141060,1,2,0:0:0:0:
443,346,141156,1,2,0:0:0:0:
413,339,141252,1,2,0:0:0:0:
383,334,141348,1,10,1:2:0:0:
379,338,141733,6,0,B|415:368|415:368|461:352,1,95.9999970703126,6|2,1:2|0:0,0:0:0:0:
318,229,142117,2,0,B|272:213|272:213|236:243,1,95.9999970703126,14|2,1:2|0:0,0:0:0:0:
169,384,142502,1,2,1:2:0:0:
199,378,142598,1,2,0:0:0:0:
229,371,142694,1,2,0:0:0:0:
259,364,142790,1,2,0:0:0:0:
289,359,142887,6,0,P|195:338|101:318,1,191.999994140625,6|0,1:2|1:0,0:0:0:0:
97,322,143656,6,0,P|103:353|110:384,1,64,2|2,1:2|1:2,0:0:0:0:
206,292,144233,5,0,1:0:0:0:
213,269,144329,1,0,3:0:0:0:
213,245,144425,1,2,1:2:0:0:
206,222,144521,1,0,3:0:0:0:
193,202,144618,1,0,1:0:0:0:
174,187,144714,1,0,3:0:0:0:
152,177,144810,5,6,1:2:0:0:
102,99,145002,2,0,P|110:59|118:20,2,80,2|10|2,0:0|0:0|0:0,0:0:0:0:
0,149,145579,2,0,P|49:179|61:237,1,120,2|0,1:2|0:0,0:0:0:0:
55,267,145963,1,10,0:0:0:0:
156,173,146156,1,2,0:0:0:0:
225,226,146348,6,0,P|264:217|303:208,1,80,2|2,1:2|0:0,0:0:0:0:
343,133,146733,2,0,P|303:124|264:116,1,80,10|2,0:0|0:0,0:0:0:0:
172,30,147118,2,0,B|161:68|161:68|186:99,1,80,2|2,1:2|0:0,0:0:0:0:
307,213,147502,2,0,B|318:251|318:251|293:282,1,80,10|2,0:0|0:0,0:0:0:0:
206,318,147887,5,2,1:2:0:0:
276,378,148079,2,0,P|311:360|350:366,2,80,2|10|2,0:0|0:0|0:0,0:0:0:0:
401,291,148656,2,0,P|459:297|495:343,1,120,2|0,1:2|0:0,0:0:0:0:
490,374,149041,1,10,0:0:0:0:
512,222,149233,1,2,0:0:0:0:
459,149,149425,6,0,P|419:157|380:166,1,80,2|2,1:2|0:0,0:0:0:0:
303,209,149810,2,0,P|263:200|224:192,1,80,10|2,0:0|0:0,0:0:0:0:
343,91,150195,1,2,1:2:0:0:
381,166,150387,1,2,0:0:0:0:
245,105,150579,2,0,P|205:113|166:121,1,80,10|2,0:0|0:0,0:0:0:0:
84,215,150964,6,0,P|75:254|67:293,2,80,2|2|10,1:2|0:0|0:0,0:0:0:0:
25,155,151541,1,2,0:0:0:0:
113,48,151734,1,2,1:2:0:0:
117,52,152118,1,10,0:0:0:0:
121,56,152502,6,0,P|160:59|194:40,1,80,2|2,1:2|0:0,0:0:0:0:
277,0,152887,2,0,P|289:37|279:75,1,80,10|2,0:0|0:0,0:0:0:0:
165,194,153271,1,2,1:2:0:0:
247,174,153464,2,0,P|284:185|309:216,2,80,2|10|2,0:0|0:0|0:0,0:0:0:0:
103,137,154041,6,0,P|63:145|24:154,2,80,2|2|10,1:2|0:0|0:0,0:0:0:0:
154,60,154618,1,2,0:0:0:0:
169,232,154810,2,0,P|144:262|106:274,1,80,2|0,1:2|0:0,0:0:0:0:
20,157,155195,1,10,0:0:0:0:
99,141,155387,1,2,0:0:0:0:
27,241,155579,6,0,P|18:280|9:319,2,80,2|2|10,1:2|0:0|0:0,0:0:0:0:
179,144,156156,1,2,0:0:0:0:
253,199,156348,2,0,B|291:207|291:207|320:180,1,80,2|0,1:2|1:0,0:0:0:0:
358,150,156637,1,0,3:0:0:0:
358,150,156733,1,8,1:2:0:0:
413,328,156925,1,2,0:0:0:0:
413,328,157021,1,2,0:0:0:0:
413,328,157118,6,0,P|328:305|242:284,1,176.000005371094,6|8,1:2|0:0,0:0:0:0:
114,343,157695,1,2,0:0:0:0:
114,343,157791,1,2,0:0:0:0:
114,343,157887,2,0,P|151:354|176:384,1,80,2|2,1:2|0:0,0:0:0:0:
319,285,158271,1,10,0:0:0:0:
263,358,158464,1,2,0:0:0:0:
153,256,158657,5,2,1:2:0:0:
172,245,158753,1,2,0:0:0:0:
192,236,158849,1,2,0:0:0:0:
213,229,158945,1,2,0:0:0:0:
234,222,159041,2,0,P|272:212|311:203,1,80,10|2,0:0|0:0,0:0:0:0:
214,88,159425,1,2,1:2:0:0:
244,94,159521,1,2,0:0:0:0:
273,100,159617,1,2,0:0:0:0:
302,106,159713,1,2,0:0:0:0:
331,114,159809,1,10,0:0:0:0:
360,122,159905,1,2,0:0:0:0:
389,131,160001,1,2,0:0:0:0:
417,141,160098,1,2,0:0:0:0:
445,152,160195,6,0,P|494:207|475:282,1,160,2|8,1:2|0:0,0:0:0:0:
365,380,160771,1,2,0:0:0:0:
365,380,160868,1,2,0:0:0:0:
365,380,160964,2,0,P|354:341|343:302,1,80,2|2,1:2|0:0,0:0:0:0:
276,211,161348,2,0,P|286:172|297:133,1,80,10|2,0:0|0:0,0:0:0:0:
238,44,161733,5,2,1:2:0:0:
210,32,161829,1,2,0:0:0:0:
181,27,161925,1,2,0:0:0:0:
151,28,162021,1,2,0:0:0:0:
122,37,162117,1,10,0:0:0:0:
96,51,162213,1,2,0:0:0:0:
74,72,162309,1,2,0:0:0:0:
57,96,162406,1,2,0:0:0:0:
47,128,162502,6,0,P|58:144|76:153,3,40,2|2|2|2,1:2|0:0|0:0|0:0,0:0:0:0:
136,208,162886,2,0,P|155:209|173:201,1,40,10|2,0:0|0:0,0:0:0:0:
171,100,163079,1,2,0:0:0:0:
171,100,163174,1,2,0:0:0:0:
171,100,163271,6,0,B|147:124|124:165|124:165|123:174|123:174|95:205|73:244,1,176.000005371094,2|8,1:2|0:0,0:0:0:0:
18,352,163848,1,2,0:0:0:0:
18,352,163944,1,2,0:0:0:0:
18,352,164041,2,0,P|25:370|40:383,3,40,2|2|2|2,1:2|0:0|0:0|0:0,0:0:0:0:
125,312,164425,1,10,0:0:0:0:
152,301,164521,1,2,0:0:0:0:
181,293,164617,1,2,0:0:0:0:
209,285,164713,1,2,0:0:0:0:
238,278,164810,6,0,P|276:288|315:298,1,80,2|2,1:2|0:0,0:0:0:0:
364,311,165098,1,2,0:0:0:0:
364,311,165195,1,10,0:0:0:0:
498,273,165387,2,0,P|459:262|420:252,1,80,2|2,0:0|1:2,0:0:0:0:
383,384,165771,2,0,P|421:374|460:364,1,80,2|10,0:0|0:0,0:0:0:0:
343,233,166156,1,2,0:0:0:0:
248,351,166348,6,0,B|200:355|165:317|188:300|154:261|107:267,1,176.000005371094,2|8,1:2|0:0,0:0:0:0:
74,301,166829,1,2,0:0:0:0:
121,306,166925,1,2,0:0:0:0:
166,291,167021,1,2,0:0:0:0:
199,256,167117,2,0,B|238:245|238:245|269:270,1,80,0|2,1:0|0:0,0:0:0:0:
122,188,167502,2,0,B|83:177|83:177|52:202,1,80,10|2,0:0|0:0,0:0:0:0:
177,44,167887,5,2,1:2:0:0:
186,71,167983,1,2,0:0:0:0:
198,98,168079,1,2,0:0:0:0:
212,125,168175,1,2,0:0:0:0:
225,152,168271,1,10,0:0:0:0:
240,178,168367,1,2,0:0:0:0:
256,203,168463,1,2,0:0:0:0:
272,228,168560,1,2,0:0:0:0:
292,250,168656,1,2,1:2:0:0:
320,262,168752,1,2,0:0:0:0:
348,253,168848,2,0,P|336:238|318:230,1,40,2|2,0:0|0:0,0:0:0:0:
158,287,169041,5,10,0:0:0:0:
161,297,169137,1,2,3:2:0:0:
164,308,169233,1,2,1:2:0:0:
168,322,169329,1,2,1:2:0:0:
172,337,169425,6,0,P|218:349|264:361,1,95.9999970703126,6|2,1:2|0:0,0:0:0:0:
310,384,169714,1,2,0:0:0:0:
310,384,169810,2,0,L|352:372,3,44.0000013427735,10|2|10|2,0:0|0:0|0:0|0:0,0:0:0:0:
438,308,170195,5,2,1:2:0:0:
448,312,170291,1,2,0:0:0:0:
458,317,170387,1,2,0:0:0:0:
467,323,170483,1,2,0:0:0:0:
476,329,170579,1,10,0:0:0:0:
483,337,170675,1,2,0:0:0:0:
490,345,170771,1,2,1:2:0:0:
497,354,170868,1,2,0:0:0:0:
503,363,170964,6,0,P|491:317|479:271,1,95.9999970703126,6|2,1:2|0:0,0:0:0:0:
500,227,171252,1,2,0:0:0:0:
500,227,171348,2,0,L|512:185,3,44.0000013427735,10|2|10|2,0:0|0:0|0:0|0:0,0:0:0:0:
441,118,171733,5,2,1:2:0:0:
430,120,171829,1,2,0:0:0:0:
419,123,171925,1,2,0:0:0:0:
409,126,172021,1,2,0:0:0:0:
398,129,172117,1,10,0:0:0:0:
387,132,172213,1,2,0:0:0:0:
377,135,172309,1,2,0:0:0:0:
367,139,172406,1,2,0:0:0:0:
356,143,172502,6,0,P|359:166|368:188,3,47.9999985351563,4|2|2|2,1:2|0:0|0:0|0:0,0:0:0:0:
266,118,172887,2,0,P|273:98|286:80,3,44.0000013427735,10|2|10|2,0:0|0:0|0:0|0:0,0:0:0:0:
183,163,173271,5,2,1:2:0:0:
173,160,173367,1,2,0:0:0:0:
162,157,173463,1,2,0:0:0:0:
151,154,173559,1,2,0:0:0:0:
141,151,173655,1,10,0:0:0:0:
130,148,173751,1,2,0:0:0:0:
119,146,173848,2,0,L|77:158,1,44.0000013427735,2|2,1:2|0:0,0:0:0:0:
0,31,174041,6,0,P|46:38|75:75,1,95.9999970703126,6|2,1:2|0:0,0:0:0:0:
47,232,174425,1,10,0:0:0:0:
51,244,174521,1,2,0:0:0:0:
59,255,174618,2,0,L|101:267,1,44.0000013427735,10|2,0:0|0:0,0:0:0:0:
242,225,174810,5,2,1:2:0:0:
265,204,174906,1,2,0:0:0:0:
275,175,175002,1,2,0:0:0:0:
274,147,175098,1,2,0:0:0:0:
262,123,175195,2,0,L|220:111,1,44.0000013427735,10|2,0:0|0:0,0:0:0:0:
150,179,175387,1,2,1:2:0:0:
150,179,175483,1,2,1:2:0:0:
150,179,175579,6,0,P|164:224|179:270,1,95.9999970703126,6|2,1:2|0:0,0:0:0:0:
172,318,175868,1,2,0:0:0:0:
172,318,175964,2,0,P|156:333|138:345,3,44.0000013427735,10|2|10|2,0:0|0:0|0:0|0:0,0:0:0:0:
23,369,176348,5,2,1:2:0:0:
26,358,176444,1,2,0:0:0:0:
29,347,176540,1,2,0:0:0:0:
32,337,176636,1,2,0:0:0:0:
34,326,176733,2,0,P|18:311|0:299,3,44.0000013427735,10|2|2|2,0:0|0:0|0:0|0:0,0:0:0:0:
131,377,177118,6,0,P|177:364|223:352,1,95.9999970703126,6|2,1:2|0:0,0:0:0:0:
273,341,177406,1,2,0:0:0:0:
273,341,177502,2,0,P|289:324|300:306,3,44.0000013427735,10|2|10|2,0:0|0:0|0:0|0:0,0:0:0:0:
329,202,177887,5,2,1:2:0:0:
340,204,177983,1,2,0:0:0:0:
351,207,178079,1,2,0:0:0:0:
361,210,178175,1,2,0:0:0:0:
370,211,178271,2,0,P|385:227|397:246,3,44.0000013427735,10|2|2|2,0:0|0:0|0:0|0:0,0:0:0:0:
483,308,178656,6,0,B|514:272|514:272|499:225,1,95.9999970703126,6|2,1:2|0:0,0:0:0:0:
480,88,179041,1,10,0:0:0:0:
468,92,179137,1,2,0:0:0:0:
457,100,179234,2,0,L|445:142,1,44.0000013427735,10|2,0:0|0:0,0:0:0:0:
325,206,179425,5,2,1:2:0:0:
292,210,179521,1,2,0:0:0:0:
262,203,179617,1,2,0:0:0:0:
239,187,179713,1,2,0:0:0:0:
228,163,179810,2,0,L|270:151,3,44.0000013427735,10|2|2|2,0:0|0:0|0:0|0:0,0:0:0:0:
323,80,180195,6,0,L|311:38,3,44.0000013427735,0|2|2|2,1:0|0:0|0:0|0:0,0:0:0:0:
371,152,180579,1,10,1:2:0:0:
344,176,180675,1,2,0:0:0:0:
321,202,180771,1,2,1:2:0:0:
301,231,180867,1,2,0:0:0:0:
284,261,180963,1,10,1:2:0:0:
288,265,181733,6,0,P|334:277|380:290,1,95.9999970703126,4|0,1:2|0:0,0:0:0:0:
259,359,182118,2,0,P|212:371|166:384,1,95.9999970703126,4|0,1:2|0:0,0:0:0:0:
102,310,182502,1,4,1:2:0:0:
263,363,182695,5,2,0:0:0:0:
199,290,182887,1,6,1:2:0:0:
311,176,183079,1,2,0:0:0:0:
292,269,183271,6,0,P|377:289|462:311,1,176.000005371094,2|12,1:2|1:2,0:0:0:0:
315,180,183848,1,2,0:0:0:0:
489,141,184041,2,0,P|403:161|318:182,1,176.000005371094,2|12,1:2|1:2,0:0:0:0:
169,64,184618,1,2,0:0:0:0:
253,15,184809,6,0,P|270:76|238:132,1,132.00000402832,2|0,1:2|0:0,0:0:0:0:
198,161,185195,6,0,P|172:200|180:246,1,95.9999970703126,12|0,1:2|0:0,0:0:0:0:
92,126,185579,2,0,P|66:87|74:41,1,95.9999970703126,12|2,1:2|0:0,0:0:0:0:
107,4,185868,1,2,0:0:0:0:
107,4,185964,1,10,0:0:0:0:
144,14,186060,1,2,0:0:0:0:
181,24,186156,1,2,0:0:0:0:
218,34,186252,1,2,0:0:0:0:
255,44,186348,6,0,B|273:29|273:29|249:32,1,47.9999985351563,6|0,1:2|0:0,0:0:0:0:
203,261,186733,6,0,B|217:279|217:279|214:255,1,47.9999985351563,14|0,1:2|0:0,0:0:0:0:
276,136,187118,6,0,B|296:152|296:152|270:149,1,51.999997619629,6|0,1:2|0:0,0:0:0:0:
42,293,187502,6,0,B|38:318|38:318|55:298,1,51.999997619629,14|0,1:2|0:0,0:0:0:0:
14,83,187887,6,0,B|83:150|83:150|174:121,1,191.999994140625,6|8,1:2|0:0,0:0:0:0:
255,44,188464,1,0,0:0:0:0:
371,114,188656,2,0,P|329:110|292:133,1,88.000002685547,0|0,1:2|0:0,0:0:0:0:
226,249,189041,1,10,0:0:0:0:
330,223,189233,1,2,0:0:0:0:
279,356,189425,6,0,P|237:360|200:337,1,88.000002685547,2|0,1:2|0:0,0:0:0:0:
352,309,189810,2,0,P|415:326|479:343,1,132.00000402832,8|0,0:0|0:0,0:0:0:0:
512,308,190195,2,0,P|499:265|487:223,1,88.000002685547,2|0,1:2|0:0,0:0:0:0:
506,56,190579,1,10,0:0:0:0:
406,0,190771,1,2,0:0:0:0:
285,81,190964,6,0,B|294:128|339:151|350:124|396:146|403:192,1,176.000005371094,2|8,1:2|0:0,0:0:0:0:
283,360,191733,2,0,P|198:337|112:314,1,176.000005371094,2|10,1:2|0:0,0:0:0:0:
2,228,192310,1,2,0:0:0:0:
167,185,192502,6,0,P|178:143|161:103,2,88.000002685547,2|0|8,1:2|0:0|0:0,0:0:0:0:
23,310,193079,1,2,0:0:0:0:
130,383,193271,2,0,P|107:297|84:212,1,176.000005371094,2|8,1:2|0:0,0:0:0:0:
6,73,193848,1,2,0:0:0:0:
156,5,194041,6,0,P|159:48|136:84,1,88.000002685547,2|0,1:2|0:0,0:0:0:0:
1,199,194425,2,0,P|29:279|111:304,1,176.000005371094,8|0,0:0|1:0,0:0:0:0:
327,352,195001,5,2,1:2:0:0:
302,337,195097,1,0,3:0:0:0:
279,320,195194,1,2,1:2:0:0:
256,302,195290,1,0,3:0:0:0:
234,283,195386,1,2,1:2:0:0:
213,263,195482,1,0,3:0:0:0:
196,240,195579,6,0,P|224:160|306:135,1,176.000005371094,2|12,1:2|1:2,0:0:0:0:
499,234,196156,1,2,0:0:0:0:
432,75,196348,2,0,P|409:159|387:245,1,176.000005371094,2|12,1:2|1:2,0:0:0:0:
195,345,196925,1,2,0:0:0:0:
289,384,197118,6,0,B|309:320|309:320|267:271,1,132.00000402832,2|0,1:2|0:0,0:0:0:0:
235,239,197502,6,0,P|188:251|142:263,1,95.9999970703126,12|0,1:2|0:0,0:0:0:0:
16,122,197887,2,0,P|62:134|108:146,1,95.9999970703126,12|2,1:2|0:0,0:0:0:0:
158,159,198175,1,2,0:0:0:0:
158,159,198271,1,10,0:0:0:0:
189,137,198368,1,2,0:0:0:0:
210,105,198464,1,2,0:0:0:0:
219,68,198560,1,2,0:0:0:0:
216,30,198656,6,0,P|207:14|208:32,1,47.9999985351563,6|0,1:2|0:0,0:0:0:0:
445,258,199041,6,0,P|428:264|441:251,1,47.9999985351563,14|0,1:2|0:0,0:0:0:0:
317,151,199425,6,0,P|330:137|324:155,1,51.999997619629,6|0,1:2|0:0,0:0:0:0:
512,65,199810,6,0,P|493:63|510:72,1,51.999997619629,14|0,1:2|0:0,0:0:0:0:
334,244,200195,6,0,B|285:262|238:228|260:206|214:172|164:188,1,191.999994140625,6|8,1:2|0:0,0:0:0:0:
65,239,200771,1,0,0:0:0:0:
145,349,200964,2,0,P|174:317|179:274,1,88.000002685547,0|0,1:2|0:0,0:0:0:0:
74,139,201348,1,10,0:0:0:0:
160,87,201541,1,2,0:0:0:0:
316,157,201733,6,0,P|358:145|401:134,1,88.000002685547,2|0,1:2|0:0,0:0:0:0:
272,35,202117,2,0,P|208:18|144:1,1,132.00000402832,8|0,0:0|0:0,0:0:0:0:
98,18,202501,2,0,P|68:50|64:93,1,88.000002685547,2|0,1:2|0:0,0:0:0:0:
178,209,202886,1,10,0:0:0:0:
79,268,203078,1,2,0:0:0:0:
161,362,203271,6,0,P|182:277|205:192,1,176.000005371094,2|8,1:2|0:0,0:0:0:0:
502,146,204041,2,0,P|473:226|392:251,1,176.000005371094,2|10,1:2|0:0,0:0:0:0:
299,157,204618,1,2,0:0:0:0:
266,300,204810,6,0,P|277:342|288:384,2,88.000002685547,2|0|8,1:2|0:0|0:0,0:0:0:0:
108,204,205387,1,2,0:0:0:0:
155,97,205579,2,0,B|241:70|241:70|306:126,1,176.000005371094,2|8,1:2|0:0,0:0:0:0:
388,255,206156,1,2,0:0:0:0:
257,223,206348,6,0,B|215:210|215:210|181:237,1,88.000002685547,2|0,1:2|0:0,0:0:0:0:
1,267,206733,2,0,P|23:181|45:96,1,176.000005371094,8|0,0:0|1:0,0:0:0:0:
121,291,207310,5,8,0:0:0:0:
141,311,207406,1,8,0:0:0:0:
162,329,207502,1,10,1:2:0:0:
185,345,207598,1,0,3:0:0:0:
209,359,207694,1,2,1:2:0:0:
235,370,207790,1,0,3:0:0:0:
263,379,207887,6,0,P|309:370|336:333,1,95.9999970703126,6|0,1:2|0:0,0:0:0:0:
460,188,208271,2,0,P|422:135|359:131,1,132.00000402832,8|0,0:0|0:0,0:0:0:0:
324,159,208656,2,0,P|335:201|346:244,1,88.000002685547,2|0,1:2|0:0,0:0:0:0:
189,349,209041,1,10,0:0:0:0:
292,384,209233,1,2,0:0:0:0:
200,237,209425,6,0,P|114:259|29:280,1,176.000005371094,2|8,1:2|0:0,0:0:0:0:
175,6,210195,2,0,B|163:52|197:92|216:70|250:111|236:157,1,176.000005371094,2|10,1:2|0:0,0:0:0:0:
124,225,210771,1,2,0:0:0:0:
210,326,210964,6,0,P|251:339|293:352,2,88.000002685547,2|0|8,1:2|0:0|0:0,0:0:0:0:
57,384,211541,1,2,0:0:0:0:
0,287,211733,2,0,P|37:210|120:194,1,176.000005371094,2|8,1:2|0:0,0:0:0:0:
278,257,212310,1,2,0:0:0:0:
342,170,212501,5,2,1:2:0:0:
325,155,212597,1,0,3:0:0:0:
304,148,212694,1,0,1:2:0:0:
282,146,212790,1,0,3:0:0:0:
260,149,212886,2,0,P|249:129|244:108,3,44.0000013427735,8|0|0|0,0:0|3:0|3:0|3:0,0:0:0:0:
435,75,213271,5,2,1:2:0:0:
442,101,213367,1,0,3:0:0:0:
448,127,213463,1,0,1:2:0:0:
452,154,213559,1,0,3:0:0:0:
455,180,213655,2,0,P|448:202|438:221,1,44.0000013427735,8|0,1:2|3:0,0:0:0:0:
385,373,213847,5,2,1:2:0:0:
376,329,213944,1,2,3:2:0:0:
368,286,214040,1,6,1:2:0:0:
