osu file format v14

[General]
AudioFilename: audio.mp3
AudioLeadIn: 0
PreviewTime: 169425
Countdown: 0
SampleSet: Soft
StackLeniency: 0.7
Mode: 0
LetterboxInBreaks: 0
WidescreenStoryboard: 1

[Editor]
DistanceSpacing: 0.6
BeatDivisor: 4
GridSize: 32
TimelineZoom: 2.1

[Metadata]
Title:Beethoven Virus
TitleUnicode:Beethoven Virus
Artist:DIANA
ArtistUnicode:DIANA
Creator:Orkay
Version:Aranel's Hard
Source:PUMP IT UP –THE PERFECT COLLECTION-
Tags:video game electronic neo classical modern pop crossover instrumental dance mezelyus' tournament mezelyus'un duo turnuvası mdt2022 semifinals sf dt2 베토벤 바이러스 piu vgm music sk south korea 2006 violin piano sonata pathetique rondo allegro banya boncheva ludwig van andy warhol aranel
BeatmapID:3533589
BeatmapSetID:1724615

[Difficulty]
HPDrainRate:4.4
CircleSize:3.6
OverallDifficulty:6.4
ApproachRate:7
SliderMultiplier:1.45
SliderTickRate:1

[Events]
//Background and Video events
0,0,"bground.jpg",0,0
//Break Periods
//Storyboard Layer 0 (Background)
//Storyboard Layer 1 (Fail)
//Storyboard Layer 2 (Pass)
//Storyboard Layer 3 (Foreground)
//Storyboard Layer 4 (Overlay)
//Storyboard Sound Samples

[TimingPoints]
195,384.615384615385,4,2,1,50,1,0
195,-200,4,2,1,50,0,0
6348,-133.333333333333,4,2,1,50,0,0
9425,-133.333333333333,4,2,1,55,0,0
9521,-133.333333333333,4,2,1,30,0,0
9618,-133.333333333333,4,2,1,32,0,0
9714,-133.333333333333,4,2,1,34,0,0
9810,-133.333333333333,4,2,1,36,0,0
9906,-133.333333333333,4,2,1,38,0,0
10002,-133.333333333333,4,2,1,55,0,0
10098,-133.333333333333,4,2,1,42,0,0
10195,-133.333333333333,4,2,1,44,0,0
10291,-133.333333333333,4,2,1,46,0,0
10387,-133.333333333333,4,2,1,48,0,0
10483,-133.333333333333,4,2,1,50,0,0
10579,-133.333333333333,4,2,1,52,0,0
10675,-133.333333333333,4,2,1,54,0,0
10771,-133.333333333333,4,2,1,56,0,0
10868,-133.333333333333,4,2,1,58,0,0
10964,-117.647058823529,4,2,1,60,0,0
11925,-117.647058823529,4,2,1,65,0,0
12502,-90.9090909090909,4,2,1,70,0,0
37118,-100,4,2,1,70,0,0
61733,-100,4,2,1,60,0,0
64810,-100,4,2,1,65,0,0
67887,-90.9090909090909,4,2,1,70,0,0
80195,-105.263157894737,4,2,1,70,0,0
92502,-100,4,2,1,70,0,0
104810,-133.333333333333,4,2,1,50,0,0
117118,-105.263157894737,4,2,1,60,0,0
129425,-95.2380952380952,4,2,1,70,0,0
143656,-117.647058823529,4,2,1,70,0,0
144041,-95.2380952380952,4,2,1,70,0,0
144810,384.615384615385,4,2,1,70,1,0
144810,-100,4,2,1,70,0,0
169425,-100,4,2,1,75,0,0
183271,384.615384615385,4,2,1,80,1,0
183271,-90.9090909090909,4,2,1,80,0,0

[Colours]
Combo1 : 205,207,139
Combo2 : 89,109,181
Combo3 : 199,80,80
Combo4 : 135,184,183

[HitObjects]
505,19,195,6,0,P|449:30|392:44,1,108.75,0|0,1:0|1:0,0:0:0:0:
505,19,3271,6,0,P|449:30|392:44,1,108.75,0|0,1:0|1:0,0:0:0:0:
505,19,6348,6,0,P|449:30|392:44,1,108.75,2|0,1:2|0:0,0:0:0:0:
405,118,6925,2,0,P|458:105|512:95,1,108.75,2|0,1:2|0:0,0:0:0:0:
512,172,7502,2,0,P|458:183|406:196,1,108.75,2|0,0:0|0:0,0:0:0:0:
405,273,8079,2,0,P|458:260|512:250,1,108.75,2|0,0:0|0:0,0:0:0:0:
511,326,8656,2,0,P|457:337|405:350,1,108.75,2|0,0:0|0:0,0:0:0:0:
331,370,9233,1,2,0:0:0:0:
272,321,9425,6,0,L|280:273,4,27.1875010371209,2|0|0|0|0,1:2|3:0|3:0|3:0|3:0,0:0:0:0:
196,307,10002,2,0,L|204:259,4,27.1875010371209,2|0|0|0|0,1:2|3:0|3:0|3:0|3:0,0:0:0:0:
120,293,10579,2,0,L|128:245,3,27.1875010371209,2|0|0|0,3:2|3:0|3:0|3:0,0:0:0:0:
131,227,10964,6,0,L|119:155,1,61.6250011754036,0|2,1:0|3:2,0:0:0:0:
112,123,11252,1,0,3:0:0:0:
112,123,11348,2,0,P|76:109|38:118,2,61.6250011754036,0|0|2,1:0|3:0|1:2,0:0:0:0:
180,59,11925,1,2,1:2:0:0:
265,94,12118,1,2,1:2:0:0:
265,94,12310,1,2,1:2:0:0:
375,42,12502,6,0,B|398:73|419:93|419:93|401:141|388:215,1,159.500004867554,6|8,1:2|0:0,0:0:0:0:
394,181,13079,1,2,0:0:0:0:
466,254,13271,2,0,B|435:277|415:298|415:298|367:280|293:267,1,159.500004867554,2|8,1:2|0:0,0:0:0:0:
327,273,13848,1,2,0:0:0:0:
254,345,14041,2,0,B|231:314|210:294|210:294|228:246|241:172,2,159.500004867554,2|8|0,1:2|0:0|1:0,0:0:0:0:
326,273,15002,5,2,0:0:0:0:
234,205,15195,1,10,0:0:0:0:
231,187,15291,1,2,0:0:0:0:
228,169,15387,1,2,0:0:0:0:
225,151,15483,1,2,0:0:0:0:
222,133,15579,6,0,P|163:91|78:123,3,159.500004867554,2|10|2|10,1:2|0:0|1:2|0:0,0:0:0:0:
210,281,17118,2,0,P|137:305|73:262,2,159.500004867554,6|8|0,1:2|0:0|1:0,0:0:0:0:
392,384,18271,5,10,0:0:0:0:
392,384,18464,1,2,0:0:0:0:
313,316,18656,2,0,P|308:278|426:240,1,159.500004867554,2|8,1:2|0:0,0:0:0:0:
398,222,19233,1,0,0:0:0:0:
480,284,19425,2,0,P|486:223|495:163,1,119.625003650665,2|0,1:2|0:0,0:0:0:0:
499,113,19810,2,0,P|453:123|406:129,1,79.7500024337769,10|2,0:0|0:0,0:0:0:0:
342,51,20195,6,0,B|246:37|271:99|164:91,1,159.500004867554,2|8,1:2|0:0,0:0:0:0:
191,91,20772,1,0,0:0:0:0:
108,28,20964,2,0,P|102:89|93:149,1,119.625003650665,2|0,1:2|0:0,0:0:0:0:
77,196,21349,2,0,P|31:186|-16:180,1,79.7500024337769,10|2,0:0|0:0,0:0:0:0:
132,264,21733,6,0,P|178:254|300:236,1,159.500004867554,2|8,1:2|0:0,0:0:0:0:
289,237,22310,1,2,0:0:0:0:
381,283,22502,2,0,P|371:237|353:115,1,159.500004867554,2|8,1:2|0:0,0:0:0:0:
354,125,23079,1,2,0:0:0:0:
397,31,23271,2,0,P|351:41|229:59,2,159.500004867554,2|8|0,1:2|0:0|1:0,0:0:0:0:
505,93,24233,5,2,1:2:0:0:
480,186,24425,1,10,1:2:0:0:
483,204,24521,1,0,3:0:0:0:
486,222,24617,1,2,1:2:0:0:
489,240,24713,1,0,3:0:0:0:
492,258,24810,6,0,P|473:308|363:329,1,159.500004867554,6|8,1:2|0:0,0:0:0:0:
378,335,25387,1,2,0:0:0:0:
278,361,25579,2,0,P|224:355|176:254,1,159.500004867554,2|8,1:2|0:0,0:0:0:0:
173,270,26156,1,2,0:0:0:0:
123,180,26348,2,0,P|114:127|199:54,2,159.500004867554,2|8|0,1:2|0:0|1:0,0:0:0:0:
173,270,27310,1,2,0:0:0:0:
263,220,27502,1,10,0:0:0:0:
281,217,27598,1,2,0:0:0:0:
299,213,27694,1,2,0:0:0:0:
317,209,27790,1,2,0:0:0:0:
335,206,27886,6,0,L|348:41,3,159.500004867554,2|10|2|10,1:2|0:0|1:2|0:0,0:0:0:0:
473,221,29425,2,0,L|485:61,2,159.500004867554,6|8|0,1:2|0:0|1:0,0:0:0:0:
318,384,30579,5,10,0:0:0:0:
318,384,30772,1,2,0:0:0:0:
248,308,30964,2,0,L|76:286,1,159.500004867554,2|8,1:2|0:0,0:0:0:0:
89,287,31541,1,0,0:0:0:0:
17,211,31733,2,0,P|33:145|85:125,1,119.625003650665,2|0,1:2|0:0,0:0:0:0:
128,121,32118,2,0,P|174:131|221:137,1,79.7500024337769,10|2,0:0|0:0,0:0:0:0:
282,65,32503,6,0,B|363:56|363:56|368:59|368:59|439:51,1,159.500004867554,2|8,1:2|0:0,0:0:0:0:
439,51,33080,1,0,0:0:0:0:
509,126,33272,2,0,P|510:192|463:238,1,119.625003650665,2|0,1:2|0:0,0:0:0:0:
429,252,33657,2,0,P|383:242|336:236,1,79.7500024337769,10|2,0:0|0:0,0:0:0:0:
289,154,34041,6,0,P|248:220|271:298,1,159.500004867554,2|8,1:2|0:0,0:0:0:0:
268,294,34618,1,2,0:0:0:0:
371,312,34810,2,0,P|411:245|389:168,1,159.500004867554,2|8,1:2|0:0,0:0:0:0:
390,170,35387,1,2,0:0:0:0:
357,71,35579,2,0,L|368:-19,2,79.7500024337769,2|0|8,1:2|0:0|0:0,0:0:0:0:
173,168,36348,6,0,L|163:247,1,79.7500024337769,0|2,1:0|1:2,0:0:0:0:
105,333,36733,1,10,1:2:0:0:
87,336,36829,1,0,3:0:0:0:
69,340,36925,1,2,1:2:0:0:
51,344,37021,1,0,3:0:0:0:
34,348,37118,6,0,L|45:255,1,72.5,6|2,1:2|0:0,0:0:0:0:
7,196,37502,2,0,L|18:103,1,72.5,10|2,0:0|0:0,0:0:0:0:
75,53,37887,2,0,B|151:31|141:84|225:55,1,145,2|10,1:2|0:0,0:0:0:0:
216,57,38464,1,2,0:0:0:0:
302,29,38656,2,0,P|307:66|284:124,1,72.5,2|2,1:2|0:0,0:0:0:0:
322,183,39041,2,0,P|285:187|227:164,2,72.5,10|2|2,0:0|0:0|1:2,0:0:0:0:
460,52,39810,5,10,0:0:0:0:
460,52,40002,1,2,0:0:0:0:
403,118,40195,2,0,L|414:211,1,72.5,2|2,1:2|0:0,0:0:0:0:
474,250,40579,2,0,L|485:343,1,72.5,10|2,0:0|0:0,0:0:0:0:
416,379,40964,2,0,B|350:370|380:338|302:328,1,108.75,2|0,1:2|0:0,0:0:0:0:
281,328,41348,1,10,0:0:0:0:
205,372,41541,1,2,0:0:0:0:
136,318,41733,6,0,P|131:281|154:223,1,72.5,2|2,1:2|0:0,0:0:0:0:
96,170,42118,2,0,P|61:161|26:167,2,72.5,10|2|2,0:0|0:0|1:2,0:0:0:0:
170,124,42695,2,0,P|178:88|173:53,2,72.5,2|10|2,0:0|0:0|0:0,0:0:0:0:
216,198,43271,6,0,L|302:205,1,72.5,2|2,1:2|0:0,0:0:0:0:
350,264,43656,2,0,L|436:271,1,72.5,10|2,0:0|0:0,0:0:0:0:
491,216,44041,2,0,P|503:153|448:83,1,145,2|10,1:2|0:0,0:0:0:0:
301,16,44810,6,0,L|293:107,1,72.5,2|2,1:2|0:0,0:0:0:0:
221,136,45195,2,0,L|130:128,2,72.5,10|2|2,0:0|0:0|1:2,0:0:0:0:
274,210,45771,1,2,0:0:0:0:
274,210,45964,2,0,L|266:301,1,72.5,10|2,0:0|0:0,0:0:0:0:
221,355,46348,6,0,P|180:369|135:362,1,72.5,2|2,1:2|0:0,0:0:0:0:
70,334,46733,2,0,P|56:293|63:248,1,72.5,10|2,0:0|0:0,0:0:0:0:
14,188,47118,2,0,P|77:176|143:240,1,145,2|10,1:2|0:0,0:0:0:0:
222,203,47695,1,2,0:0:0:0:
222,203,47791,1,2,0:0:0:0:
222,203,47887,6,0,P|217:163|245:119,2,72.5,2|2|10,1:2|0:0|0:0,0:0:0:0:
267,282,48464,1,2,0:0:0:0:
332,224,48656,2,0,L|414:215,1,72.5,2|0,1:2|1:0,0:0:0:0:
450,212,48945,1,0,3:0:0:0:
450,212,49041,1,8,1:2:0:0:
488,133,49233,1,2,0:0:0:0:
412,65,49425,6,0,L|254:47,1,145,6|8,1:2|0:0,0:0:0:0:
202,7,50002,1,2,0:0:0:0:
202,7,50098,1,2,0:0:0:0:
202,7,50195,2,0,L|112:23,1,72.5,2|2,1:2|0:0,0:0:0:0:
45,2,50579,2,0,P|47:45|70:87,1,72.5,10|2,0:0|0:0,0:0:0:0:
140,102,50964,6,0,L|204:89,2,36.25,2|2|2,1:2|0:0|0:0,0:0:0:0:
76,161,51348,2,0,P|62:194|62:230,1,72.5,10|2,0:0|0:0,0:0:0:0:
37,314,51733,2,0,L|-27:327,2,36.25,2|2|2,1:2|0:0|0:0,0:0:0:0:
122,297,52118,2,0,P|161:303|206:330,1,72.5,10|2,0:0|0:0,0:0:0:0:
226,349,52406,1,2,0:0:0:0:
226,349,52502,6,0,P|245:286|311:230,1,145,2|8,1:2|0:0,0:0:0:0:
392,214,53079,1,2,0:0:0:0:
392,214,53175,1,2,0:0:0:0:
392,214,53272,2,0,L|495:230,2,72.5,2|2|10,1:2|0:0|0:0,0:0:0:0:
302,233,53848,1,2,0:0:0:0:
326,149,54041,6,0,L|316:107,3,36.25,2|2|2|2,1:2|0:0|0:0|0:0,0:0:0:0:
309,71,54425,2,0,L|265:48,3,36.25,10|2|2|2,0:0|0:0|0:0|0:0,0:0:0:0:
235,54,54810,2,0,L|203:71,3,36.25,2|2|2|2,1:2|0:0|0:0|0:0,0:0:0:0:
194,113,55195,2,0,L|186:149,3,36.25,10|2|2|2,0:0|0:0|0:0|0:0,0:0:0:0:
156,180,55579,6,0,P|173:244|162:331,1,145,2|8,1:2|0:0,0:0:0:0:
239,384,56156,1,2,0:0:0:0:
239,384,56252,1,2,0:0:0:0:
239,384,56348,2,0,P|286:365|325:359,1,72.5,2|2,1:2|0:0,0:0:0:0:
353,352,56637,1,2,0:0:0:0:
353,352,56733,2,0,L|417:365,3,36.25,10|2|2|2,0:0|0:0|0:0|0:0,0:0:0:0:
431,365,57118,6,0,P|430:333|438:289,1,72.5,2|2,1:2|0:0,0:0:0:0:
455,256,57406,1,2,0:0:0:0:
455,256,57502,2,0,P|415:250|372:230,1,72.5,10|2,0:0|0:0,0:0:0:0:
298,247,57887,2,0,P|304:207|324:164,1,72.5,2|2,1:2|0:0,0:0:0:0:
307,90,58271,2,0,P|347:96|390:116,1,72.5,10|2,0:0|0:0,0:0:0:0:
432,36,58656,6,0,P|358:8|283:1,1,145,2|8,1:2|0:0,0:0:0:0:
231,62,59233,1,2,0:0:0:0:
231,62,59329,1,2,0:0:0:0:
231,62,59425,2,0,P|227:110|220:159,1,72.5,0|2,1:0|0:0,0:0:0:0:
166,199,59810,2,0,P|170:247|177:296,1,72.5,10|2,0:0|0:0,0:0:0:0:
138,351,60195,6,0,P|161:353|186:356,3,36.25,2|2|2|2,1:2|0:0|0:0|0:0,0:0:0:0:
217,355,60579,2,0,P|227:333|239:311,3,36.25,10|2|2|2,0:0|0:0|0:0|0:0,0:0:0:0:
278,322,60964,2,0,P|287:338|295:355,3,36.25,2|2|2|2,1:2|0:0|0:0|0:0,0:0:0:0:
337,354,61348,2,0,P|355:352|374:351,3,36.25,10|2|2|2,0:0|0:0|1:2|0:0,0:0:0:0:
417,348,61733,6,0,P|418:312|422:276,1,72.5,6|0,1:2|0:0,0:0:0:0:
462,198,62118,2,0,P|426:197|390:193,1,72.5,8|0,0:0|0:0,0:0:0:0:
312,152,62502,2,0,P|310:189|306:225,1,72.5,0|0,1:2|0:0,0:0:0:0:
338,307,62887,2,0,P|302:303|266:302,1,72.5,8|0,0:0|0:0,0:0:0:0:
179,244,63271,6,0,P|142:244|106:248,1,72.5,2|0,1:2|0:0,0:0:0:0:
31,292,63656,2,0,P|17:261|26:219,1,72.5,8|0,0:0|0:0,0:0:0:0:
81,159,64041,2,0,P|116:154|153:152,1,72.5,0|0,1:2|0:0,0:0:0:0:
234,182,64426,2,0,P|242:149|227:109,1,72.5,8|0,0:0|1:0,0:0:0:0:
205,77,64714,1,0,3:0:0:0:
205,77,64810,6,0,P|170:72|133:70,1,72.5,4|0,1:2|0:0,0:0:0:0:
49,75,65195,1,8,0:0:0:0:
49,75,65387,1,0,0:0:0:0:
81,159,65579,2,0,P|116:154|153:152,1,72.5,0|0,1:2|0:0,0:0:0:0:
234,182,65964,1,8,0:0:0:0:
234,182,66156,1,0,0:0:0:0:
176,247,66348,5,0,1:2:0:0:
179,265,66444,1,0,3:0:0:0:
182,283,66540,1,0,1:0:0:0:
185,301,66636,1,0,3:0:0:0:
188,319,66732,2,0,L|193:355,3,36.25,8|0|0|0,0:0|3:0|1:0|3:0,0:0:0:0:
198,378,67118,1,0,1:0:0:0:
420,285,67887,6,0,B|426:214|426:214|429:211|429:211|434:127,1,159.500004867554,6|8,1:2|0:0,0:0:0:0:
433,127,68464,1,2,0:0:0:0:
376,41,68656,2,0,B|305:35|305:35|302:32|302:32|218:26,1,159.500004867554,2|8,1:2|0:0,0:0:0:0:
218,26,69233,1,2,0:0:0:0:
132,85,69425,2,0,B|126:156|126:156|123:159|123:159|117:242,2,159.500004867554,2|8|0,1:2|0:0|1:0,0:0:0:0:
218,26,70387,5,2,0:0:0:0:
276,111,70580,1,10,0:0:0:0:
279,129,70676,1,2,0:0:0:0:
282,147,70772,1,2,0:0:0:0:
285,165,70868,1,2,0:0:0:0:
288,183,70964,6,0,L|457:221,3,159.500004867554,2|10|2|10,1:2|0:0|1:2|0:0,0:0:0:0:
263,321,72502,2,0,L|418:355,2,159.500004867554,6|8|0,1:2|0:0|1:0,0:0:0:0:
123,167,73656,5,10,0:0:0:0:
123,167,73849,1,2,0:0:0:0:
40,229,74041,2,0,P|35:267|153:305,1,159.500004867554,2|8,1:2|0:0,0:0:0:0:
125,322,74618,1,0,0:0:0:0:
189,241,74810,2,0,L|313:225,1,119.625003650665,2|0,1:2|0:0,0:0:0:0:
358,212,75195,2,0,P|348:166|342:119,1,79.7500024337769,10|2,0:0|0:0,0:0:0:0:
425,70,75579,6,0,P|434:149|454:226,1,159.500004867554,2|8,1:2|0:0,0:0:0:0:
454,226,76157,1,0,0:0:0:0:
506,315,76349,2,0,B|454:320|454:320|448:317|448:317|387:321,1,119.625003650665,2|0,1:2|0:0,0:0:0:0:
339,341,76734,2,0,P|332:304|316:258,1,79.7500024337769,10|2,0:0|0:0,0:0:0:0:
225,218,77118,6,0,P|236:154|246:51,1,159.500004867554,2|8,1:2|0:0,0:0:0:0:
245,59,77695,1,2,0:0:0:0:
141,47,77887,2,0,P|133:127|121:206,1,159.500004867554,2|8,1:2|0:0,0:0:0:0:
121,205,78464,1,2,0:0:0:0:
15,194,78656,2,0,P|28:115|36:36,2,159.500004867554,2|8|0,1:2|0:0|1:0,0:0:0:0:
56,289,79618,1,2,1:2:0:0:
120,206,79810,1,10,1:2:0:0:
138,203,79906,1,0,3:0:0:0:
156,200,80002,1,2,1:2:0:0:
174,197,80098,1,0,3:0:0:0:
192,194,80195,6,0,B|257:190|257:190|261:193|261:193|337:188,1,137.749996321678,6|8,1:2|0:0,0:0:0:0:
380,124,80771,2,0,P|411:193|382:253,1,137.749996321678,2|8,1:2|3:2,0:0:0:0:
310,270,81348,2,0,B|259:273|259:273|256:271|256:271|208:274,1,103.312497241259,10|0,1:2|3:0,0:0:0:0:
165,273,81733,5,8,3:2:0:0:
106,331,81925,1,0,1:0:0:0:
29,298,82118,1,8,0:0:0:0:
25,215,82310,2,0,L|-20:210,4,34.4374990804196,0|0|0|0|8,3:0|3:0|3:0|3:0|3:2,0:0:0:0:
99,164,82887,1,8,3:2:0:0:
111,161,82983,1,0,3:0:0:0:
123,158,83079,1,0,1:0:0:0:
135,155,83175,1,0,1:0:0:0:
147,152,83271,6,0,P|189:99|211:30,1,137.749996321678,2|8,1:2|3:2,0:0:0:0:
292,21,83848,2,0,P|327:79|380:122,1,137.749996321678,2|8,1:2|3:2,0:0:0:0:
392,204,84424,2,0,P|353:251|345:303,1,103.312497241259,10|0,1:2|3:0,0:0:0:0:
337,332,84810,6,0,P|298:335|258:351,1,68.8749981608391,0|0,1:2|3:0,0:0:0:0:
195,379,85194,1,8,0:0:0:0:
130,327,85386,1,0,1:0:0:0:
127,315,85482,1,0,3:0:0:0:
124,303,85578,1,8,3:2:0:0:
121,291,85674,1,8,3:2:0:0:
118,279,85770,1,0,1:0:0:0:
66,214,85963,2,0,L|74:163,3,34.4374990804196,8|8|8|8,3:2|3:2|3:2|3:2,0:0:0:0:
77,138,86348,6,0,P|28:120|39:40,1,137.749996321678,2|8,1:2|0:0,0:0:0:0:
112,7,86925,2,0,P|182:19|266:22,1,137.749996321678,0|8,1:2|3:2,0:0:0:0:
248,22,87502,1,8,3:2:0:0:
308,79,87695,6,0,P|299:130|299:191,1,103.312497241259,2|0,1:2|0:0,0:0:0:0:
303,222,88079,1,2,1:2:0:0:
357,284,88271,2,0,P|392:279|436:275,1,68.8749981608391,8|0,0:0|3:0,0:0:0:0:
464,258,88560,1,0,3:0:0:0:
464,258,88656,2,0,P|484:261|506:268,2,34.4374990804196,0|0|8,3:0|3:0|3:2,0:0:0:0:
409,195,89041,1,8,3:2:0:0:
406,183,89137,1,0,3:0:0:0:
403,171,89233,1,0,1:0:0:0:
400,159,89329,1,0,1:0:0:0:
397,147,89425,6,0,B|336:141|336:141|326:144|326:144|261:135,1,137.749996321678,2|8,1:2|3:2,0:0:0:0:
210,69,90002,1,2,1:2:0:0:
141,115,90195,2,0,L|98:110,2,34.4374990804196,0|0|8,3:0|3:0|3:2,0:0:0:0:
191,180,90579,1,8,0:0:0:0:
261,135,90771,6,0,B|326:144|326:144|336:141|336:141|397:147,1,137.749996321678,2|0,1:2|3:0,0:0:0:0:
443,216,91348,1,8,0:0:0:0:
378,268,91541,1,0,1:0:0:0:
375,280,91637,1,0,3:0:0:0:
372,292,91733,1,8,3:2:0:0:
369,304,91829,1,0,3:0:0:0:
366,316,91925,2,0,L|373:387,2,68.8749981608391,2|10|2,1:2|3:2|3:2,0:0:0:0:
293,263,92502,6,0,B|235:250|199:285|147:275,1,145,6|8,1:2|0:0,0:0:0:0:
72,315,93079,2,0,B|84:257|49:221|59:169,1,145,2|2,1:2|0:0,0:0:0:0:
7,101,93656,1,10,0:0:0:0:
161,15,94041,2,0,P|125:0|76:7,2,72.5,0|0|8,1:0|0:0|0:0,0:0:0:0:
220,92,94618,5,2,0:0:0:0:
220,92,94714,1,2,0:0:0:0:
220,92,94810,2,0,L|229:174,1,72.5,2|2,1:2|0:0,0:0:0:0:
287,228,95195,2,0,L|278:310,1,72.5,10|2,0:0|1:2,0:0:0:0:
273,346,95483,1,0,1:0:0:0:
273,346,95579,6,0,P|238:345|202:355,2,72.5,2|2|10,1:2|0:0|0:0,0:0:0:0:
360,358,96156,2,0,L|375:210,1,145,2|2,1:2|0:0,0:0:0:0:
441,157,96733,1,10,0:0:0:0:
329,23,97118,2,0,P|365:8|414:15,2,72.5,0|0|8,1:0|3:0|0:0,0:0:0:0:
271,88,97695,5,0,3:0:0:0:
271,88,97791,1,0,3:0:0:0:
271,88,97887,2,0,L|278:138,2,36.25,0|0|0,1:0|3:0|3:0,0:0:0:0:
211,23,98272,2,0,L|123:16,1,72.5,10|2,0:0|3:2,0:0:0:0:
99,17,98560,1,2,3:2:0:0:
99,17,98656,6,0,P|28:67|44:137,1,145,6|8,1:2|0:0,0:0:0:0:
94,179,99233,2,0,P|177:160|249:152,1,145,2|2,1:2|0:0,0:0:0:0:
236,152,99810,1,10,0:0:0:0:
305,99,100002,2,0,P|376:149|360:219,1,145,2|2,1:2|1:2,0:0:0:0:
427,268,100579,1,8,0:0:0:0:
374,336,100771,2,0,L|329:343,4,36.25,0|0|0|0|0,3:0|3:0|1:0|3:0|3:0,0:0:0:0:
427,268,101348,1,10,0:0:0:0:
372,199,101541,1,2,1:2:0:0:
372,199,101637,1,0,1:0:0:0:
372,199,101733,6,0,P|302:182|230:172,1,145,2|8,1:2|0:0,0:0:0:0:
180,100,102310,2,0,P|141:171|170:235,1,145,2|2,1:2|0:0,0:0:0:0:
283,350,103079,2,0,P|353:333|425:323,1,145,2|2,1:2|0:0,0:0:0:0:
472,324,103560,1,2,0:0:0:0:
472,324,103656,2,0,P|475:300|487:270,3,36.25,10|2|2|2,1:2|3:2|1:2|3:2,0:0:0:0:
498,249,104041,1,6,1:2:0:0:
498,249,104810,6,0,B|420:268|433:210|340:229,1,163.125006222725,2|2,1:2|1:2,0:0:0:0:
292,289,105579,2,0,P|266:246|279:184,1,108.750004148483,10|2,0:0|0:0,0:0:0:0:
378,82,106348,1,2,0:0:0:0:
378,82,106541,2,0,B|313:72|328:105|273:98,1,108.750004148483,2|2,1:2|1:2,0:0:0:0:
224,38,107118,2,0,P|198:81|211:143,1,108.750004148483,10|2,0:0|0:0,0:0:0:0:
206,136,107695,1,2,3:2:0:0:
173,206,107887,6,0,P|127:184|44:252,1,163.125006222725,2|2,1:2|1:2,0:0:0:0:
5,306,108656,2,0,P|16:347|88:377,1,108.750004148483,10|2,0:0|0:0,0:0:0:0:
196,301,109425,1,2,0:0:0:0:
196,301,109618,2,0,P|249:307|302:321,1,108.750004148483,2|2,1:2|1:2,0:0:0:0:
349,377,110195,1,10,0:0:0:0:
490,64,110964,6,0,P|478:141|386:156,1,163.125006222725,2|2,1:2|1:2,0:0:0:0:
338,199,111733,2,0,P|329:147|356:101,1,108.750004148483,10|2,0:0|0:0,0:0:0:0:
236,28,112502,1,2,0:0:0:0:
236,28,112695,2,0,B|182:34|182:34|179:38|179:38|120:46,1,108.750004148483,2|2,1:2|1:2,0:0:0:0:
65,8,113272,2,0,P|55:60|82:106,1,108.750004148483,10|2,0:0|0:0,0:0:0:0:
149,147,113848,1,2,3:2:0:0:
149,147,114041,6,0,B|222:158|222:158|236:171|236:171|305:181,1,163.125006222725,2|2,1:2|1:2,0:0:0:0:
371,144,114810,2,0,P|378:204|347:247,1,108.750004148483,10|2,0:0|0:0,0:0:0:0:
218,310,115579,6,0,P|186:303|159:301,1,54.3750020742417,2|2,1:2|0:0,0:0:0:0:
152,376,115964,2,0,P|179:378|205:384,1,54.3750020742417,2|2,1:2|0:0,0:0:0:0:
274,358,116348,2,0,P|300:352|327:349,1,54.3750020742417,10|2,1:2|0:0,0:0:0:0:
367,344,116637,1,2,0:0:0:0:
367,344,116733,1,2,0:0:0:0:
496,230,117118,6,0,B|486:167|486:167|482:162|482:162|469:95,1,137.749996321678,2|10,1:2|0:0,0:0:0:0:
401,51,117695,1,2,1:2:0:0:
401,51,117887,2,0,B|369:56|369:56|367:58|367:58|333:64,1,68.8749981608391,2|2,1:2|0:0,0:0:0:0:
283,133,118271,1,10,0:0:0:0:
140,36,118656,6,0,P|75:64|64:133,1,137.749996321678,2|10,1:2|0:0,0:0:0:0:
115,198,119233,1,2,1:2:0:0:
115,198,119425,2,0,B|113:229|113:229|111:232|111:232|108:266,1,68.8749981608391,2|2,1:2|0:0,0:0:0:0:
52,330,119809,1,10,0:0:0:0:
216,381,120195,6,0,B|280:377|256:328|337:323,1,137.749996321678,2|10,1:2|0:0,0:0:0:0:
419,360,120771,1,2,1:2:0:0:
419,360,120964,2,0,P|425:326|415:289,1,68.8749981608391,2|2,1:2|0:0,0:0:0:0:
464,221,121348,1,10,0:0:0:0:
371,75,121733,6,0,B|312:72|312:72|308:78|308:78|233:75,1,137.749996321678,2|10,1:2|0:0,0:0:0:0:
168,127,122310,1,2,1:2:0:0:
225,190,122502,2,0,L|230:239,4,34.4374990804196,2|2|2|2|10,1:2|0:0|0:0|0:0|0:0,0:0:0:0:
30,332,123271,6,0,P|95:313|82:229,1,137.749996321678,2|10,1:2|0:0,0:0:0:0:
51,187,123848,1,2,1:2:0:0:
51,187,124040,2,0,L|60:98,1,68.8749981608391,2|2,1:2|0:0,0:0:0:0:
9,47,124424,1,10,0:0:0:0:
175,3,124809,6,0,B|243:6|233:56|309:58,1,137.749996321678,2|10,1:2|0:0,0:0:0:0:
372,13,125386,1,2,1:2:0:0:
372,13,125578,2,0,P|385:47|385:83,1,68.8749981608391,2|2,1:2|0:0,0:0:0:0:
437,147,125964,1,10,0:0:0:0:
348,295,126348,6,0,P|273:297|253:348,1,137.749996321678,0|10,1:2|0:0,0:0:0:0:
172,370,126924,1,2,1:2:0:0:
172,370,127117,2,0,P|155:336|106:324,1,68.8749981608391,2|2,1:2|0:0,0:0:0:0:
51,361,127501,1,10,0:0:0:0:
4,194,127887,6,0,P|41:175|99:178,1,68.8749981608391,2|2,1:2|0:0,0:0:0:0:
135,118,128271,2,0,P|169:140|196:192,1,68.8749981608391,2|2,1:2|0:0,0:0:0:0:
268,187,128656,1,2,1:2:0:0:
208,248,128848,1,2,0:0:0:0:
208,248,128945,1,2,0:0:0:0:
208,248,129041,1,10,1:2:0:0:
344,357,129425,6,0,P|382:356|417:324,1,76.1249976768494,6|2,1:2|0:0,0:0:0:0:
461,324,129714,1,2,0:0:0:0:
461,324,129810,2,0,P|478:290|468:244,1,76.1249976768494,10|2,1:2|0:0,0:0:0:0:
489,159,130195,2,0,P|468:126|423:112,1,76.1249976768494,2|2,1:2|0:0,0:0:0:0:
360,53,130579,2,0,L|296:45,3,38.0624988384247,10|2|2|2,1:2|0:0|0:0|0:0,0:0:0:0:
281,23,130964,6,0,L|195:37,1,76.1249976768494,6|2,1:2|0:0,0:0:0:0:
119,7,131348,1,10,1:2:0:0:
119,7,131541,1,2,0:0:0:0:
56,78,131733,2,0,L|48:133,3,38.0624988384247,2|2|2|2,1:2|0:0|0:0|0:0,0:0:0:0:
68,160,132118,2,0,L|60:215,3,38.0624988384247,10|2|2|2,1:2|0:0|0:0|0:0,0:0:0:0:
82,240,132502,6,0,P|120:242|161:267,1,76.1249976768494,6|2,1:2|0:0,0:0:0:0:
212,334,132887,2,0,P|235:336|267:326,3,38.0624988384247,10|2|2|2,1:2|0:0|0:0|0:0,0:0:0:0:
291,310,133271,2,0,L|280:211,1,76.1249976768494,2|2,1:2|0:0,0:0:0:0:
231,153,133656,2,0,L|236:97,3,38.0624988384247,10|2|2|2,1:2|0:0|0:0|0:0,0:0:0:0:
237,67,134041,6,0,P|274:40|313:39,1,76.1249976768494,6|2,1:2|0:0,0:0:0:0:
345,13,134329,1,2,0:0:0:0:
345,13,134425,2,0,P|386:31|407:64,1,76.1249976768494,10|2,1:2|0:0,0:0:0:0:
473,120,134810,2,0,L|476:157,3,38.0624988384247,2|2|2|2,1:2|0:0|0:0|0:0,0:0:0:0:
481,205,135195,1,10,1:2:0:0:
371,360,135579,6,0,P|324:347|285:341,1,76.1249976768494,6|2,1:2|0:0,0:0:0:0:
260,319,135868,1,0,0:0:0:0:
260,319,135964,2,0,P|213:332|174:338,1,76.1249976768494,10|2,1:2|0:0,0:0:0:0:
96,368,136348,2,0,P|94:349|92:330,3,38.0624988384247,2|2|2|2,1:2|0:0|0:0|0:0,0:0:0:0:
67,289,136733,2,0,P|68:270|70:251,3,38.0624988384247,10|2|2|2,1:2|0:0|0:0|0:0,0:0:0:0:
101,214,137118,6,0,L|82:111,1,76.1249976768494,6|2,1:2|0:0,0:0:0:0:
78,96,137407,1,2,0:0:0:0:
78,96,137502,2,0,P|103:56|152:33,1,76.1249976768494,10|2,1:2|0:0,0:0:0:0:
231,0,137887,2,0,L|271:6,3,38.0624988384247,2|2|2|2,1:2|0:0|0:0|0:0,0:0:0:0:
304,36,138271,2,0,L|344:42,3,38.0624988384247,10|2|2|2,1:2|0:0|0:0|0:0,0:0:0:0:
382,67,138656,6,0,L|394:157,1,76.1249976768494,6|2,1:2|0:0,0:0:0:0:
457,212,139041,2,0,L|451:284,3,38.0624988384247,10|2|2|2,1:2|0:0|0:0|0:0,0:0:0:0:
437,294,139425,2,0,L|450:385,2,76.1249976768494,2|2|10,1:2|0:0|1:2,0:0:0:0:
355,243,140002,1,2,0:0:0:0:
276,313,140195,6,0,P|228:318|191:296,1,76.1249976768494,6|2,1:2|0:0,0:0:0:0:
110,327,140579,2,0,P|105:279|127:242,1,76.1249976768494,14|2,1:2|0:0,0:0:0:0:
96,161,140964,2,0,P|144:156|181:178,1,76.1249976768494,6|2,1:2|0:0,0:0:0:0:
205,196,141252,1,2,0:0:0:0:
205,196,141348,1,10,1:2:0:0:
317,42,141733,6,0,P|355:35|390:47,1,76.1249976768494,6|2,1:2|0:0,0:0:0:0:
478,100,142117,2,0,P|490:65|484:28,2,76.1249976768494,14|2|2,1:2|0:0|1:2,0:0:0:0:
497,193,142695,1,2,0:0:0:0:
497,193,142791,1,2,0:0:0:0:
497,193,142887,2,0,B|421:206|421:151|350:162,1,152.249995353699,6|0,1:2|1:0,0:0:0:0:
259,243,143656,6,0,B|202:233|202:278|140:268,1,123.250002350807,2|2,1:2|1:2,0:0:0:0:
64,218,144233,1,0,1:0:0:0:
64,218,144329,1,0,3:0:0:0:
64,218,144425,2,0,L|58:167,3,38.0624988384247,2|0|0|0,1:2|3:0|1:0|3:0,0:0:0:0:
53,136,144810,6,0,L|146:124,1,72.5,6|2,1:2|0:0,0:0:0:0:
189,69,145194,2,0,L|282:58,1,72.5,10|2,0:0|0:0,0:0:0:0:
329,9,145579,2,0,P|387:36|389:126,1,145,2|10,1:2|0:0,0:0:0:0:
397,110,146156,1,2,0:0:0:0:
430,196,146348,2,0,P|393:200|335:177,1,72.5,2|2,1:2|0:0,0:0:0:0:
276,216,146733,2,0,P|272:179|295:121,2,72.5,10|2|2,0:0|0:0|1:2,0:0:0:0:
443,325,147502,5,10,0:0:0:0:
443,325,147694,1,2,0:0:0:0:
359,295,147887,2,0,L|266:310,1,72.5,2|2,1:2|0:0,0:0:0:0:
224,366,148271,2,0,L|131:381,1,72.5,10|2,0:0|0:0,0:0:0:0:
77,333,148656,2,0,P|65:275|108:217,1,108.75,2|0,1:2|0:0,0:0:0:0:
120,205,149041,1,10,0:0:0:0:
194,249,149233,1,2,0:0:0:0:
260,193,149425,6,0,P|263:157|252:122,1,72.5,2|2,1:2|0:0,0:0:0:0:
264,39,149810,2,0,P|289:14|321:0,2,72.5,10|2|2,0:0|0:0|1:2,0:0:0:0:
182,71,150387,2,0,P|146:62|117:41,2,72.5,2|10|2,0:0|0:0|0:0,0:0:0:0:
252,122,150964,6,0,P|263:157|260:193,1,72.5,2|2,1:2|0:0,0:0:0:0:
291,275,151348,2,0,P|268:303|238:322,1,72.5,10|2,0:0|0:0,0:0:0:0:
173,380,151733,2,0,P|101:371|65:291,1,145,2|10,1:2|0:0,0:0:0:0:
2,150,152502,6,0,L|92:159,1,72.5,2|2,1:2|0:0,0:0:0:0:
141,96,152887,2,0,L|150:5,2,72.5,10|2|2,0:0|0:0|1:2,0:0:0:0:
199,165,153463,1,2,0:0:0:0:
199,165,153656,2,0,L|289:174,1,72.5,10|2,0:0|0:0,0:0:0:0:
343,125,154040,6,0,P|357:166|352:203,1,72.5,2|2,1:2|0:0,0:0:0:0:
402,268,154425,2,0,P|360:282|324:277,1,72.5,10|2,0:0|0:0,0:0:0:0:
258,326,154810,2,0,P|216:311|111:354,1,145,2|10,1:2|0:0,0:0:0:0:
69,286,155387,1,2,0:0:0:0:
69,286,155483,1,2,0:0:0:0:
69,286,155579,6,0,P|74:246|58:191,1,72.5,2|2,1:2|0:0,0:0:0:0:
22,146,155964,1,10,0:0:0:0:
22,146,156156,1,2,0:0:0:0:
93,96,156348,2,0,L|175:105,1,72.5,2|0,1:2|1:0,0:0:0:0:
211,108,156637,1,0,3:0:0:0:
211,108,156733,1,8,1:2:0:0:
280,55,156925,1,2,0:0:0:0:
280,55,157021,1,2,0:0:0:0:
280,55,157117,6,0,B|307:97|307:97|271:216,1,145,6|8,1:2|0:0,0:0:0:0:
227,259,157694,1,2,0:0:0:0:
227,259,157790,1,2,0:0:0:0:
227,259,157887,2,0,L|243:349,1,72.5,2|2,1:2|0:0,0:0:0:0:
310,380,158271,2,0,P|353:378|395:355,1,72.5,10|2,0:0|0:0,0:0:0:0:
442,305,158656,6,0,L|506:318,2,36.25,2|2|2,1:2|0:0|0:0,0:0:0:0:
387,237,159040,2,0,P|373:204|373:168,1,72.5,10|2,0:0|0:0,0:0:0:0:
427,99,159425,2,0,L|491:86,2,36.25,2|2|2,1:2|0:0|0:0,0:0:0:0:
348,59,159810,2,0,P|309:65|264:92,1,72.5,10|2,0:0|0:0,0:0:0:0:
247,107,160098,1,2,0:0:0:0:
247,107,160194,6,0,L|231:276,1,145,2|8,1:2|0:0,0:0:0:0:
172,313,160771,1,2,0:0:0:0:
172,313,160867,1,2,0:0:0:0:
172,313,160964,2,0,L|180:415,2,72.5,2|2|10,1:2|0:0|0:0,0:0:0:0:
111,250,161540,1,2,0:0:0:0:
149,171,161733,6,0,L|169:127,3,36.25,2|2|2|2,1:2|0:0|0:0|0:0,0:0:0:0:
203,117,162117,2,0,L|247:94,3,36.25,10|2|2|2,0:0|0:0|0:0|0:0,0:0:0:0:
277,100,162502,2,0,L|309:117,3,36.25,2|2|2|2,1:2|0:0|0:0|0:0,0:0:0:0:
347,137,162887,2,0,L|363:171,3,36.25,10|2|2|2,0:0|0:0|0:0|0:0,0:0:0:0:
393,202,163271,6,0,L|375:351,1,145,2|8,1:2|0:0,0:0:0:0:
303,384,163848,1,2,0:0:0:0:
303,384,163944,1,2,0:0:0:0:
303,384,164040,2,0,P|257:373|213:373,1,72.5,2|2,1:2|0:0,0:0:0:0:
191,378,164329,1,2,0:0:0:0:
191,378,164425,2,0,P|188:358|174:318,3,36.25,10|2|2|2,0:0|0:0|0:0|0:0,0:0:0:0:
163,303,164810,6,0,L|171:226,1,72.5,2|2,1:2|0:0,0:0:0:0:
181,191,165098,1,2,0:0:0:0:
181,191,165194,2,0,P|221:197|264:217,1,72.5,10|2,0:0|0:0,0:0:0:0:
334,183,165579,2,0,P|340:143|360:100,1,72.5,2|2,1:2|0:0,0:0:0:0:
313,35,165964,2,0,P|273:29|230:9,1,72.5,10|2,0:0|0:0,0:0:0:0:
157,3,166349,6,0,P|159:71|108:141,1,145,2|8,1:2|0:0,0:0:0:0:
39,149,166925,1,2,0:0:0:0:
39,149,167021,1,2,0:0:0:0:
39,149,167117,2,0,L|45:244,1,72.5,0|2,1:0|0:0,0:0:0:0:
19,305,167502,2,0,P|69:303|99:283,1,72.5,10|2,0:0|0:0,0:0:0:0:
122,213,167887,6,0,P|145:211|170:208,3,36.25,2|2|2|2,1:2|0:0|0:0|0:0,0:0:0:0:
198,226,168271,2,0,P|226:221|259:220,3,36.25,10|2|2|2,0:0|0:0|0:0|0:0,0:0:0:0:
277,222,168656,2,0,P|295:224|312:227,3,36.25,2|2|2|2,1:2|0:0|0:0|0:0,0:0:0:0:
353,209,169041,2,0,P|371:211|390:213,3,36.25,10|2|2|2,0:0|3:2|1:2|1:2,0:0:0:0:
432,217,169425,6,0,P|445:164|460:128,1,72.5,6|2,1:2|0:0,0:0:0:0:
473,111,169714,1,2,0:0:0:0:
473,111,169810,1,10,0:0:0:0:
439,30,170002,1,10,0:0:0:0:
353,10,170195,2,0,B|281:-4|277:34|205:22,1,145,2|10,1:2|0:0,0:0:0:0:
132,66,170771,1,2,1:2:0:0:
47,3,170964,6,0,P|30:63|41:102,1,72.5,6|2,1:2|0:0,0:0:0:0:
54,114,171252,1,2,0:0:0:0:
54,114,171348,1,10,0:0:0:0:
10,189,171541,1,10,0:0:0:0:
62,258,171733,2,0,B|125:262|125:262|131:266|131:266|205:270,1,145,2|10,1:2|0:0,0:0:0:0:
345,373,172502,6,0,P|403:344|419:282,1,108.75,4|2,1:2|0:0,0:0:0:0:
422,263,172887,1,10,0:0:0:0:
337,283,173079,1,10,0:0:0:0:
279,217,173272,2,0,B|272:158|272:158|274:153|274:153|264:71,1,145,2|10,1:2|0:0,0:0:0:0:
200,13,173848,1,2,1:2:0:0:
112,69,174041,6,0,B|105:118|105:118|107:124|107:124|97:191,1,108.75,6|2,1:2|0:0,0:0:0:0:
92,219,174425,1,10,0:0:0:0:
19,268,174618,1,10,0:0:0:0:
71,336,174810,2,0,L|66:377,4,36.25,2|2|2|2|10,1:2|0:0|0:0|0:0|0:0,0:0:0:0:
152,297,175387,1,2,1:2:0:0:
152,297,175483,1,2,1:2:0:0:
152,297,175579,6,0,B|185:294|185:294|189:296|189:296|223:292,1,72.5,6|2,1:2|0:0,0:0:0:0:
271,294,175868,1,2,0:0:0:0:
271,294,175964,1,10,0:0:0:0:
342,343,176156,1,10,0:0:0:0:
422,309,176349,2,0,P|450:246|421:170,1,145,2|10,1:2|0:0,0:0:0:0:
267,43,177118,6,0,B|234:40|234:40|230:42|230:42|195:38,1,72.5,6|2,1:2|0:0,0:0:0:0:
156,32,177406,1,2,0:0:0:0:
156,32,177502,1,10,0:0:0:0:
77,76,177695,1,10,0:0:0:0:
114,154,177887,2,0,P|127:237|91:310,1,145,2|10,1:2|0:0,0:0:0:0:
256,376,178656,6,0,P|295:326|332:315,1,72.5,6|2,1:2|0:0,0:0:0:0:
347,313,178945,1,2,0:0:0:0:
347,313,179041,1,10,0:0:0:0:
405,240,179233,1,10,0:0:0:0:
346,167,179426,2,0,B|339:108|339:108|341:103|341:103|331:21,1,145,2|10,1:2|0:0,0:0:0:0:
242,64,180002,5,2,0:0:0:0:
242,64,180098,1,2,0:0:0:0:
242,64,180195,2,0,B|234:124|234:124|236:128|236:128|230:172,1,108.75,0|2,1:0|0:0,0:0:0:0:
205,207,180579,1,10,1:2:0:0:
224,291,180771,1,2,1:2:0:0:
158,347,180964,1,10,1:2:0:0:
158,347,181733,5,4,1:2:0:0:
359,316,182118,1,4,1:2:0:0:
158,347,182502,1,4,1:2:0:0:
212,278,182695,2,0,L|291:266,2,72.5,2|6|2,0:0|1:2|0:0,0:0:0:0:
104,245,183271,6,0,B|82:216|61:196|61:196|49:144|90:113,1,159.500004867554,2|12,1:2|1:2,0:0:0:0:
90,112,183848,1,2,0:0:0:0:
62,12,184041,2,0,B|98:7|126:0|126:0|177:15|182:66,1,159.500004867554,2|12,1:2|1:2,0:0:0:0:
182,67,184618,1,2,0:0:0:0:
283,106,184810,2,0,B|268:140|261:168|261:168|222:204|175:183,2,159.500004867554,2|12|12,1:2|1:2|1:2,0:0:0:0:
355,31,185771,5,2,0:0:0:0:
434,97,185964,1,10,0:0:0:0:
437,115,186060,1,2,0:0:0:0:
440,133,186156,1,2,0:0:0:0:
443,151,186252,1,2,0:0:0:0:
446,169,186348,6,0,L|459:270,1,79.7500024337769,6|0,1:2|0:0,0:0:0:0:
369,181,186733,2,0,L|382:282,1,79.7500024337769,14|0,1:2|0:0,0:0:0:0:
292,193,187118,2,0,L|305:294,1,79.7500024337769,6|0,1:2|0:0,0:0:0:0:
215,205,187502,2,0,L|228:306,1,79.7500024337769,14|0,1:2|0:0,0:0:0:0:
138,217,187887,2,0,L|159:394,2,159.500004867554,6|8|0,1:2|0:0|1:2,0:0:0:0:
32,44,189040,5,10,0:0:0:0:
32,44,189233,1,2,0:0:0:0:
126,2,189425,2,0,P|121:40|239:78,1,159.500004867554,2|8,1:2|0:0,0:0:0:0:
211,95,190002,1,0,0:0:0:0:
288,26,190194,2,0,P|349:20|409:11,1,119.625003650665,2|0,1:2|0:0,0:0:0:0:
458,5,190579,2,0,P|448:51|442:98,1,79.7500024337769,10|2,0:0|0:0,0:0:0:0:
498,171,190964,6,0,B|402:157|427:219|320:211,1,159.500004867554,2|8,1:2|0:0,0:0:0:0:
347,211,191541,1,0,0:0:0:0:
271,140,191733,2,0,P|237:194|256:261,1,119.625003650665,2|0,1:2|0:0,0:0:0:0:
269,292,192118,2,0,P|218:293|170:311,1,79.7500024337769,10|2,0:0|0:0,0:0:0:0:
110,366,192502,6,0,B|98:293|98:293|101:281|101:281|89:208,1,159.500004867554,2|8,1:2|0:0,0:0:0:0:
89,208,193079,1,2,0:0:0:0:
18,132,193271,2,0,B|91:120|91:120|103:123|103:123|176:111,1,159.500004867554,2|8,1:2|0:0,0:0:0:0:
175,111,193848,1,2,0:0:0:0:
252,40,194041,2,0,B|264:113|264:113|261:125|261:125|273:198,2,159.500004867554,2|8|0,1:2|0:0|1:0,0:0:0:0:
348,2,195002,1,2,1:2:0:0:
348,2,195098,1,0,3:0:0:0:
348,2,195194,2,0,L|359:66,3,39.8750012168885,2|0|2|0,1:2|3:0|1:2|3:0,0:0:0:0:
394,75,195579,6,0,B|405:134|405:134|402:140|402:140|407:168|407:168|410:174|410:174|424:244,1,159.500004867554,2|12,1:2|1:2,0:0:0:0:
421,230,196156,1,2,0:0:0:0:
437,332,196348,2,0,B|380:312|380:312|376:306|376:306|349:296|349:296|343:296|343:296|275:273,1,159.500004867554,2|12,1:2|1:2,0:0:0:0:
288,277,196925,1,2,0:0:0:0:
192,240,197118,2,0,B|237:200|237:200|244:200|244:200|266:182|266:182|269:176|269:176|323:129,2,159.500004867554,2|12|12,1:2|1:2|1:2,0:0:0:0:
141,330,198079,5,2,0:0:0:0:
48,283,198271,1,10,0:0:0:0:
46,264,198367,1,2,0:0:0:0:
44,246,198463,1,2,0:0:0:0:
42,228,198559,1,2,0:0:0:0:
40,209,198655,6,0,L|32:119,1,79.7500024337769,6|0,1:2|0:0,0:0:0:0:
118,199,199041,2,0,L|110:109,1,79.7500024337769,14|0,1:2|0:0,0:0:0:0:
196,189,199425,2,0,L|188:99,1,79.7500024337769,6|0,1:2|0:0,0:0:0:0:
274,179,199810,2,0,L|266:89,1,79.7500024337769,14|0,1:2|0:0,0:0:0:0:
352,169,200195,2,0,L|335:-5,2,159.500004867554,6|8|0,1:2|0:0|1:2,0:0:0:0:
431,365,201348,5,10,0:0:0:0:
431,365,201541,1,2,0:0:0:0:
347,303,201733,2,0,B|268:282|272:337|191:322,1,159.500004867554,2|8,1:2|0:0,0:0:0:0:
192,322,202310,1,0,0:0:0:0:
103,375,202502,2,0,P|76:318|115:256,1,119.625003650665,2|0,1:2|0:0,0:0:0:0:
143,246,202887,2,0,P|148:206|157:167,1,79.7500024337769,10|2,0:0|0:0,0:0:0:0:
106,74,203271,6,0,P|182:60|243:109,1,159.500004867554,2|8,1:2|0:0,0:0:0:0:
242,108,203847,1,0,0:0:0:0:
346,104,204040,2,0,P|361:47|410:15,1,119.625003650665,2|0,1:2|0:0,0:0:0:0:
462,8,204424,2,0,P|465:54|473:103,1,79.7500024337769,10|2,0:0|0:0,0:0:0:0:
509,181,204810,6,0,B|486:195|448:190|448:190|398:228|417:273,1,159.500004867554,2|8,1:2|0:0,0:0:0:0:
417,273,205387,1,2,0:0:0:0:
342,344,205579,2,0,B|360:298|310:260|310:260|272:266|249:252,1,159.500004867554,2|8,1:2|0:0,0:0:0:0:
249,252,206156,1,2,0:0:0:0:
170,180,206348,2,0,B|176:242|176:242|173:247|173:247|177:286|177:286|174:291|174:291|179:353,2,159.500004867554,2|8|0,1:2|0:0|1:0,0:0:0:0:
97,108,207310,5,8,0:0:0:0:
147,17,207502,1,10,1:2:0:0:
162,13,207598,1,0,3:0:0:0:
177,9,207695,1,2,1:2:0:0:
192,5,207790,1,0,3:0:0:0:
207,1,207887,6,0,B|203:47|203:47|200:51|200:51|197:79,1,79.7500024337769,6|0,1:2|0:0,0:0:0:0:
273,150,208271,2,0,B|319:154|319:154|323:157|323:157|351:159,1,79.7500024337769,8|0,0:0|0:0,0:0:0:0:
445,114,208656,2,0,P|461:191|433:233,1,119.625003650665,2|0,1:2|0:0,0:0:0:0:
402,257,209041,2,0,B|356:261|356:261|352:264|352:264|323:266,1,79.7500024337769,10|2,0:0|0:0,0:0:0:0:
241,329,209424,2,0,B|155:321|189:276|97:267,1,159.500004867554,2|8,1:2|0:0,0:0:0:0:
98,267,210001,1,0,0:0:0:0:
23,195,210194,2,0,P|12:140|43:88,1,119.625003650665,2|0,1:2|0:0,0:0:0:0:
88,61,210578,2,0,B|134:65|134:65|138:68|138:68|166:70,1,79.7500024337769,10|2,0:0|0:0,0:0:0:0:
256,18,210964,6,0,B|279:48|271:92|271:92|232:127|246:188,1,159.500004867554,2|8,1:2|0:0,0:0:0:0:
242,165,211541,1,2,0:0:0:0:
290,256,211733,2,0,B|304:221|346:206|346:206|396:222|442:179,1,159.500004867554,2|8,1:2|0:0,0:0:0:0:
423,193,212310,1,2,0:0:0:0:
479,107,212502,2,0,B|441:111|407:82|407:82|396:31|336:13,1,159.500004867554,2|8,1:2|0:0,0:0:0:0:
256,18,213079,5,0,3:0:0:0:
256,18,213175,1,0,3:0:0:0:
256,18,213271,2,0,L|265:118,1,79.7500024337769,2|0,1:2|1:2,0:0:0:0:
198,178,213656,1,8,1:2:0:0:
128,101,213848,1,2,1:2:0:0:
108,98,213945,1,2,3:2:0:0:
88,95,214041,1,6,1:2:0:0:
