osu file format v14

[General]
AudioFilename: audio.mp3
AudioLeadIn: 0
PreviewTime: 58216
Countdown: 0
SampleSet: Soft
StackLeniency: 0.7
Mode: 0
LetterboxInBreaks: 0
WidescreenStoryboard: 1

[Editor]
DistanceSpacing: 1.7
BeatDivisor: 4
GridSize: 16
TimelineZoom: 1.8

[Metadata]
Title:Omoide Shiritori (TV Size)
TitleUnicode:おもいでしりとり (TV Size)
Artist:DIALOGUE+
ArtistUnicode:DIALOGUE+
Creator:Soue
Version:Insane
Source:ひげを剃る。そして女子高生を拾う。
Tags:Hige wo Soru Soshite Joshikousei wo Hirou I Shaved Then I Brought a High School Girl Home Higehiro Japanese TV Anime Opening 1 1st First Female Vocals j pop jpop j-pop
BeatmapID:2954696
BeatmapSetID:1435069

[Difficulty]
HPDrainRate:5.5
CircleSize:3.8
OverallDifficulty:7.5
ApproachRate:9
SliderMultiplier:1.62
SliderTickRate:1

[Events]
//Background and Video events
0,0,"background.jpg",0,0
Video,-44,"video.mp4"
//Break Periods
//Storyboard Layer 0 (Background)
//Storyboard Layer 1 (Fail)
//Storyboard Layer 2 (Pass)
//Storyboard Layer 3 (Foreground)
//Storyboard Layer 4 (Overlay)
//Storyboard Sound Samples

[TimingPoints]
-693,348.837209302326,4,2,1,40,1,0
-693,-100,4,2,1,40,0,0
702,-166.666666666667,4,2,1,40,0,0
6632,-166.666666666667,4,2,1,50,0,0
7679,-111.111111111111,4,2,1,60,0,0
13260,-111.111111111111,4,2,1,50,0,0
14655,-100,4,2,1,70,0,0
14917,-100,4,2,1,5,0,0
15004,-100,4,2,1,70,0,0
15266,-100,4,2,1,5,0,0
15353,-100,4,2,1,70,0,0
17708,-100,4,2,1,5,0,0
17795,-100,4,2,1,70,0,0
18057,-100,4,2,1,5,0,0
18144,-100,4,2,1,70,0,0
20237,-95.2380952380952,4,2,1,70,0,0
20324,-95.2380952380952,4,2,1,40,0,0
20411,-95.2380952380952,4,2,1,46,0,0
20498,-95.2380952380952,4,2,1,52,0,0
20586,-95.2380952380952,4,2,1,58,0,0
20673,-95.2380952380952,4,2,1,64,0,0
20760,-90.9090909090909,4,2,1,70,0,0
20847,-90.9090909090909,4,2,1,40,0,0
20934,-90.9090909090909,4,2,1,46,0,0
21022,-90.9090909090909,4,2,1,52,0,0
21109,-90.9090909090909,4,2,1,58,0,0
21196,-90.9090909090909,4,2,1,64,0,0
21283,-86.9565217391304,4,2,1,70,0,0
21366,-86.9565217391304,4,2,1,70,0,0
21370,-86.9565217391304,4,2,1,40,0,0
21458,-86.9565217391304,4,2,1,46,0,0
21545,-86.9565217391304,4,2,1,52,0,0
21632,-86.9565217391304,4,2,1,58,0,0
21719,-86.9565217391304,4,2,1,64,0,0
21807,-83.3333333333333,4,2,1,70,0,0
21894,-83.3333333333333,4,2,1,40,0,0
21981,-83.3333333333333,4,2,1,46,0,0
22068,-83.3333333333333,4,2,1,52,0,0
22155,-83.3333333333333,4,2,1,58,0,0
22243,-83.3333333333333,4,2,1,64,0,0
22330,-76.9230769230769,4,2,1,70,0,0
22853,-100,4,2,1,70,0,0
24423,-125,4,2,1,50,0,0
25120,-142.857142857143,4,2,1,50,0,0
25818,-166.666666666667,4,2,1,50,0,0
35586,-200,4,2,1,50,0,0
36458,-200,4,2,1,60,0,0
36981,-111.111111111111,4,2,1,60,0,0
46400,-166.666666666666,4,2,1,60,0,0
46748,-111.111111111111,4,2,1,60,0,0
48144,-125,4,2,1,50,0,0
53725,-166.666666666667,4,2,1,40,0,0
55818,-166.666666666667,4,2,1,50,0,0
56167,-166.666666666667,4,2,1,60,0,0
56516,-142.857142857143,4,2,1,70,0,0
56865,-125,4,2,1,70,0,0
57213,-111.111111111111,4,2,1,70,0,0
57562,-100,4,2,1,70,0,0
57911,-90.9090909090909,4,2,1,70,0,0
58260,-90.9090909090909,4,2,1,60,0,0
59307,-83.3333333333333,4,2,1,75,0,1
63754,-83.3333333333333,4,2,1,5,0,1
63841,-83.3333333333333,4,2,1,75,0,1
64103,-83.3333333333333,4,2,1,5,0,1
64190,-83.3333333333333,4,2,1,75,0,1
67417,-83.3333333333333,4,2,1,5,0,1
67504,-83.3333333333333,4,2,1,75,0,1
75353,-86.9565217391304,4,2,1,75,0,1
75615,-86.9565217391304,4,2,1,5,0,1
75702,-90.9090909090909,4,2,1,75,0,1
76051,-111.111111111111,4,2,1,70,0,0
80498,-111.111111111111,4,2,1,70,0,0
80586,-111.111111111111,4,2,1,70,0,0
81632,-100,4,2,1,75,0,0
81894,-100,4,2,1,5,0,0
81981,-100,4,2,1,75,0,0
82243,-100,4,2,1,5,0,0
82330,-100,4,2,1,75,0,0
84423,-95.2380952380952,4,2,1,70,0,0
84510,-95.2380952380952,4,2,1,40,0,0
84597,-95.2380952380952,4,2,1,46,0,0
84684,-95.2380952380952,4,2,1,52,0,0
84772,-95.2380952380952,4,2,1,58,0,0
84859,-95.2380952380952,4,2,1,64,0,0
84946,-90.9090909090909,4,2,1,70,0,0
85033,-90.9090909090909,4,2,1,40,0,0
85120,-90.9090909090909,4,2,1,46,0,0
85208,-90.9090909090909,4,2,1,52,0,0
85295,-90.9090909090909,4,2,1,58,0,0
85382,-90.9090909090909,4,2,1,64,0,0
85469,-86.9565217391304,4,2,1,70,0,0
85557,-86.9565217391304,4,2,1,40,0,0
85644,-86.9565217391304,4,2,1,46,0,0
85731,-86.9565217391304,4,2,1,52,0,0
85818,-86.9565217391304,4,2,1,58,0,0
85905,-86.9565217391304,4,2,1,64,0,0
85993,-83.3333333333333,4,2,1,70,0,0
86080,-83.3333333333333,4,2,1,40,0,0
86167,-83.3333333333333,4,2,1,46,0,0
86254,-83.3333333333333,4,2,1,52,0,0
86341,-83.3333333333333,4,2,1,58,0,0
86429,-83.3333333333333,4,2,1,64,0,0
86516,-76.9230769230769,4,2,1,70,0,0
87039,-250.000000000001,4,2,1,70,0,0
88609,-250.000000000001,4,2,1,5,0,0

[Colours]
Combo1 : 255,55,55
Combo2 : 170,85,85
Combo3 : 255,255,128

[HitObjects]
431,114,527,5,2,0:0:0:0:
431,114,615,1,2,0:0:0:0:
431,114,702,2,0,L|370:102,1,48.5999985168458,2|0,0:0|0:0,0:0:0:0:
319,51,1051,2,0,L|258:63,1,48.5999985168458
190,77,1400,5,2,0:0:0:0:
141,144,1574,1,0,0:0:0:0:
155,225,1748,1,0,0:0:0:0:
229,267,1923,1,0,0:0:0:0:
310,276,2097,6,0,P|319:310|316:327,1,48.5999985168458,2|2,0:0|0:0,0:0:0:0:
247,367,2446,2,0,L|186:357,1,48.5999985168458,2|2,0:0|0:0,0:0:0:0:
132,309,2795,2,0,L|19:327,1,97.1999970336915,2|2,0:0|0:0,0:0:0:0:
11,250,3318,1,2,0:0:0:0:
11,250,3493,6,0,L|58:242,1,48.5999985168458,2|2,0:0|0:0,0:0:0:0:
105,174,3841,2,0,L|152:181,1,48.5999985168458,2|2,0:0|0:0,0:0:0:0:
214,237,4190,2,0,P|233:195|220:136,1,97.1999970336915,2|2,0:0|0:0,0:0:0:0:
163,90,4713,1,2,0:0:0:0:
210,22,4888,6,0,B|253:4|284:35|270:43|305:74|351:59,1,145.799995550537,2|2,1:2|0:0,0:0:0:0:
408,13,5586,2,0,P|426:60|410:109,1,97.1999970336915,2|2,0:0|0:0,0:0:0:0:
318,225,6283,5,10,0:0:0:0:
318,225,6370,1,8,0:0:0:0:
318,225,6458,1,8,0:0:0:0:
446,291,6632,2,0,L|507:286,1,48.5999985168458,10|0,0:3|1:2,0:0:0:0:
321,375,6981,5,10,0:0:0:0:
238,371,7155,1,8,0:3:0:0:
192,301,7330,1,2,1:2:0:0:
233,229,7504,1,6,0:3:0:0:
343,71,7679,6,0,B|292:33|235:73|250:89|199:129|134:91,1,218.699993325806,6|2,1:2|0:0,0:0:0:0:
71,8,8376,2,0,P|22:72|77:184,1,218.699993325806,6|2,1:2|0:0,0:0:0:0:
233,229,9074,5,14,0:0:0:0:
308,145,9248,1,0,1:2:0:0:
419,318,9423,5,10,0:0:0:0:
335,243,9597,1,2,1:2:0:0:
450,200,9772,5,14,0:0:0:0:
458,178,10120,5,10,0:3:0:0:
458,178,10295,1,6,0:3:0:0:
512,50,10469,6,0,P|471:28|381:57,1,145.799995550537,14|2,0:0|1:2,0:0:0:0:
328,130,10993,1,2,1:2:0:0:
328,130,11167,2,0,L|254:116,1,72.8999977752686,2|0,1:2|1:2,0:0:0:0:
120,35,11516,1,2,1:2:0:0:
63,109,11690,1,2,1:2:0:0:
119,174,11865,6,0,L|132:252,1,72.8999977752686,14|8,0:0|0:0,0:0:0:0:
139,340,12213,1,10,0:3:0:0:
113,365,12300,1,8,0:3:0:0:
79,377,12387,1,4,0:3:0:0:
43,374,12474,1,4,0:3:0:0:
12,355,12561,5,10,0:0:0:0:
49,248,12737,1,8,0:0:0:0:
120,35,14132,5,2,0:0:0:0:
199,144,14481,5,8,0:0:0:0:
199,144,14568,1,8,0:0:0:0:
199,144,14655,2,0,L|324:125,1,121.5,6|0,1:2|0:0,0:0:0:0:
333,83,15004,2,0,L|458:102,1,121.5,2|0,1:2|0:0,0:0:0:0:
496,111,15353,1,10,1:2:0:0:
396,250,15527,2,0,P|378:220|385:171,1,81,10|0,1:2|1:2,0:0:0:0:
469,309,15876,6,0,P|417:340|323:306,1,162,6|0,1:2|0:0,0:0:0:0:
240,221,16400,2,0,P|198:207|163:220,1,81,0|0,1:2|0:0,0:0:0:0:
80,136,16748,2,0,P|46:165|40:202,1,81,8|8,0:0|0:0,0:0:0:0:
14,306,17097,2,0,P|20:323|25:351,3,40.5,8|8|4|4,0:3|0:3|0:3|0:3,0:0:0:0:
61,370,17446,6,0,L|190:346,1,121.5,6|0,1:2|0:0,0:0:0:0:
204,309,17795,2,0,L|333:333,1,121.5,2|0,1:2|0:0,0:0:0:0:
367,341,18144,1,10,1:2:0:0:
300,168,18318,2,0,P|280:204|286:245,1,81,10|0,1:2|1:2,0:0:0:0:
473,174,18667,6,0,L|457:2,1,162,6|2,1:2|0:0,0:0:0:0:
372,21,19190,1,2,1:2:0:0:
372,21,19365,2,0,L|387:182,1,162,2|8,1:2|0:0,0:0:0:0:
288,258,19888,1,8,0:3:0:0:
261,258,19975,1,8,0:3:0:0:
237,247,20062,1,4,0:3:0:0:
221,226,20149,1,4,0:3:0:0:
213,202,20237,6,0,P|212:178|221:154,5,42.52499870224,14|8|8|8|8|8,1:2|0:0|0:0|0:0|0:0|0:0,0:0:0:0:
167,103,20760,2,0,P|187:90|212:85,5,44.5500013595581,14|8|8|8|8|8,1:2|0:0|0:0|0:0|0:0|0:0,0:0:0:0:
239,13,21283,2,0,P|260:24|276:43,5,46.5750008883476,14|8|8|8|8|8,1:2|0:0|0:0|0:0|0:0|0:0,0:0:0:0:
357,32,21807,2,0,P|358:55|349:80,5,48.5999985168458,14|8|8|8|8|8,1:2|0:0|0:0|0:0|0:0|0:0,0:0:0:0:
285,120,22330,5,10,1:2:0:0:
97,58,22504,1,10,1:2:0:0:
74,49,22853,6,0,B|67:117|67:117|78:144|78:144|73:210,1,162,6|0,1:2|1:2,0:0:0:0:
210,292,23376,2,0,P|184:261|143:250,1,81,8|0,0:0|0:0,0:0:0:0:
69,365,23725,2,0,P|108:357|138:327,1,81,0|0,1:2|0:0,0:0:0:0:
73,208,24074,2,0,P|59:246|70:287,1,81,8|0,0:0|0:0,0:0:0:0:
211,373,24423,6,0,B|268:393|302:343|283:335|320:290|376:303,1,194.4,6|2,1:2|0:0,0:0:0:0:
408,331,25033,1,2,0:0:0:0:
408,331,25120,2,0,P|430:279|406:221,1,113.399996539307,2|2,0:0|0:0,0:0:0:0:
470,74,25818,6,0,L|366:88,1,97.1999970336915,2|0,1:2|0:0,0:0:0:0:
320,150,26341,1,2,0:0:0:0:
320,150,26516,2,0,L|216:136,1,97.1999970336915,2|0,0:0|0:0,0:0:0:0:
165,55,27039,5,2,1:2:0:0:
102,112,27213,2,0,P|90:138|90:158,1,48.5999985168458,2|2,1:2|0:0,0:0:0:0:
19,200,27562,2,0,P|35:223|52:233,1,48.5999985168458,2|0,0:0|0:0,0:0:0:0:
33,313,27911,2,0,P|88:313|122:284,1,97.1999970336915,2|0,0:0|0:0,0:0:0:0:
222,218,28434,5,2,0:0:0:0:
222,218,28609,2,0,L|283:228,1,48.5999985168458,2|0,1:2|0:0,0:0:0:0:
321,290,28958,2,0,L|253:303,1,48.5999985168458,2|0,0:0|0:0,0:0:0:0:
232,371,29307,2,0,L|163:358,1,48.5999985168458,2|0,0:0|0:0,0:0:0:0:
117,313,29655,2,0,L|48:325,1,48.5999985168458,2|0,0:0|1:2,0:0:0:0:
7,238,30004,6,0,P|28:224|59:219,1,48.5999985168458,2|0,1:2|0:0,0:0:0:0:
106,158,30353,2,0,P|85:144|54:139,1,48.5999985168458,2|0,0:0|0:0,0:0:0:0:
0,81,30702,2,0,P|36:57|88:59,1,97.1999970336915,2|0,0:0|0:0,0:0:0:0:
189,166,31225,5,2,0:0:0:0:
189,166,31400,2,0,P|232:179|286:155,1,97.1999970336915,2|2,1:2|0:0,0:0:0:0:
333,98,31923,1,2,0:0:0:0:
333,98,32097,2,0,L|314:-8,1,97.1999970336915,2|0,0:0|0:0,0:0:0:0:
223,59,32620,5,2,1:2:0:0:
223,59,32795,2,0,L|127:44,1,97.1999970336915,2|2,1:2|0:0,0:0:0:0:
56,84,33318,1,2,0:0:0:0:
56,84,33493,2,0,P|41:125|57:186,1,97.1999970336915,2|0,0:0|0:0,0:0:0:0:
95,282,34016,5,2,0:0:0:0:
95,282,34190,2,0,P|122:282|146:271,1,48.5999985168458,2|0,1:2|0:0,0:0:0:0:
209,321,34539,2,0,P|222:297|224:271,1,48.5999985168458,2|0,0:0|0:0,0:0:0:0:
301,245,34888,2,0,P|287:221|265:206,1,48.5999985168458,2|0,0:0|0:0,0:0:0:0:
278,126,35237,2,0,P|250:126|227:137,1,48.5999985168458,2|0,0:0|0:0,0:0:0:0:
422,85,35586,6,0,B|407:118|416:150|416:150|391:165|382:196,1,121.5,2|2,0:0|0:0,0:0:0:0:
427,269,36283,1,2,1:2:0:0:
377,341,36458,2,0,L|374:374,2,20.25,0|8|8,1:2|0:0|0:0,0:0:0:0:
301,245,36807,5,4,0:3:0:0:
301,245,36981,2,0,P|249:227|162:276,1,145.799995550537,6|8,1:2|0:0,0:0:0:0:
95,329,37504,1,2,0:0:0:0:
16,267,37679,1,2,1:2:0:0:
82,182,37853,1,0,1:2:0:0:
99,167,38202,5,10,0:0:0:0:
0,81,38376,2,0,L|14:161,1,72.8999977752686,2|2,0:0|1:2,0:0:0:0:
129,22,38725,2,0,P|94:13|61:28,1,72.8999977752686,10|0,0:0|0:0,0:0:0:0:
163,116,39074,2,0,B|220:103|220:103|239:78|239:78|305:67,1,145.799995550537,2|8,1:2|0:0,0:0:0:0:
394,50,39597,1,2,0:0:0:0:
464,159,39772,6,0,P|477:198|466:236,1,72.8999977752686,2|0,1:2|0:0,0:0:0:0:
326,206,40120,2,0,P|365:193|403:204,1,72.8999977752686,10|0,0:0|0:0,0:0:0:0:
374,344,40469,2,0,P|361:305|372:267,1,72.8999977752686,2|0,1:2|1:2,0:0:0:0:
512,297,40818,2,0,P|473:310|435:299,1,72.8999977752686,10|0,0:0|0:0,0:0:0:0:
237,189,41167,6,0,L|248:271,1,72.8999977752686,2|0,1:2|1:2,0:0:0:0:
159,318,41516,2,0,L|149:245,1,72.8999977752686,10|0,0:0|0:0,0:0:0:0:
38,188,41865,2,0,L|47:260,1,72.8999977752686,2|0,1:2|1:2,0:0:0:0:
66,378,42213,1,10,0:0:0:0:
66,378,42388,1,2,1:2:0:0:
227,315,42562,6,0,P|187:306|154:321,1,72.8999977752686,6|0,1:2|1:2,0:0:0:0:
314,381,42911,2,0,P|336:319|301:239,1,145.799995550537,8|2,0:0|1:2,0:0:0:0:
229,200,43434,1,2,1:2:0:0:
290,72,43609,6,0,L|282:-12,1,72.8999977752686,10|0,0:0|0:0,0:0:0:0:
400,0,43958,2,0,L|393:72,1,72.8999977752686,2|0,1:2|1:2,0:0:0:0:
512,173,44307,6,0,B|458:185|458:185|440:212|440:212|382:230,1,145.799995550537,8|2,0:0|1:2,0:0:0:0:
263,278,44830,1,2,1:2:0:0:
419,324,45004,2,0,L|490:337,1,72.8999977752686,10|0,0:0|0:0,0:0:0:0:
253,347,45353,6,0,P|249:311|264:278,1,72.8999977752686,2|0,1:2|0:0,0:0:0:0:
205,216,45702,2,0,P|234:195|270:191,1,72.8999977752686,10|0,0:0|0:0,0:0:0:0:
299,106,46051,2,0,P|331:121|353:150,1,72.8999977752686,2|0,1:2|1:2,0:0:0:0:
306,22,46400,2,0,P|282:20|251:32,1,48.5999985168458,10|0,0:0|1:2,0:0:0:0:
186,117,46748,6,0,P|141:135|62:69,1,145.799995550537,6|2,1:2|0:0,0:0:0:0:
71,8,47272,1,2,0:0:0:0:
141,53,47446,1,10,0:0:0:0:
28,174,47620,1,12,1:2:0:0:
42,196,47969,5,2,1:2:0:0:
42,196,48057,1,0,1:2:0:0:
42,196,48144,1,6,1:2:0:0:
12,267,48318,1,2,0:0:0:0:
84,296,48493,1,2,0:0:0:0:
113,224,48667,1,2,1:2:0:0:
27,356,48841,6,0,P|87:377|153:340,1,129.6,10|2,0:0|0:0,0:0:0:0:
196,280,49365,1,0,0:0:0:0:
196,280,49539,6,0,L|261:294,1,64.8,2|8,1:2|0:0,0:0:0:0:
321,366,49888,2,0,L|257:379,1,64.8,2|0,0:0|1:2,0:0:0:0:
350,279,50237,2,0,P|405:303|426:374,1,129.6,10|2,0:0|0:0,0:0:0:0:
340,363,50760,1,2,1:2:0:0:
467,254,50934,5,4,1:2:0:0:
420,184,51109,1,2,0:0:0:0:
473,122,51283,2,0,L|484:45,1,64.8,2|0,0:0|1:2,0:0:0:0:
512,36,51545,1,2,0:0:0:0:
512,36,51632,2,0,L|380:12,1,129.6,10|2,0:0|0:0,0:0:0:0:
316,51,52155,1,0,1:2:0:0:
176,16,52330,6,0,P|168:56|181:82,1,64.8,10|8,0:0|0:0,0:0:0:0:
116,125,52679,2,0,P|146:151|175:153,1,64.8,2|0,0:0|1:2,0:0:0:0:
297,223,53027,2,0,P|260:208|180:260,1,129.6,10|2,0:0|1:2,0:0:0:0:
143,321,53551,1,2,1:2:0:0:
219,382,53725,5,6,1:2:0:0:
32,189,55818,5,10,0:0:0:0:
67,116,55993,1,2,1:2:0:0:
115,181,56167,2,0,L|111:250,1,48.5999985168458,10|4,0:3|0:3,0:0:0:0:
22,48,56516,6,0,P|53:35|80:35,1,56.6999982696534,6|0,1:2|0:0,0:0:0:0:
149,109,56865,2,0,P|183:123|214:123,1,64.8,0|0,1:2|1:2,0:0:0:0:
289,0,57213,1,0,1:2:0:0:
198,48,57388,1,0,1:2:0:0:
303,131,57562,1,8,0:3:0:0:
330,143,57649,1,8,0:3:0:0:
360,142,57736,1,4,0:3:0:0:
387,128,57823,1,4,0:3:0:0:
405,104,57910,5,10,0:0:0:0:
470,228,58086,1,10,0:0:0:0:
470,228,58609,5,6,1:2:0:0:
494,350,58783,1,8,0:0:0:0:
469,370,58870,1,8,0:0:0:0:
437,373,58957,1,10,0:0:0:0:
408,356,59045,1,8,0:0:0:0:
372,325,59132,1,8,0:0:0:0:
325,321,59219,1,8,0:0:0:0:
287,349,59307,5,6,1:2:0:0:
191,229,59481,1,2,0:0:0:0:
328,211,59655,1,10,0:0:0:0:
180,336,59830,1,2,0:0:0:0:
180,336,60004,2,0,L|73:317,1,97.1999970336915,2|0,1:2|0:0,0:0:0:0:
34,193,60353,2,0,L|141:174,1,97.1999970336915,10|2,0:0|0:0,0:0:0:0:
198,24,60702,5,2,1:2:0:0:
94,95,60876,1,2,0:0:0:0:
219,167,61051,1,10,0:0:0:0:
100,15,61225,1,2,0:0:0:0:
100,15,61400,2,0,P|43:28|18:61,1,97.1999970336915,2|0,1:2|0:0,0:0:0:0:
22,220,61748,2,0,L|129:201,1,97.1999970336915,10|2,0:0|0:0,0:0:0:0:
241,90,62097,6,0,B|316:104|316:104|346:135|346:135|427:150,1,194.399994067383,2|8,1:2|0:0,0:0:0:0:
453,4,62620,1,2,0:0:0:0:
453,4,62795,2,0,P|403:35|392:73,1,97.1999970336915,2|0,1:2|0:0,0:0:0:0:
503,168,63144,2,0,P|501:109|473:80,1,97.1999970336915,10|0,0:0|0:0,0:0:0:0:
273,178,63493,6,0,B|261:236|261:236|270:264|270:264|261:324,1,145.799995550537,2|0,1:2|0:0,0:0:0:0:
269,360,63841,2,0,P|326:380|391:319,1,145.799995550537,10|0,0:0|0:0,0:0:0:0:
419,333,64190,2,0,B|449:287|414:232|398:250|366:201|394:149,1,194.399994067383,2|8,1:2|0:0,0:0:0:0:
476,82,64713,1,2,0:0:0:0:
331,19,64888,5,6,1:2:0:0:
244,84,65062,2,0,L|142:63,1,97.1999970336915,2|10,0:0|0:0,0:0:0:0:
0,244,65411,5,2,0:0:0:0:
68,298,65586,1,2,1:2:0:0:
147,261,65760,1,2,0:0:0:0:
171,147,65934,5,10,0:0:0:0:
101,192,66109,1,2,0:0:0:0:
229,237,66283,2,0,L|335:220,1,97.1999970336915,2|2,1:2|0:0,0:0:0:0:
194,337,66632,1,10,0:0:0:0:
290,363,66807,6,0,L|396:380,1,97.1999970336915,2|0,0:0|1:2,0:0:0:0:
483,362,67155,2,0,B|458:320|476:287|486:301|510:264|492:224,1,145.799995550537,2|0,0:0|0:0,0:0:0:0:
476,197,67504,5,2,0:0:0:0:
402,38,67679,1,2,1:2:0:0:
346,117,67853,1,2,0:0:0:0:
480,90,68027,6,0,P|497:44|487:-6,1,97.1999970336915,10|2,0:0|1:2,0:0:0:0:
159,114,68376,1,2,1:2:0:0:
256,187,68551,1,2,1:2:0:0:
346,117,68725,1,10,0:0:0:0:
76,48,68900,6,0,B|68:121|68:121|83:159|83:159|78:242,1,194.399994067383,6|0,1:2|1:2,0:0:0:0:
9,333,69423,1,8,0:0:0:0:
157,213,69597,1,6,1:2:0:0:
298,337,69772,2,0,B|249:305|193:334|215:352|163:385|111:350,1,194.399994067383,2|8,0:0|0:0,0:0:0:0:
461,101,70469,5,6,1:2:0:0:
401,273,70644,1,2,0:0:0:0:
311,157,70818,1,10,0:0:0:0:
478,225,70993,1,2,0:0:0:0:
478,225,71167,2,0,P|497:270|484:321,1,97.1999970336915,2|0,1:2|0:0,0:0:0:0:
279,135,71516,2,0,L|376:118,1,97.1999970336915,10|2,0:0|0:0,0:0:0:0:
251,22,71865,5,2,1:2:0:0:
185,158,72039,1,2,0:0:0:0:
70,43,72213,1,10,0:0:0:0:
256,111,72388,1,2,0:0:0:0:
256,111,72562,2,0,P|271:160|256:208,1,97.1999970336915,2|0,1:2|0:0,0:0:0:0:
130,320,72911,2,0,P|163:279|210:265,1,97.1999970336915,10|2,0:0|0:0,0:0:0:0:
333,366,73260,5,2,1:2:0:0:
454,222,73434,1,2,0:0:0:0:
288,280,73609,1,10,0:0:0:0:
480,363,73783,1,2,0:0:0:0:
371,201,73958,2,0,L|357:100,1,97.1999970336915,2|2,1:2|0:0,0:0:0:0:
510,9,74307,1,10,0:0:0:0:
446,125,74481,1,2,0:0:0:0:
350,22,74655,6,0,L|236:11,1,97.1999970336915,2|2,1:2|0:0,0:0:0:0:
157,161,75004,2,0,L|271:150,1,97.1999970336915,10|0,0:0|0:0,0:0:0:0:
56,29,75353,6,0,P|23:81|46:164,1,139.725002665043,2|0,1:2|0:0,0:0:0:0:
9,182,75702,2,0,P|38:208|97:208,1,89.1000027191163,10|4,0:3|0:3,0:0:0:0:
170,303,76051,6,0,B|158:242|158:242|166:220|166:220|156:157,1,145.799995550537,6|2,1:2|1:2,0:0:0:0:
114,355,76574,1,2,1:2:0:0:
114,355,76748,2,0,P|167:379|242:330,1,145.799995550537,10|2,0:0|1:2,0:0:0:0:
287,265,77272,1,2,1:2:0:0:
455,371,77446,6,0,P|426:309|458:230,1,145.799995550537,10|10,0:0|0:0,0:0:0:0:
510,153,77969,1,2,1:2:0:0:
510,153,78144,2,0,L|501:79,1,72.8999977752686,10|8,0:0|0:3,0:0:0:0:
418,10,78493,1,10,0:0:0:0:
339,77,78667,1,6,0:3:0:0:
184,21,78841,6,0,L|32:6,1,145.799995550537,6|2,1:2|1:2,0:0:0:0:
10,89,79365,1,2,0:0:0:0:
10,89,79539,2,0,L|83:96,1,72.8999977752686,0|8,1:2|0:0,0:0:0:0:
221,157,79888,1,10,1:2:0:0:
186,146,79975,1,8,0:0:0:0:
151,153,80062,1,10,0:0:0:0:
123,176,80149,1,8,0:0:0:0:
110,210,80237,6,0,L|123:290,1,72.8999977752686,6|0,1:2|0:0,0:0:0:0:
136,358,80586,1,10,0:0:0:0:
106,378,80673,1,8,0:0:0:0:
70,379,80760,1,8,0:0:0:0:
39,360,80847,1,8,0:0:0:0:
23,328,80934,5,8,0:0:0:0:
28,190,81109,1,10,0:0:0:0:
28,190,81632,6,0,L|160:159,1,121.5,6|0,1:2|0:0,0:0:0:0:
162,129,81981,2,0,L|294:160,1,121.5,2|0,1:2|0:0,0:0:0:0:
316,165,82330,1,10,1:2:0:0:
232,309,82504,2,0,P|215:265|229:215,1,81,10|0,1:2|1:2,0:0:0:0:
406,172,82853,6,0,B|393:242|393:242|401:266|401:266|391:337,1,162,6|0,1:2|0:0,0:0:0:0:
481,137,83376,2,0,P|454:105|407:95,1,81,0|0,1:2|0:0,0:0:0:0:
415,14,83725,2,0,P|373:21|341:57,1,81,8|8,0:0|0:0,0:0:0:0:
317,168,84074,1,8,0:3:0:0:
289,181,84161,1,8,0:3:0:0:
258,179,84248,1,4,0:3:0:0:
233,162,84335,1,4,0:3:0:0:
220,134,84423,6,0,P|195:128|171:134,5,42.52499870224,14|8|8|8|8|8,1:2|0:0|0:0|0:0|0:0|0:0,0:0:0:0:
129,73,84946,2,0,P|111:91|104:115,5,44.5500013595581,14|8|8|8|8|8,1:2|0:0|0:0|0:0|0:0|0:0,0:0:0:0:
28,126,85469,2,0,P|35:150|52:168,5,46.5750008883476,14|8|8|8|8|8,1:2|0:0|0:0|0:0|0:0|0:0,0:0:0:0:
31,247,85993,2,0,P|55:252|79:247,5,48.5999985168458,14|8|8|8|8|8,1:2|0:0|0:0|0:0|0:0|0:0,0:0:0:0:
130,187,86516,5,10,1:2:0:0:
230,333,86690,1,10,1:2:0:0:
371,64,87039,5,6,1:2:0:0:
256,192,87126,12,0,88609,0:0:0:0:
