osu file format v14

[General]
AudioFilename: audio.mp3
AudioLeadIn: 0
PreviewTime: 58216
Countdown: 0
SampleSet: Soft
StackLeniency: 0.7
Mode: 0
LetterboxInBreaks: 0
WidescreenStoryboard: 1

[Editor]
DistanceSpacing: 1.1
BeatDivisor: 2
GridSize: 32
TimelineZoom: 1.8

[Metadata]
Title:Omoide Shiritori (TV Size)
TitleUnicode:おもいでしりとり (TV Size)
Artist:DIALOGUE+
ArtistUnicode:DIALOGUE+
Creator:Soue
Version:Easy
Source:ひげを剃る。そして女子高生を拾う。
Tags:Hige wo Soru Soshite Joshikousei wo Hirou I Shaved Then I Brought a High School Girl Home Higehiro Japanese TV Anime Opening 1 1st First Female Vocals j pop jpop j-pop
BeatmapID:2953809
BeatmapSetID:1435069

[Difficulty]
HPDrainRate:3
CircleSize:2.6
OverallDifficulty:3
ApproachRate:4
SliderMultiplier:0.899999999999999
SliderTickRate:1

[Events]
//Background and Video events
0,0,"background.jpg",0,0
Video,-44,"video.mp4"
//Break Periods
//Storyboard Layer 0 (Background)
//Storyboard Layer 1 (Fail)
//Storyboard Layer 2 (Pass)
//Storyboard Layer 3 (Foreground)
//Storyboard Layer 4 (Overlay)
//Storyboard Sound Samples

[TimingPoints]
-693,348.837209302326,4,2,1,40,1,0
-693,-111.111111111111,4,2,1,40,0,0
702,-111.111111111111,4,2,1,40,0,0
6632,-111.111111111111,4,2,1,50,0,0
7679,-111.111111111111,4,2,1,60,0,0
13260,-111.111111111111,4,2,1,50,0,0
14655,-111.111111111111,4,2,1,70,0,0
14917,-111.111111111111,4,2,1,70,0,0
15004,-111.111111111111,4,2,1,70,0,0
15266,-111.111111111111,4,2,1,70,0,0
15353,-111.111111111111,4,2,1,70,0,0
17708,-111.111111111111,4,2,1,70,0,0
17795,-111.111111111111,4,2,1,70,0,0
18057,-111.111111111111,4,2,1,70,0,0
18144,-111.111111111111,4,2,1,70,0,0
20237,-111.111111111111,4,2,1,70,0,0
20324,-111.111111111111,4,2,1,40,0,0
20411,-111.111111111111,4,2,1,46,0,0
20498,-111.111111111111,4,2,1,52,0,0
20586,-111.111111111111,4,2,1,58,0,0
20673,-111.111111111111,4,2,1,64,0,0
20760,-111.111111111111,4,2,1,70,0,0
20847,-111.111111111111,4,2,1,40,0,0
20934,-111.111111111111,4,2,1,46,0,0
21022,-111.111111111111,4,2,1,52,0,0
21109,-111.111111111111,4,2,1,58,0,0
21196,-111.111111111111,4,2,1,64,0,0
21283,-111.111111111111,4,2,1,70,0,0
21370,-111.111111111111,4,2,1,40,0,0
21458,-111.111111111111,4,2,1,46,0,0
21545,-111.111111111111,4,2,1,52,0,0
21632,-111.111111111111,4,2,1,58,0,0
21719,-111.111111111111,4,2,1,64,0,0
21807,-111.111111111111,4,2,1,70,0,0
21894,-111.111111111111,4,2,1,40,0,0
21981,-111.111111111111,4,2,1,46,0,0
22068,-111.111111111111,4,2,1,52,0,0
22155,-111.111111111111,4,2,1,58,0,0
22243,-111.111111111111,4,2,1,64,0,0
22330,-111.111111111111,4,2,1,70,0,0
22853,-111.111111111111,4,2,1,70,0,0
24423,-111.111111111111,4,2,1,50,0,0
25120,-111.111111111111,4,2,1,50,0,0
25818,-111.111111111111,4,2,1,50,0,0
35586,-111.111111111111,4,2,1,50,0,0
36458,-111.111111111111,4,2,1,60,0,0
36981,-111.111111111111,4,2,1,60,0,0
46400,-111.111111111111,4,2,1,60,0,0
46748,-111.111111111111,4,2,1,60,0,0
48144,-111.111111111111,4,2,1,50,0,0
53725,-111.111111111111,4,2,1,40,0,0
55818,-111.111111111111,4,2,1,50,0,0
56167,-111.111111111111,4,2,1,60,0,0
56516,-111.111111111111,4,2,1,70,0,0
56865,-111.111111111111,4,2,1,70,0,0
57213,-111.111111111111,4,2,1,70,0,0
57562,-111.111111111111,4,2,1,70,0,0
57911,-111.111111111111,4,2,1,70,0,0
58260,-111.111111111111,4,2,1,60,0,0
59307,-111.111111111111,4,2,1,75,0,1
63754,-111.111111111111,4,2,1,75,0,1
63841,-111.111111111111,4,2,1,75,0,1
64103,-111.111111111111,4,2,1,75,0,1
64190,-111.111111111111,4,2,1,75,0,1
75353,-111.111111111111,4,2,1,75,0,1
75615,-111.111111111111,4,2,1,75,0,1
75702,-111.111111111111,4,2,1,75,0,1
76051,-111.111111111111,4,2,1,70,0,0
80498,-111.111111111111,4,2,1,70,0,0
80586,-111.111111111111,4,2,1,70,0,0
81632,-111.111111111111,4,2,1,75,0,0
81894,-111.111111111111,4,2,1,75,0,0
81981,-111.111111111111,4,2,1,75,0,0
82243,-111.111111111111,4,2,1,75,0,0
82330,-111.111111111111,4,2,1,75,0,0
84423,-111.111111111111,4,2,1,70,0,0
84510,-111.111111111111,4,2,1,40,0,0
84597,-111.111111111111,4,2,1,46,0,0
84684,-111.111111111111,4,2,1,52,0,0
84772,-111.111111111111,4,2,1,58,0,0
84859,-111.111111111111,4,2,1,64,0,0
84946,-111.111111111111,4,2,1,70,0,0
85033,-111.111111111111,4,2,1,40,0,0
85120,-111.111111111111,4,2,1,46,0,0
85208,-111.111111111111,4,2,1,52,0,0
85295,-111.111111111111,4,2,1,58,0,0
85382,-111.111111111111,4,2,1,64,0,0
85469,-111.111111111111,4,2,1,70,0,0
85557,-111.111111111111,4,2,1,40,0,0
85644,-111.111111111111,4,2,1,46,0,0
85731,-111.111111111111,4,2,1,52,0,0
85818,-111.111111111111,4,2,1,58,0,0
85905,-111.111111111111,4,2,1,64,0,0
85993,-111.111111111111,4,2,1,70,0,0
86080,-111.111111111111,4,2,1,40,0,0
86167,-111.111111111111,4,2,1,46,0,0
86254,-111.111111111111,4,2,1,52,0,0
86341,-111.111111111111,4,2,1,58,0,0
86429,-111.111111111111,4,2,1,64,0,0
86516,-111.111111111111,4,2,1,70,0,0
87039,-111.111111111111,4,2,1,70,0,0
88609,-111.111111111111,4,2,1,5,0,0

[Colours]
Combo1 : 255,55,55
Combo2 : 170,85,85
Combo3 : 255,255,128

[HitObjects]
38,94,2097,6,0,L|214:56,1,161.999995056152,2|2,0:0|0:0,0:0:0:0:
365,117,3493,2,0,P|403:161|382:261,1,161.999995056152,2|2,0:0|0:0,0:0:0:0:
244,365,4888,2,0,B|229:298|229:298|204:275|204:275|193:214,1,161.999995056152,2|2,1:2|0:0,0:0:0:0:
172,130,5934,1,2,0:0:0:0:
97,80,6283,2,0,L|14:76,2,80.9999975280762,10|10|10,0:0|0:3|0:0,0:0:0:0:
161,18,7330,1,2,1:2:0:0:
235,66,7679,6,0,B|281:93|319:63|310:55|349:27|391:51,1,161.999995056152,6|6,1:2|1:2,0:0:0:0:
490,193,9074,1,14,0:0:0:0:
490,282,9423,1,10,0:0:0:0:
425,343,9772,2,0,P|381:354|338:341,1,80.9999975280762,14|10,0:0|0:3,0:0:0:0:
290,276,10469,6,0,P|224:251|140:293,1,161.999995056152,14|2,0:0|1:2,0:0:0:0:
82,351,11516,1,2,1:2:0:0:
22,284,11865,2,0,L|10:107,1,161.999995056152,14|10,0:0|0:0,0:0:0:0:
61,48,12911,2,0,P|100:31|144:40,2,80.9999975280762,2|2|2,0:0|0:0|0:0,0:0:0:0:
292,181,14655,6,0,L|393:162,1,80.9999975280762,6|2,1:2|1:2,0:0:0:0:
459,147,15353,1,10,1:2:0:0:
367,49,15876,2,0,P|316:30|245:67,1,121.499996292114,6|0,1:2|1:2,0:0:0:0:
199,122,16748,2,0,L|119:107,1,80.9999975280762,8|8,0:0|0:3,0:0:0:0:
43,153,17446,6,0,P|29:197|40:241,1,80.9999975280762,6|2,1:2|1:2,0:0:0:0:
98,293,18144,1,10,1:2:0:0:
209,366,18667,2,0,B|255:355|255:355|270:337|270:337|322:326,1,121.499996292114,6|2,1:2|1:2,0:0:0:0:
398,368,19539,2,0,P|408:322|398:286,1,80.9999975280762,8|8,0:0|0:3,0:0:0:0:
346,217,20237,6,0,L|354:78,1,121.499996292114,14|14,1:2|1:2,0:0:0:0:
225,55,21283,2,0,L|231:176,1,121.499996292114,14|14,1:2|1:2,0:0:0:0:
119,248,22330,2,0,L|115:187,1,40.4999987640381,10|10,1:2|1:2,0:0:0:0:
36,169,22853,6,0,L|43:41,1,121.499996292114,6|8,1:2|0:0,0:0:0:0:
126,17,23725,2,0,L|212:21,1,80.9999975280762,0|8,1:2|0:0,0:0:0:0:
279,74,24423,2,0,B|330:86|361:51|345:44|377:10|422:17,1,161.999995056152,6|2,1:2|0:0,0:0:0:0:
504,174,25818,6,0,P|529:231|504:327,1,161.999995056152,2|2,1:2|0:0,0:0:0:0:
335,376,27213,1,2,1:2:0:0:
261,325,27562,1,2,0:0:0:0:
180,362,27911,1,2,0:0:0:0:
83,211,28609,6,0,L|-6:201,1,80.9999975280762,2|2,1:2|0:0,0:0:0:0:
19,114,29307,2,0,L|99:123,1,80.9999975280762,2|2,0:0|0:0,0:0:0:0:
172,72,30004,2,0,P|189:109|185:149,2,80.9999975280762,2|2|2,1:2|0:0|0:0,0:0:0:0:
109,239,31400,6,0,P|170:272|262:239,1,161.999995056152,2|2,1:2|0:0,0:0:0:0:
363,105,32795,2,0,P|424:72|516:105,1,161.999995056152,2|2,1:2|0:0,0:0:0:0:
505,275,34190,5,2,1:2:0:0:
444,340,34539,1,2,0:0:0:0:
359,366,34888,2,0,L|267:349,1,80.9999975280762,2|2,0:0|0:0,0:0:0:0:
245,268,35586,2,0,L|415:236,1,161.999995056152,2|2,0:0|1:2,0:0:0:0:
442,157,36632,1,8,0:0:0:0:
399,78,36981,6,0,P|340:54|252:100,1,161.999995056152,6|2,1:2|1:2,0:0:0:0:
127,217,38376,1,2,0:0:0:0:
106,303,38725,1,10,0:0:0:0:
165,369,39074,1,2,1:2:0:0:
343,370,39772,6,0,L|327:280,1,80.9999975280762,2|10,1:2|0:0,0:0:0:0:
390,225,40469,2,0,L|406:135,1,80.9999975280762,2|10,1:2|0:0,0:0:0:0:
367,63,41167,2,0,P|408:52|445:61,2,80.9999975280762,2|10|2,1:2|0:0|1:2,0:0:0:0:
291,110,42213,1,10,0:0:0:0:
221,54,42562,6,0,L|132:44,1,80.9999975280762,6|8,1:2|0:0,0:0:0:0:
65,92,43260,1,2,1:2:0:0:
116,164,43609,1,10,0:0:0:0:
60,234,43958,2,0,L|52:325,1,80.9999975280762,2|8,1:2|0:0,0:0:0:0:
123,369,44655,1,2,1:2:0:0:
198,321,45004,1,10,0:0:0:0:
270,373,45353,6,0,L|357:363,1,80.9999975280762,2|10,1:2|0:0,0:0:0:0:
369,276,46051,2,0,L|288:285,1,80.9999975280762,2|10,1:2|0:0,0:0:0:0:
217,231,46748,2,0,B|160:216|120:257|139:264|97:308|34:291,1,202.49999382019,6|12,1:2|1:2,0:0:0:0:
7,161,48144,6,0,P|41:98|134:98,1,161.999995056152,6|10,1:2|0:0,0:0:0:0:
196,144,49190,1,2,0:0:0:0:
265,88,49539,2,0,L|361:68,1,80.9999975280762,2|2,1:2|0:0,0:0:0:0:
397,142,50237,2,0,L|493:162,2,80.9999975280762,10|2|4,0:0|0:0|1:2,0:0:0:0:
329,199,51283,5,2,0:0:0:0:
329,199,51632,2,0,L|313:279,1,80.9999975280762,10|2,0:0|0:0,0:0:0:0:
356,356,52330,6,0,P|317:371|275:361,1,80.9999975280762,10|2,0:0|0:0,0:0:0:0:
217,299,53027,2,0,P|178:284|136:294,1,80.9999975280762,10|2,0:0|1:2,0:0:0:0:
68,344,53725,1,6,1:2:0:0:
68,344,55818,6,0,L|58:254,1,80.9999975280762,10|10,0:0|0:3,0:0:0:0:
95,181,56516,2,0,P|58:173|16:185,2,80.9999975280762,6|0|0,1:2|1:2|1:2,0:0:0:0:
166,234,57562,1,8,0:3:0:0:
235,178,57911,2,0,L|322:159,1,80.9999975280762,10|2,0:0|0:0,0:0:0:0:
386,212,58609,1,6,1:2:0:0:
474,198,58958,1,10,0:0:0:0:
510,116,59307,6,0,P|513:63|502:33,1,80.9999975280762,6|10,1:2|0:0,0:0:0:0:
417,16,60004,2,0,L|320:43,1,80.9999975280762,2|10,1:2|0:0,0:0:0:0:
262,84,60702,2,0,L|165:57,1,80.9999975280762,2|10,1:2|0:0,0:0:0:0:
99,90,61400,2,0,P|86:131|98:176,1,80.9999975280762,2|10,1:2|0:0,0:0:0:0:
151,234,62097,6,0,B|217:224|217:224|235:202|235:202|307:191,1,161.999995056152,2|2,1:2|1:2,0:0:0:0:
383,226,63144,1,10,0:0:0:0:
404,312,63493,1,2,1:2:0:0:
337,371,63841,1,10,0:0:0:0:
248,358,64190,2,0,P|203:346|163:354,1,80.9999975280762,2|8,1:2|0:0,0:0:0:0:
80,358,64888,6,0,P|49:291|77:200,1,161.999995056152,6|2,1:2|1:2,0:0:0:0:
138,151,65934,1,10,0:0:0:0:
212,102,66283,2,0,L|344:123,2,121.499996292114,2|2|8,1:2|0:0|0:0,0:0:0:0:
175,20,67679,5,2,1:2:0:0:
86,26,68027,1,10,0:0:0:0:
51,108,68376,2,0,B|58:154|58:154|71:174|71:174|82:238,2,121.499996292114,2|6|8,1:2|1:2|0:0,0:0:0:0:
11,88,69597,1,6,1:2:0:0:
39,308,70469,6,0,P|77:319|127:304,1,80.9999975280762,6|10,1:2|0:0,0:0:0:0:
190,259,71167,2,0,P|228:248|278:263,1,80.9999975280762,2|10,1:2|0:0,0:0:0:0:
347,296,71865,2,0,L|355:381,1,80.9999975280762,2|10,1:2|0:0,0:0:0:0:
442,359,72562,2,0,L|434:278,1,80.9999975280762,2|10,1:2|0:0,0:0:0:0:
489,207,73260,5,2,1:2:0:0:
512,121,73609,1,10,0:0:0:0:
457,50,73958,1,2,1:2:0:0:
368,60,74307,1,10,0:0:0:0:
335,142,74655,2,0,L|246:162,1,80.9999975280762,2|10,1:2|0:0,0:0:0:0:
169,180,75353,1,2,1:2:0:0:
92,133,75702,1,10,0:3:0:0:
117,47,76051,6,0,B|158:20|207:40|191:53|236:73|276:46,1,161.999995056152,6|10,1:2|0:0,0:0:0:0:
358,31,77097,1,2,1:2:0:0:
447,29,77446,1,10,0:0:0:0:
500,100,77795,1,10,0:0:0:0:
495,189,78144,1,10,0:0:0:0:
418,235,78493,1,10,0:0:0:0:
336,200,78841,6,0,L|243:189,1,80.9999975280762,6|2,1:2|1:2,0:0:0:0:
190,252,79539,2,0,L|97:263,1,80.9999975280762,0|10,1:2|1:2,0:0:0:0:
49,195,80237,2,0,P|18:257|68:342,1,161.999995056152,6|8,1:2|0:0,0:0:0:0:
141,361,81283,1,2,0:0:0:0:
230,357,81632,6,0,L|310:347,1,80.9999975280762,6|2,1:2|1:2,0:0:0:0:
399,339,82330,1,10,1:2:0:0:
464,222,82853,2,0,P|409:198|339:222,1,121.499996292114,6|0,1:2|1:2,0:0:0:0:
271,252,83725,2,0,L|254:161,1,80.9999975280762,8|8,0:0|0:3,0:0:0:0:
294,91,84423,6,0,B|246:82|246:82|224:89|224:89|167:80,1,121.499996292114,14|14,1:2|1:2,0:0:0:0:
51,30,85469,2,0,B|42:78|42:78|49:100|49:100|40:157,1,121.499996292114,14|14,1:2|1:2,0:0:0:0:
1,276,86516,2,0,B|49:285|49:285|71:278|71:278|128:287,1,121.499996292114,10|6,1:2|1:2,0:0:0:0:
256,192,87213,12,0,88609,0:0:0:0:
