osu file format v14

[General]
AudioFilename: audio.mp3
AudioLeadIn: 0
PreviewTime: 58173
Countdown: 0
SampleSet: Normal
StackLeniency: 0.7
Mode: 1
LetterboxInBreaks: 0
WidescreenStoryboard: 0

[Editor]
Bookmarks: 614,658,702,745,789,2010,2053,2097,2141,2185,7679,14568,14612,14656,14699,14743,25818,36981,48144,53725,59307,70469,81632,88609
DistanceSpacing: 1.5
BeatDivisor: 4
GridSize: 32
TimelineZoom: 2.4

[Metadata]
Title:Omoide Shiritori (TV Size)
TitleUnicode:おもいでしりとり (TV Size)
Artist:DIALOGUE+
ArtistUnicode:DIALOGUE+
Creator:Roger
Version:Inner Oni
Source:ひげを剃る。そして女子高生を拾う。
Tags:taiko op opening hige wo soru soshite joshi kousei wo hirou ひげひろ higehiro joshikousei after being rejected I shaved then I brought a high school girl home and took in runaway 思い出 田淵智也 tomoya tabuchi 内山悠里菜 uchiyama yurina 稗田寧々 hieda nene 守屋亨香 moriya kyoka 緒方佑奈 ogata yuna 鷹村彩花 takamura ayaka 宮原颯希 miyahara satsuki 飯塚麻結 iizuka mayu 村上まなつ murakami manatsu anime japanese pop jpop j-pop collab collaboration [R] Ron Volta ][ -GH- ][
BeatmapID:3007830
BeatmapSetID:1464452

[Difficulty]
HPDrainRate:6
CircleSize:2
OverallDifficulty:6
ApproachRate:0
SliderMultiplier:1.4
SliderTickRate:1

[Events]
//Background and Video events
0,0,"bg3.jpg",0,0
//Break Periods
//Storyboard Layer 0 (Background)
//Storyboard Layer 1 (Fail)
//Storyboard Layer 2 (Pass)
//Storyboard Layer 3 (Foreground)
//Storyboard Layer 4 (Overlay)
//Storyboard Sound Samples

[TimingPoints]
703,348.837209302326,4,1,0,60,1,0
703,-125,4,1,0,60,0,0
2098,348.837209302326,4,1,0,60,1,0
2098,-125,4,1,0,60,0,0
6196,-125,4,1,0,70,0,0
6371,-123.076923076923,4,1,0,70,0,0
6458,-121.212121212121,4,1,0,70,0,0
6632,-117.647058823529,4,1,0,70,0,0
6981,-111.111111111111,4,1,0,70,0,0
7025,-109.89010989011,4,1,0,70,0,0
7156,-108.108108108108,4,1,0,70,0,0
7330,-105.263157894737,4,1,0,70,0,0
7504,-102.564102564103,4,1,0,70,0,0
7679,-100,4,1,0,80,0,0
12911,-100,4,1,0,60,0,0
14394,-100,4,1,0,70,0,0
14656,348.837209302326,4,1,0,80,1,0
24336,-100,4,1,0,70,0,0
24423,-100,4,1,0,60,0,0
24510,-100,4,1,0,50,0,0
24946,-107.52688172043,4,1,0,50,0,0
25033,-109.289617486339,4,1,0,50,0,0
25121,-111.111111111111,4,1,0,50,0,0
25469,-117.647058823529,4,1,0,50,0,0
25731,-117.647058823529,4,1,0,60,0,0
25818,-125,4,1,0,70,0,0
36283,-119.047619047619,4,1,0,75,0,0
36458,-113.636363636364,4,1,0,75,0,0
36545,-111.111111111111,4,1,0,75,0,0
36632,-108.695652173913,4,1,0,75,0,0
36807,-104.166666666667,4,1,0,75,0,0
36981,-100,4,1,0,80,0,0
48144,-100,4,1,0,75,0,0
53725,-100,4,1,0,70,0,0
53812,-125,4,1,0,70,0,0
55818,-125,4,1,0,75,0,0
55993,-117.647058823529,4,1,0,75,0,0
56167,-111.111111111111,4,1,0,75,0,0
56342,-105.263157894737,4,1,0,75,0,0
56516,-100,4,1,0,80,0,0
59307,-100,4,1,0,90,0,1
81632,-100,4,1,0,80,0,0
87214,-100,4,1,0,60,0,0

[HitObjects]
480,352,2098,5,0,0:0:0:0:
480,352,2272,1,8,0:0:0:0:
480,352,2446,1,8,0:0:0:0:
480,352,2621,1,0,0:0:0:0:
480,352,2795,1,8,0:0:0:0:
480,352,3144,1,8,0:0:0:0:
480,352,3318,1,0,0:0:0:0:
480,352,3493,1,0,0:0:0:0:
480,352,3667,1,8,0:0:0:0:
480,352,3842,1,8,0:0:0:0:
480,352,4016,1,0,0:0:0:0:
480,352,4191,1,8,0:0:0:0:
480,352,4539,1,8,0:0:0:0:
480,352,4714,1,8,0:0:0:0:
480,352,4888,1,0,0:0:0:0:
480,352,5411,1,0,0:0:0:0:
480,352,5586,1,8,0:0:0:0:
480,352,5935,1,0,0:0:0:0:
480,352,6284,1,0,0:0:0:0:
480,352,6371,1,8,0:0:0:0:
480,352,6458,1,8,0:0:0:0:
480,352,6632,1,0,0:0:0:0:
480,352,6981,1,8,0:0:0:0:
480,352,7025,1,8,0:0:0:0:
480,352,7156,1,8,0:0:0:0:
480,352,7330,1,0,0:0:0:0:
480,352,7504,1,0,0:0:0:0:
480,352,7679,1,12,0:0:0:0:
480,352,8028,1,8,0:0:0:0:
480,352,8202,1,0,0:0:0:0:
480,352,8377,1,12,0:0:0:0:
480,352,8725,1,0,0:0:0:0:
480,352,8900,1,0,0:0:0:0:
480,352,9074,1,8,0:0:0:0:
480,352,9249,1,0,0:0:0:0:
480,352,9336,1,0,0:0:0:0:
480,352,9423,1,8,0:0:0:0:
480,352,9598,1,0,0:0:0:0:
480,352,9772,1,8,0:0:0:0:
480,352,9859,1,8,0:0:0:0:
480,352,9946,1,8,0:0:0:0:
480,352,10121,1,0,0:0:0:0:
480,352,10295,1,0,0:0:0:0:
480,352,10470,1,12,0:0:0:0:
480,352,10818,1,8,0:0:0:0:
480,352,10993,1,0,0:0:0:0:
480,352,11080,1,0,0:0:0:0:
480,352,11167,1,8,0:0:0:0:
480,352,11342,1,0,0:0:0:0:
480,352,11516,1,8,0:0:0:0:
480,352,11603,1,8,0:0:0:0:
480,352,11691,1,0,0:0:0:0:
480,352,11865,1,12,0:0:0:0:
480,352,12039,1,0,0:0:0:0:
480,352,12127,1,0,0:0:0:0:
480,352,12214,1,8,0:0:0:0:
480,352,12301,1,8,0:0:0:0:
480,352,12388,1,0,0:0:0:0:
480,352,12563,1,12,0:0:0:0:
480,352,12737,1,12,0:0:0:0:
480,352,14132,1,0,0:0:0:0:
480,352,14176,1,0,0:0:0:0:
480,352,14481,1,8,0:0:0:0:
480,352,14568,1,8,0:0:0:0:
480,352,14656,1,4,0:0:0:0:
480,352,15004,1,8,0:0:0:0:
480,352,15092,1,0,0:0:0:0:
480,352,15179,1,0,0:0:0:0:
480,352,15266,1,0,0:0:0:0:
480,352,15353,1,8,0:0:0:0:
480,352,15528,1,8,0:0:0:0:
480,352,15702,1,0,0:0:0:0:
480,352,15876,1,12,0:0:0:0:
480,352,16225,1,0,0:0:0:0:
480,352,16400,1,8,0:0:0:0:
480,352,16574,1,0,0:0:0:0:
480,352,16661,1,0,0:0:0:0:
480,352,16749,1,8,0:0:0:0:
480,352,16923,1,0,0:0:0:0:
480,352,17010,1,8,0:0:0:0:
480,352,17097,1,8,0:0:0:0:
480,352,17185,1,8,0:0:0:0:
480,352,17272,1,0,0:0:0:0:
480,352,17446,1,12,0:0:0:0:
480,352,17795,1,8,0:0:0:0:
480,352,17882,1,0,0:0:0:0:
480,352,17969,1,0,0:0:0:0:
480,352,18057,1,0,0:0:0:0:
480,352,18144,1,8,0:0:0:0:
480,352,18318,1,8,0:0:0:0:
480,352,18493,1,0,0:0:0:0:
480,352,18667,1,12,0:0:0:0:
480,352,19016,1,0,0:0:0:0:
480,352,19190,1,8,0:0:0:0:
480,352,19278,1,0,0:0:0:0:
480,352,19365,1,8,0:0:0:0:
480,352,19539,1,0,0:0:0:0:
480,352,19626,1,8,0:0:0:0:
480,352,19714,1,8,0:0:0:0:
480,352,19801,1,0,0:0:0:0:
480,352,19888,1,8,0:0:0:0:
480,352,19975,1,8,0:0:0:0:
480,352,20062,1,0,0:0:0:0:
480,352,20237,1,12,0:0:0:0:
480,352,20411,1,0,0:0:0:0:
480,352,20499,1,0,0:0:0:0:
480,352,20586,1,0,0:0:0:0:
480,352,20760,1,12,0:0:0:0:
480,352,20935,1,0,0:0:0:0:
480,352,21022,1,0,0:0:0:0:
480,352,21109,1,8,0:0:0:0:
480,352,21283,1,4,0:0:0:0:
480,352,21458,1,8,0:0:0:0:
480,352,21545,1,8,0:0:0:0:
480,352,21632,1,8,0:0:0:0:
480,352,21807,1,4,0:0:0:0:
480,352,21981,1,8,0:0:0:0:
480,352,22068,1,8,0:0:0:0:
480,352,22156,1,0,0:0:0:0:
480,352,22330,1,12,0:0:0:0:
480,352,22504,1,12,0:0:0:0:
480,352,22853,1,4,0:0:0:0:
480,352,23202,1,0,0:0:0:0:
480,352,23376,1,8,0:0:0:0:
480,352,23551,1,0,0:0:0:0:
480,352,23638,1,0,0:0:0:0:
480,352,23725,1,8,0:0:0:0:
480,352,23812,1,8,0:0:0:0:
480,352,23900,1,8,0:0:0:0:
480,352,24074,1,0,0:0:0:0:
480,352,24161,1,0,0:0:0:0:
480,352,24249,1,0,0:0:0:0:
480,352,24423,1,12,0:0:0:0:
480,352,24946,1,8,0:0:0:0:
480,352,25033,1,8,0:0:0:0:
480,352,25121,1,0,0:0:0:0:
480,352,25469,1,0,0:0:0:0:
480,352,25818,1,4,0:0:0:0:
480,352,26167,1,8,0:0:0:0:
480,352,26516,1,8,0:0:0:0:
480,352,26865,1,8,0:0:0:0:
480,352,27039,1,0,0:0:0:0:
480,352,27214,1,0,0:0:0:0:
480,352,27562,1,8,0:0:0:0:
480,352,27911,1,8,0:0:0:0:
480,352,28086,1,0,0:0:0:0:
480,352,28260,1,8,0:0:0:0:
480,352,28609,1,0,0:0:0:0:
480,352,28958,1,8,0:0:0:0:
480,352,29307,1,8,0:0:0:0:
480,352,29656,1,8,0:0:0:0:
480,352,29830,1,0,0:0:0:0:
480,352,30004,1,0,0:0:0:0:
480,352,30353,1,8,0:0:0:0:
480,352,30702,1,8,0:0:0:0:
480,352,30876,1,0,0:0:0:0:
480,352,31051,1,8,0:0:0:0:
480,352,31400,1,0,0:0:0:0:
480,352,31749,1,8,0:0:0:0:
480,352,32097,1,8,0:0:0:0:
480,352,32446,1,8,0:0:0:0:
480,352,32621,1,0,0:0:0:0:
480,352,32795,1,0,0:0:0:0:
480,352,33144,1,8,0:0:0:0:
480,352,33493,1,8,0:0:0:0:
480,352,33667,1,0,0:0:0:0:
480,352,33842,1,8,0:0:0:0:
480,352,34190,1,0,0:0:0:0:
480,352,34539,1,8,0:0:0:0:
480,352,34888,1,8,0:0:0:0:
480,352,35237,1,8,0:0:0:0:
480,352,35411,1,0,0:0:0:0:
480,352,35586,1,8,0:0:0:0:
480,352,36109,1,8,0:0:0:0:
480,352,36283,1,0,0:0:0:0:
480,352,36458,1,0,0:0:0:0:
480,352,36545,1,8,0:0:0:0:
480,352,36632,1,8,0:0:0:0:
480,352,36807,1,0,0:0:0:0:
480,352,36981,1,12,0:0:0:0:
480,352,37330,1,8,0:0:0:0:
480,352,37504,1,0,0:0:0:0:
480,352,37592,1,0,0:0:0:0:
480,352,37679,1,0,0:0:0:0:
480,352,37853,1,8,0:0:0:0:
480,352,38028,1,0,0:0:0:0:
480,352,38202,1,8,0:0:0:0:
480,352,38289,1,8,0:0:0:0:
480,352,38376,1,0,0:0:0:0:
480,352,38551,1,0,0:0:0:0:
480,352,38725,1,8,0:0:0:0:
480,352,38900,1,0,0:0:0:0:
480,352,38987,1,0,0:0:0:0:
480,352,39074,1,8,0:0:0:0:
480,352,39249,1,0,0:0:0:0:
480,352,39423,1,8,0:0:0:0:
480,352,39510,1,8,0:0:0:0:
480,352,39597,1,8,0:0:0:0:
480,352,39772,1,0,0:0:0:0:
480,352,40121,1,8,0:0:0:0:
480,352,40295,1,0,0:0:0:0:
480,352,40382,1,0,0:0:0:0:
480,352,40469,1,8,0:0:0:0:
480,352,40644,1,0,0:0:0:0:
480,352,40818,1,8,0:0:0:0:
480,352,40993,1,8,0:0:0:0:
480,352,41080,1,8,0:0:0:0:
480,352,41167,1,0,0:0:0:0:
480,352,41342,1,0,0:0:0:0:
480,352,41429,1,0,0:0:0:0:
480,352,41516,1,8,0:0:0:0:
480,352,41690,1,0,0:0:0:0:
480,352,41778,1,0,0:0:0:0:
480,352,41865,1,8,0:0:0:0:
480,352,41952,1,8,0:0:0:0:
480,352,42039,1,0,0:0:0:0:
480,352,42214,1,8,0:0:0:0:
480,352,42388,1,8,0:0:0:0:
480,352,42475,1,8,0:0:0:0:
480,352,42562,1,0,0:0:0:0:
480,352,42737,1,0,0:0:0:0:
480,352,42911,1,12,0:0:0:0:
480,352,43086,1,0,0:0:0:0:
480,352,43173,1,0,0:0:0:0:
480,352,43260,1,0,0:0:0:0:
480,352,43435,1,0,0:0:0:0:
480,352,43609,1,8,0:0:0:0:
480,352,43783,1,0,0:0:0:0:
480,352,43871,1,8,0:0:0:0:
480,352,43958,1,0,0:0:0:0:
480,352,44132,1,0,0:0:0:0:
480,352,44307,1,12,0:0:0:0:
480,352,44481,1,8,0:0:0:0:
480,352,44568,1,8,0:0:0:0:
480,352,44656,1,0,0:0:0:0:
480,352,44830,1,0,0:0:0:0:
480,352,44917,1,0,0:0:0:0:
480,352,45004,1,8,0:0:0:0:
480,352,45179,1,0,0:0:0:0:
480,352,45353,1,12,0:0:0:0:
480,352,45702,1,8,0:0:0:0:
480,352,45789,1,8,0:0:0:0:
480,352,45876,1,0,0:0:0:0:
480,352,45964,1,0,0:0:0:0:
480,352,46051,1,8,0:0:0:0:
480,352,46225,1,0,0:0:0:0:
480,352,46400,1,8,0:0:0:0:
480,352,46487,1,8,0:0:0:0:
480,352,46574,1,8,0:0:0:0:
480,352,46749,1,4,0:0:0:0:
480,352,47097,1,0,0:0:0:0:
480,352,47185,1,0,0:0:0:0:
480,352,47272,1,0,0:0:0:0:
480,352,47446,1,12,0:0:0:0:
480,352,47621,1,12,0:0:0:0:
480,352,47969,1,8,0:0:0:0:
480,352,48144,1,4,0:0:0:0:
480,352,48318,1,0,0:0:0:0:
480,352,48493,1,8,0:0:0:0:
480,352,48667,1,0,0:0:0:0:
480,352,48754,1,0,0:0:0:0:
480,352,48842,1,8,0:0:0:0:
480,352,49190,1,0,0:0:0:0:
480,352,49365,1,8,0:0:0:0:
480,352,49452,1,8,0:0:0:0:
480,352,49539,1,0,0:0:0:0:
480,352,49714,1,8,0:0:0:0:
480,352,49888,1,0,0:0:0:0:
480,352,50062,1,0,0:0:0:0:
480,352,50150,1,0,0:0:0:0:
480,352,50237,1,8,0:0:0:0:
480,352,50411,1,0,0:0:0:0:
480,352,50586,1,8,0:0:0:0:
480,352,50673,1,8,0:0:0:0:
480,352,50760,1,8,0:0:0:0:
480,352,50935,1,4,0:0:0:0:
480,352,51109,1,8,0:0:0:0:
480,352,51283,1,0,0:0:0:0:
480,352,51458,1,0,0:0:0:0:
480,352,51545,1,0,0:0:0:0:
480,352,51632,1,8,0:0:0:0:
480,352,51981,1,0,0:0:0:0:
480,352,52156,1,8,0:0:0:0:
480,352,52243,1,8,0:0:0:0:
480,352,52330,1,0,0:0:0:0:
480,352,52504,1,8,0:0:0:0:
480,352,52679,1,0,0:0:0:0:
480,352,52853,1,0,0:0:0:0:
480,352,52940,1,0,0:0:0:0:
480,352,53028,1,8,0:0:0:0:
480,352,53202,1,0,0:0:0:0:
480,352,53289,1,0,0:0:0:0:
480,352,53376,1,0,0:0:0:0:
480,352,53551,1,8,0:0:0:0:
480,352,53725,1,4,0:0:0:0:
480,352,55818,1,8,0:0:0:0:
480,352,55993,1,0,0:0:0:0:
480,352,56167,1,0,0:0:0:0:
480,352,56342,1,0,0:0:0:0:
480,352,56516,1,12,0:0:0:0:
480,352,56690,1,0,0:0:0:0:
480,352,56865,1,8,0:0:0:0:
480,352,56952,1,0,0:0:0:0:
480,352,57039,1,8,0:0:0:0:
480,352,57214,1,0,0:0:0:0:
480,352,57301,1,0,0:0:0:0:
480,352,57388,1,8,0:0:0:0:
480,352,57475,1,0,0:0:0:0:
480,352,57562,1,8,0:0:0:0:
480,352,57650,1,8,0:0:0:0:
480,352,57737,1,0,0:0:0:0:
480,352,57911,1,12,0:0:0:0:
480,352,58086,1,12,0:0:0:0:
480,352,58609,1,8,0:0:0:0:
480,352,58696,1,8,0:0:0:0:
480,352,58783,1,0,0:0:0:0:
480,352,58871,1,0,0:0:0:0:
480,352,58958,1,8,0:0:0:0:
480,352,59045,1,8,0:0:0:0:
480,352,59132,1,8,0:0:0:0:
480,352,59307,1,4,0:0:0:0:
480,352,59481,1,8,0:0:0:0:
480,352,59568,1,8,0:0:0:0:
480,352,59656,1,0,0:0:0:0:
480,352,59830,1,8,0:0:0:0:
480,352,60004,1,0,0:0:0:0:
480,352,60092,1,0,0:0:0:0:
480,352,60179,1,8,0:0:0:0:
480,352,60266,1,8,0:0:0:0:
480,352,60353,1,0,0:0:0:0:
480,352,60528,1,8,0:0:0:0:
480,352,60702,1,0,0:0:0:0:
480,352,60876,1,0,0:0:0:0:
480,352,60964,1,0,0:0:0:0:
480,352,61051,1,8,0:0:0:0:
480,352,61225,1,0,0:0:0:0:
480,352,61400,1,8,0:0:0:0:
480,352,61487,1,8,0:0:0:0:
480,352,61574,1,0,0:0:0:0:
480,352,61661,1,0,0:0:0:0:
480,352,61749,1,8,0:0:0:0:
480,352,61923,1,0,0:0:0:0:
480,352,62097,1,12,0:0:0:0:
480,352,62446,1,8,0:0:0:0:
480,352,62621,1,0,0:0:0:0:
480,352,62708,1,0,0:0:0:0:
480,352,62795,1,8,0:0:0:0:
480,352,62969,1,0,0:0:0:0:
480,352,63144,1,8,0:0:0:0:
480,352,63231,1,8,0:0:0:0:
480,352,63318,1,8,0:0:0:0:
480,352,63493,1,0,0:0:0:0:
480,352,63667,1,8,0:0:0:0:
480,352,63754,1,8,0:0:0:0:
480,352,63842,1,0,0:0:0:0:
480,352,64016,1,8,0:0:0:0:
480,352,64103,1,8,0:0:0:0:
480,352,64190,1,0,0:0:0:0:
480,352,64278,1,0,0:0:0:0:
480,352,64365,1,0,0:0:0:0:
480,352,64539,1,8,0:0:0:0:
480,352,64714,1,0,0:0:0:0:
480,352,64888,1,4,0:0:0:0:
480,352,65062,1,8,0:0:0:0:
480,352,65150,1,8,0:0:0:0:
480,352,65237,1,0,0:0:0:0:
480,352,65411,1,8,0:0:0:0:
480,352,65586,1,0,0:0:0:0:
480,352,65760,1,0,0:0:0:0:
480,352,65847,1,0,0:0:0:0:
480,352,65935,1,8,0:0:0:0:
480,352,66109,1,0,0:0:0:0:
480,352,66283,1,8,0:0:0:0:
480,352,66371,1,8,0:0:0:0:
480,352,66458,1,0,0:0:0:0:
480,352,66545,1,0,0:0:0:0:
480,352,66632,1,8,0:0:0:0:
480,352,66807,1,0,0:0:0:0:
480,352,66894,1,8,0:0:0:0:
480,352,66981,1,0,0:0:0:0:
480,352,67156,1,0,0:0:0:0:
480,352,67330,1,8,0:0:0:0:
480,352,67504,1,0,0:0:0:0:
480,352,67592,1,0,0:0:0:0:
480,352,67679,1,8,0:0:0:0:
480,352,67853,1,8,0:0:0:0:
480,352,67940,1,0,0:0:0:0:
480,352,68028,1,8,0:0:0:0:
480,352,68115,1,8,0:0:0:0:
480,352,68202,1,0,0:0:0:0:
480,352,68289,1,0,0:0:0:0:
480,352,68376,1,8,0:0:0:0:
480,352,68551,1,0,0:0:0:0:
480,352,68725,1,0,0:0:0:0:
480,352,68900,1,12,0:0:0:0:
480,352,69249,1,8,0:0:0:0:
480,352,69423,1,0,0:0:0:0:
480,352,69597,1,12,0:0:0:0:
480,352,69772,1,0,0:0:0:0:
480,352,69859,1,0,0:0:0:0:
480,352,69946,1,8,0:0:0:0:
480,352,70033,1,8,0:0:0:0:
480,352,70121,1,0,0:0:0:0:
480,352,70208,1,0,0:0:0:0:
480,352,70295,1,0,0:0:0:0:
480,352,70469,1,12,0:0:0:0:
480,352,70644,1,0,0:0:0:0:
480,352,70731,1,0,0:0:0:0:
480,352,70818,1,8,0:0:0:0:
480,352,70993,1,0,0:0:0:0:
480,352,71167,1,8,0:0:0:0:
480,352,71254,1,8,0:0:0:0:
480,352,71342,1,0,0:0:0:0:
480,352,71429,1,0,0:0:0:0:
480,352,71516,1,8,0:0:0:0:
480,352,71690,1,0,0:0:0:0:
480,352,71865,1,8,0:0:0:0:
480,352,72039,1,8,0:0:0:0:
480,352,72126,1,8,0:0:0:0:
480,352,72214,1,0,0:0:0:0:
480,352,72388,1,8,0:0:0:0:
480,352,72562,1,0,0:0:0:0:
480,352,72650,1,0,0:0:0:0:
480,352,72737,1,8,0:0:0:0:
480,352,72824,1,8,0:0:0:0:
480,352,72911,1,0,0:0:0:0:
480,352,73086,1,8,0:0:0:0:
480,352,73260,1,0,0:0:0:0:
480,352,73435,1,0,0:0:0:0:
480,352,73522,1,0,0:0:0:0:
480,352,73609,1,8,0:0:0:0:
480,352,73783,1,8,0:0:0:0:
480,352,73871,1,0,0:0:0:0:
480,352,73958,1,8,0:0:0:0:
480,352,74045,1,8,0:0:0:0:
480,352,74132,1,0,0:0:0:0:
480,352,74219,1,0,0:0:0:0:
480,352,74307,1,8,0:0:0:0:
480,352,74481,1,8,0:0:0:0:
480,352,74568,1,8,0:0:0:0:
480,352,74656,1,0,0:0:0:0:
480,352,74743,1,8,0:0:0:0:
480,352,74830,1,0,0:0:0:0:
480,352,74917,1,0,0:0:0:0:
480,352,75004,1,8,0:0:0:0:
480,352,75179,1,0,0:0:0:0:
480,352,75353,1,0,0:0:0:0:
480,352,75440,1,0,0:0:0:0:
480,352,75528,1,0,0:0:0:0:
480,352,75702,1,8,0:0:0:0:
480,352,75876,1,8,0:0:0:0:
480,352,76051,1,4,0:0:0:0:
480,352,76400,1,8,0:0:0:0:
480,352,76574,1,0,0:0:0:0:
480,352,76749,1,12,0:0:0:0:
480,352,77097,1,0,0:0:0:0:
480,352,77272,1,0,0:0:0:0:
480,352,77446,1,8,0:0:0:0:
480,352,77621,1,0,0:0:0:0:
480,352,77708,1,0,0:0:0:0:
480,352,77795,1,8,0:0:0:0:
480,352,77969,1,0,0:0:0:0:
480,352,78057,1,0,0:0:0:0:
480,352,78144,1,8,0:0:0:0:
480,352,78231,1,8,0:0:0:0:
480,352,78318,1,8,0:0:0:0:
480,352,78493,1,0,0:0:0:0:
480,352,78667,1,0,0:0:0:0:
480,352,78842,1,12,0:0:0:0:
480,352,79190,1,8,0:0:0:0:
480,352,79278,1,0,0:0:0:0:
480,352,79365,1,0,0:0:0:0:
480,352,79452,1,0,0:0:0:0:
480,352,79539,1,8,0:0:0:0:
480,352,79626,1,0,0:0:0:0:
480,352,79714,1,8,0:0:0:0:
480,352,79801,1,0,0:0:0:0:
480,352,79888,1,8,0:0:0:0:
480,352,79975,1,8,0:0:0:0:
480,352,80062,1,0,0:0:0:0:
480,352,80237,1,12,0:0:0:0:
480,352,80586,1,0,0:0:0:0:
480,352,80673,1,0,0:0:0:0:
480,352,80760,1,0,0:0:0:0:
480,352,80935,1,12,0:0:0:0:
480,352,81109,1,12,0:0:0:0:
480,352,81632,1,4,0:0:0:0:
480,352,81981,1,8,0:0:0:0:
480,352,82068,1,0,0:0:0:0:
480,352,82156,1,0,0:0:0:0:
480,352,82243,1,0,0:0:0:0:
480,352,82330,1,8,0:0:0:0:
480,352,82504,1,8,0:0:0:0:
480,352,82679,1,0,0:0:0:0:
480,352,82853,1,12,0:0:0:0:
480,352,83202,1,0,0:0:0:0:
480,352,83376,1,8,0:0:0:0:
480,352,83551,1,0,0:0:0:0:
480,352,83638,1,0,0:0:0:0:
480,352,83725,1,8,0:0:0:0:
480,352,83900,1,0,0:0:0:0:
480,352,83987,1,8,0:0:0:0:
480,352,84074,1,8,0:0:0:0:
480,352,84161,1,8,0:0:0:0:
480,352,84249,1,0,0:0:0:0:
480,352,84423,1,12,0:0:0:0:
480,352,84597,1,0,0:0:0:0:
480,352,84685,1,0,0:0:0:0:
480,352,84772,1,0,0:0:0:0:
480,352,84946,1,12,0:0:0:0:
480,352,85121,1,0,0:0:0:0:
480,352,85208,1,0,0:0:0:0:
480,352,85295,1,8,0:0:0:0:
480,352,85469,1,4,0:0:0:0:
480,352,85644,1,8,0:0:0:0:
480,352,85731,1,8,0:0:0:0:
480,352,85818,1,8,0:0:0:0:
480,352,85993,1,4,0:0:0:0:
480,352,86167,1,8,0:0:0:0:
480,352,86254,1,8,0:0:0:0:
480,352,86342,1,0,0:0:0:0:
480,352,86516,1,12,0:0:0:0:
480,352,86690,1,12,0:0:0:0:
480,352,87039,1,4,0:0:0:0:
256,192,87214,8,0,88609,0:0:0:0:
