osu file format v14

[General]
AudioFilename: audio.mp3
AudioLeadIn: 0
PreviewTime: 58173
Countdown: 0
SampleSet: Normal
StackLeniency: 0.7
Mode: 1
LetterboxInBreaks: 0
WidescreenStoryboard: 0

[Editor]
Bookmarks: 614,658,702,745,789,2010,2053,2097,2141,2185,7679,14568,14612,14656,14699,14743,25818,36981,48144,53725,59307,70469,81632,88609
DistanceSpacing: 1.5
BeatDivisor: 2
GridSize: 32
TimelineZoom: 1.9

[Metadata]
Title:Omoide Shiritori (TV Size)
TitleUnicode:おもいでしりとり (TV Size)
Artist:DIALOGUE+
ArtistUnicode:DIALOGUE+
Creator:Roger
Version:[R]oger's Kantan
Source:ひげを剃る。そして女子高生を拾う。
Tags:taiko op opening hige wo soru soshite joshi kousei wo hirou ひげひろ higehiro joshikousei after being rejected I shaved then I brought a high school girl home and took in runaway 思い出 田淵智也 tomoya tabuchi 内山悠里菜 uchiyama yurina 稗田寧々 hieda nene 守屋亨香 moriya kyoka 緒方佑奈 ogata yuna 鷹村彩花 takamura ayaka 宮原颯希 miyahara satsuki 飯塚麻結 iizuka mayu 村上まなつ murakami manatsu anime japanese pop jpop j-pop collab collaboration [R] Ron Volta ][ -GH- ][
BeatmapID:3007829
BeatmapSetID:1464452

[Difficulty]
HPDrainRate:8
CircleSize:2
OverallDifficulty:3
ApproachRate:0
SliderMultiplier:1.2
SliderTickRate:1

[Events]
//Background and Video events
0,0,"bg1.jpg",0,0
//Break Periods
//Storyboard Layer 0 (Background)
//Storyboard Layer 1 (Fail)
//Storyboard Layer 2 (Pass)
//Storyboard Layer 3 (Foreground)
//Storyboard Layer 4 (Overlay)
//Storyboard Sound Samples

[TimingPoints]
703,348.837209302326,4,1,0,60,1,0
2098,348.837209302326,4,1,0,60,1,0
6196,-100,4,1,0,70,0,0
7679,-100,4,1,0,80,0,0
12911,-100,4,1,0,60,0,0
14394,-100,4,1,0,70,0,0
14656,348.837209302326,4,1,0,80,1,0
24336,-100,4,1,0,70,0,0
24423,-100,4,1,0,60,0,0
24510,-100,4,1,0,50,0,0
25731,-100,4,1,0,60,0,0
25818,-100,4,1,0,70,0,0
36283,-100,4,1,0,75,0,0
36981,-100,4,1,0,80,0,0
48144,-100,4,1,0,75,0,0
53725,-100,4,1,0,70,0,0
53812,-100,4,1,0,70,0,0
55818,-100,4,1,0,75,0,0
56516,-100,4,1,0,80,0,0
59307,-100,4,1,0,90,0,1
81632,-100,4,1,0,80,0,0
87214,-100,4,1,0,60,0,0

[HitObjects]
32,352,2098,5,0,0:0:0:0:
32,352,3493,1,8,0:0:0:0:
32,352,4888,1,0,0:0:0:0:
32,352,6284,1,8,0:0:0:0:
32,352,6981,1,0,0:0:0:0:
32,352,7679,1,12,0:0:0:0:
32,352,8377,1,12,0:0:0:0:
32,352,9074,1,8,0:0:0:0:
32,352,9423,1,8,0:0:0:0:
32,352,9772,1,8,0:0:0:0:
32,352,10470,1,0,0:0:0:0:
32,352,11167,1,8,0:0:0:0:
32,352,11516,1,8,0:0:0:0:
32,352,11865,1,0,0:0:0:0:
32,352,12563,1,8,0:0:0:0:
32,352,14656,1,4,0:0:0:0:
32,352,15353,1,0,0:0:0:0:
32,352,15876,1,8,0:0:0:0:
32,352,16225,1,0,0:0:0:0:
32,352,16574,1,0,0:0:0:0:
32,352,17446,1,4,0:0:0:0:
32,352,18144,1,0,0:0:0:0:
32,352,18667,1,8,0:0:0:0:
32,352,19016,1,8,0:0:0:0:
32,352,19365,1,8,0:0:0:0:
32,352,20237,1,12,0:0:0:0:
32,352,21283,1,12,0:0:0:0:
32,352,22330,1,8,0:0:0:0:
32,352,22853,1,4,0:0:0:0:
32,352,23725,1,8,0:0:0:0:
32,352,24074,1,8,0:0:0:0:
32,352,24423,1,0,0:0:0:0:
32,352,25818,1,4,0:0:0:0:
32,352,27214,1,8,0:0:0:0:
32,352,28609,1,0,0:0:0:0:
32,352,30004,1,8,0:0:0:0:
32,352,30702,1,8,0:0:0:0:
32,352,31400,1,0,0:0:0:0:
32,352,32795,1,8,0:0:0:0:
32,352,34190,1,0,0:0:0:0:
32,352,35586,1,8,0:0:0:0:
32,352,36283,1,0,0:0:0:0:
32,352,36981,1,12,0:0:0:0:
32,352,37679,1,0,0:0:0:0:
32,352,38376,1,0,0:0:0:0:
32,352,38725,1,8,0:0:0:0:
32,352,39074,1,0,0:0:0:0:
32,352,39772,1,8,0:0:0:0:
32,352,40469,1,8,0:0:0:0:
32,352,41167,1,0,0:0:0:0:
32,352,42562,1,0,0:0:0:0:
32,352,43260,1,8,0:0:0:0:
32,352,43609,1,8,0:0:0:0:
32,352,43958,1,0,0:0:0:0:
32,352,44656,1,0,0:0:0:0:
32,352,45004,1,0,0:0:0:0:
32,352,45353,1,8,0:0:0:0:
32,352,46051,1,8,0:0:0:0:
32,352,46749,1,4,0:0:0:0:
32,352,48144,1,0,0:0:0:0:
32,352,48842,1,8,0:0:0:0:
32,352,49539,1,0,0:0:0:0:
32,352,49888,1,0,0:0:0:0:
32,352,50237,1,8,0:0:0:0:
32,352,50935,1,0,0:0:0:0:
32,352,51632,1,8,0:0:0:0:
32,352,52330,1,8,0:0:0:0:
32,352,52679,1,0,0:0:0:0:
32,352,53028,1,8,0:0:0:0:
32,352,53725,1,4,0:0:0:0:
32,352,55818,1,8,0:0:0:0:
32,352,56516,1,0,0:0:0:0:
32,352,57039,1,0,0:0:0:0:
32,352,57562,1,0,0:0:0:0:
32,352,57911,1,8,0:0:0:0:
32,352,59307,1,4,0:0:0:0:
32,352,60004,1,8,0:0:0:0:
32,352,60702,1,0,0:0:0:0:
32,352,61051,1,8,0:0:0:0:
32,352,61400,1,8,0:0:0:0:
32,352,62097,1,0,0:0:0:0:
32,352,62795,1,8,0:0:0:0:
32,352,63144,1,8,0:0:0:0:
32,352,63493,1,0,0:0:0:0:
32,352,63842,1,8,0:0:0:0:
32,352,64190,1,8,0:0:0:0:
32,352,64888,1,4,0:0:0:0:
32,352,65935,1,8,0:0:0:0:
32,352,66283,1,0,0:0:0:0:
32,352,66632,1,8,0:0:0:0:
32,352,67679,1,0,0:0:0:0:
32,352,68376,1,8,0:0:0:0:
32,352,68900,1,8,0:0:0:0:
32,352,69772,1,0,0:0:0:0:
32,352,70469,1,12,0:0:0:0:
32,352,71167,1,8,0:0:0:0:
32,352,71516,1,8,0:0:0:0:
32,352,71865,1,0,0:0:0:0:
32,352,72562,1,8,0:0:0:0:
32,352,73260,1,0,0:0:0:0:
32,352,73609,1,0,0:0:0:0:
32,352,73958,1,8,0:0:0:0:
32,352,74656,1,8,0:0:0:0:
32,352,75004,1,0,0:0:0:0:
32,352,76051,1,4,0:0:0:0:
32,352,76749,1,8,0:0:0:0:
32,352,77446,1,8,0:0:0:0:
32,352,77795,1,8,0:0:0:0:
32,352,78144,1,8,0:0:0:0:
32,352,78842,1,0,0:0:0:0:
32,352,79539,1,8,0:0:0:0:
32,352,79888,1,8,0:0:0:0:
32,352,80237,1,0,0:0:0:0:
32,352,80935,1,8,0:0:0:0:
32,352,81632,1,4,0:0:0:0:
32,352,82330,1,0,0:0:0:0:
32,352,82853,1,8,0:0:0:0:
32,352,83202,1,0,0:0:0:0:
32,352,83551,1,0,0:0:0:0:
32,352,84423,1,12,0:0:0:0:
32,352,85469,1,12,0:0:0:0:
32,352,86516,1,8,0:0:0:0:
32,352,87039,1,4,0:0:0:0:
256,192,87214,8,0,88609,0:0:0:0:
