osu file format v14

[General]
AudioFilename: audio.mp3
AudioLeadIn: 0
PreviewTime: 58252
Countdown: 0
SampleSet: Soft
StackLeniency: 0.7
Mode: 3
LetterboxInBreaks: 0
SpecialStyle: 0
WidescreenStoryboard: 1

[Editor]
DistanceSpacing: 1.5
BeatDivisor: 4
GridSize: 4
TimelineZoom: 2.299999

[Metadata]
Title:Omoide Shiritori (TV Size)
TitleUnicode:おもいでしりとり (TV Size)
Artist:DIALOGUE+
ArtistUnicode:DIALOGUE+
Creator:Mirea
Version:7K Easy
Source:ひげを剃る。そして女子高生を拾う。
Tags:After Being Rejected, I Shaved Then I Brought a High School Girl Home Higehiro Hige wo Soru Soshite Joshikousei wo Hirou anime japanese pop jpop j-pop idol group opening op PCCG-02010 Syadow- Yukari_Sama atian540 Al-Reina cryochan Sies AchsanLovers FAMoss 内山悠里菜 Uchiyama Yurina 稗田寧々Hieda Nene 守屋亨香 Moriya Kyoka 緒方佑奈 Ogata Yuna 鷹村彩花 Takamura Ayaka 宮原颯希 Miyahara Satsuki 飯塚麻結 Iizuka Mayu 村上まなつ Murakami Manatsu 田淵智也 Tomoya Tabuchi 睦月周平 Shuhei Mutsuki 古屋真 Makoto Furuya 広川恵一 Keiichi Hirokawa 荻原 沙優 Ogiwara Sayu 市ノ瀬 加那 Ichinose Kana 吉田 Yoshida 興津 和幸 Okitsu Kazuyuki 後藤 愛依梨 Gotou Airi 金元 寿子 Kanemoto Hisako
BeatmapID:3102198
BeatmapSetID:1425200

[Difficulty]
HPDrainRate:6.5
CircleSize:7
OverallDifficulty:6.5
ApproachRate:5
SliderMultiplier:1.4
SliderTickRate:1

[Events]
//Background and Video events
0,0,"jebol.png",0,0
//Break Periods
//Storyboard Layer 0 (Background)
//Storyboard Layer 1 (Fail)
//Storyboard Layer 2 (Pass)
//Storyboard Layer 3 (Foreground)
//Storyboard Layer 4 (Overlay)
//Storyboard Sound Samples
Sample,520,0,"F#6S_Gb6S_s.wav",80
Sample,578,0,"A#6S_Bb6S_s.wav",80
Sample,636,0,"C#7S_Db7S_s.wav",80
Sample,869,0,"C#7S_Db7S_s.wav",80
Sample,1043,0,"G#7S_Ab7S_s.wav",80
Sample,1217,0,"F#7S_Gb7S_s.wav",80
Sample,1392,0,"F#7S_Gb7S_s.wav",80
Sample,1566,0,"C#7S_Db7S_s.wav",80
Sample,1741,0,"G#7S_Ab7S_s.wav",80
Sample,1915,0,"F#7S_Gb7S_s.wav",80
Sample,2264,0,"F#6S_Gb6S_s.wav",100
Sample,2264,0,"C#6S_Db6S_s.wav",80
Sample,2438,0,"F#6S_Gb6S_s.wav",80
Sample,2613,0,"G#6S_Ab6S_s.wav",100
Sample,2787,0,"C#7S_Db7S_s.wav",80
Sample,2962,0,"C#6S_Db6S_s.wav",80
Sample,3136,0,"F#6S_Gb6S_s.wav",80
Sample,3310,0,"F#6S_Gb6S_s.wav",100
Sample,3659,0,"F#6S_Gb6S_s.wav",100
Sample,3659,0,"C#6S_Db6S_s.wav",80
Sample,3834,0,"F#6S_Gb6S_s.wav",80
Sample,4008,0,"G#6S_Ab6S_s.wav",100
Sample,4183,0,"C#7S_Db7S_s.wav",80
Sample,4357,0,"C#6S_Db6S_s.wav",80
Sample,4531,0,"F#6S_Gb6S_s.wav",80
Sample,4706,0,"C#6S_Db6S_s.wav",80
Sample,4706,0,"F#6S_Gb6S_s.wav",100
Sample,5055,0,"C#6S_Db6S_s.wav",80
Sample,5403,0,"G#6S_Ab6S_s.wav",100
Sample,5578,0,"C#7S_Db7S_s.wav",80
Sample,6450,0,"F#7S_Gb7S_s.wav",80
Sample,6624,0,"F7S_s.wav",80
Sample,6799,0,"C#7S_Db7S_s.wav",80
Sample,6973,0,"A#6S_Bb6S_s.wav",80
Sample,24938,0,"A#5S_Bb5S_s.wav",80
Sample,25026,0,"G#5S_Ab5S_s.wav",80
Sample,35621,0,"F#7S_Gb7S_s.wav",80
Sample,53892,0,"D#6S_Eb6S_s.wav",80
Sample,54066,0,"F#6S_Gb6S_s.wav",80
Sample,54241,0,"G#6S_Ab6S_s.wav",80
Sample,54415,0,"B5S_s.wav",80
Sample,54590,0,"D#6S_Eb6S_s.wav",80
Sample,54764,0,"F#6S_Gb6S_s.wav",80
Sample,54938,0,"B5S_s.wav",80
Sample,55287,0,"A#6S_Bb6S_s.wav",80
Sample,55462,0,"B5S_s.wav",80
Sample,55636,0,"D#6S_Eb6S_s.wav",80

[TimingPoints]
2090,348.837209302326,4,2,1,70,1,0
59299,-100,4,2,1,70,0,1
75345,-100,4,2,1,70,0,0
76043,-100,4,2,1,70,0,1
81624,-100,4,2,1,70,0,0

[HitObjects]
475,192,694,128,0,2089:0:0:0:80:F#7S_Gb7S_s.wav
36,192,2089,1,0,0:0:0:100:F#6S_Gb6S_s.wav
256,192,2089,1,0,0:0:0:80:C#7S_Db7S_s.wav
109,192,2438,1,0,0:0:0:100:G#6S_Ab6S_s.wav
402,192,2787,1,0,0:0:0:100:A#6S_Bb6S_s.wav
329,192,3136,1,0,0:0:0:100:G#6S_Ab6S_s.wav
182,192,3485,1,0,0:0:0:100:F#6S_Gb6S_s.wav
475,192,3485,1,0,0:0:0:80:C#7S_Db7S_s.wav
109,192,3834,1,0,0:0:0:100:G#6S_Ab6S_s.wav
402,192,4183,1,0,0:0:0:100:A#6S_Bb6S_s.wav
329,192,4531,1,0,0:0:0:100:G#6S_Ab6S_s.wav
36,192,4880,1,0,0:0:0:100:A#6S_Bb6S_s.wav
256,192,4880,1,0,0:0:0:80:C#7S_Db7S_s.wav
182,192,5229,1,0,0:0:0:80:F#6S_Gb6S_s.wav
475,192,5578,1,0,0:0:0:100:G#6S_Ab6S_s.wav
329,192,5927,1,0,0:0:0:80:F#6S_Gb6S_s.wav
402,192,6276,1,0,0:0:0:80:F6S_s.wav
182,192,6450,1,8,0:0:0:0:
329,192,6624,1,0,0:0:0:70:TOM_1.wav
109,192,6973,1,8,0:0:0:0:
182,192,7322,1,0,0:0:0:70:TOM_3.wav
329,192,7671,1,2,0:0:0:0:
475,192,7671,1,4,0:0:0:0:
36,192,8369,1,2,0:0:0:0:
182,192,8369,1,4,0:0:0:0:
36,192,9066,128,4,9415:0:0:0:0:
475,192,9066,1,2,0:0:0:0:
256,192,9415,128,8,9764:0:0:0:0:
475,192,9764,128,6,10113:0:0:0:0:
182,192,10113,1,2,0:0:0:0:
109,192,10462,1,4,0:0:0:0:
402,192,10462,1,2,0:0:0:0:
36,192,10810,1,2,0:0:0:0:
256,192,11159,1,2,0:0:0:0:
182,192,11508,1,0,0:0:0:70:TOM_2.wav
36,192,11857,128,2,12555:0:0:0:0:
402,192,11857,1,4,0:0:0:0:
329,192,12555,1,2,0:0:0:0:
475,192,12729,1,2,0:0:0:0:
329,192,14124,1,0,0:0:0:100:LR_NBell_C#6.wav
36,192,14648,1,4,0:0:0:0:
256,192,14648,128,2,14996:0:0:0:0:
475,192,14996,128,6,15345:0:0:0:0:
182,192,15345,1,10,0:0:0:0:
36,192,15520,1,10,0:0:0:0:
329,192,15869,1,4,0:0:0:0:
475,192,15869,1,8,0:0:0:0:
109,192,16392,1,12,0:0:0:0:
182,192,16741,1,6,0:0:0:0:
36,192,17090,1,2,0:0:0:0:
256,192,17438,128,2,17787:0:0:0:0:
475,192,17438,1,4,0:0:0:0:
36,192,17787,128,6,18136:0:0:0:0:
329,192,18136,1,10,0:0:0:0:
475,192,18310,1,10,0:0:0:0:
36,192,18659,1,8,0:0:0:0:
182,192,18659,1,4,0:0:0:0:
256,192,19183,1,6,0:0:0:0:
329,192,19531,1,6,0:0:0:0:
109,192,19880,1,10,0:0:0:0:
256,192,20229,1,4,0:0:0:0:
475,192,20229,1,2,0:0:0:0:
182,192,20752,1,2,0:0:0:0:
402,192,20752,1,0,0:0:0:0:
36,192,21276,1,2,0:0:0:0:
256,192,21276,1,4,0:0:0:0:
109,192,21799,1,10,0:0:0:0:
329,192,21799,1,4,0:0:0:0:
182,192,22322,1,2,0:0:0:0:
36,192,22496,1,2,0:0:0:0:
329,192,22845,1,2,0:0:0:0:
475,192,22845,1,4,0:0:0:0:
256,192,23369,1,14,0:0:0:0:
109,192,23717,1,6,0:0:0:0:
402,192,24066,1,12,0:0:0:0:
36,192,24415,1,6,0:0:0:0:
256,192,24415,1,0,0:0:0:80:B5S_s.wav
109,192,25113,1,0,0:0:0:80:F#5S_Gb5S_s.wav
36,192,25462,1,0,0:0:0:80:C#5S_Db5S_s.wav
256,192,25810,1,6,0:0:0:0:
475,192,25810,1,0,0:0:0:70:LR_Drum Hit Open 2.wav
402,192,26159,1,0,0:0:0:70:LR_Drum Hit Open 2.wav
109,192,26508,1,0,0:0:0:70:LR_Drum Hit Open 2.wav
182,192,26857,1,0,0:0:0:70:LR_Drum Hit Open 2.wav
109,192,27206,1,2,0:0:0:0:
329,192,27206,1,0,0:0:0:70:LR_Drum Hit Open 2.wav
256,192,27555,1,0,0:0:0:70:LR_Drum Hit Open 2.wav
36,192,27903,1,0,0:0:0:70:LR_Drum Hit Open 2.wav
109,192,28252,1,0,0:0:0:70:LR_Drum Hit Open 2.wav
256,192,28601,1,2,0:0:0:0:
475,192,28601,1,0,0:0:0:70:LR_Drum Hit Open 2.wav
182,192,28950,1,0,0:0:0:70:LR_Drum Hit Open 2.wav
402,192,29299,1,0,0:0:0:70:LR_Drum Hit Open 2.wav
329,192,29648,1,0,0:0:0:70:LR_Drum Hit Open 2.wav
182,192,29996,1,2,0:0:0:0:
402,192,29996,1,0,0:0:0:70:LR_Drum Hit Open 2.wav
109,192,30345,1,0,0:0:0:70:LR_Drum Hit Open 2.wav
329,192,30694,1,0,0:0:0:70:LR_Drum Hit Open 2.wav
256,192,31043,1,0,0:0:0:70:LR_Drum Hit Open 2.wav
182,192,31392,1,2,0:0:0:0:
402,192,31392,1,0,0:0:0:70:LR_Drum Hit Open 2.wav
475,192,31741,1,0,0:0:0:70:LR_Drum Hit Open 2.wav
256,192,32090,1,0,0:0:0:70:LR_Drum Hit Open 2.wav
329,192,32438,1,0,0:0:0:70:LR_Drum Hit Open 2.wav
182,192,32787,1,2,0:0:0:0:
402,192,32787,1,0,0:0:0:70:LR_Drum Hit Open 2.wav
256,192,33136,1,0,0:0:0:70:LR_Drum Hit Open 2.wav
36,192,33485,1,0,0:0:0:70:LR_Drum Hit Open 2.wav
109,192,33834,1,0,0:0:0:70:LR_Drum Hit Open 2.wav
182,192,34183,1,2,0:0:0:0:
402,192,34183,1,0,0:0:0:70:LR_Drum Hit Open 2.wav
329,192,34531,1,0,0:0:0:70:LR_Drum Hit Open 2.wav
256,192,34880,1,0,0:0:0:70:LR_Drum Hit Open 2.wav
182,192,35229,1,0,0:0:0:70:LR_Drum Hit Open 2.wav
402,192,35578,1,0,0:0:0:80:D7S_s.wav
109,192,36276,1,2,0:0:0:0:
256,192,36624,128,8,36973:0:0:0:0:
36,192,36973,1,2,0:0:0:0:
402,192,36973,1,4,0:0:0:0:
329,192,37322,1,8,0:0:0:0:
109,192,37671,1,2,0:0:0:0:
329,192,37845,1,2,0:0:0:0:
182,192,38194,1,8,0:0:0:0:
36,192,38543,1,2,0:0:0:0:
256,192,38717,1,8,0:0:0:0:
475,192,39066,1,2,0:0:0:0:
256,192,39241,1,2,0:0:0:0:
109,192,39415,1,8,0:0:0:0:
402,192,39764,1,2,0:0:0:0:
329,192,40113,1,8,0:0:0:0:
109,192,40462,1,2,0:0:0:0:
329,192,40636,1,2,0:0:0:0:
36,192,40810,1,8,0:0:0:0:
256,192,41159,1,2,0:0:0:0:
329,192,41334,1,2,0:0:0:0:
402,192,41508,1,12,0:0:0:0:
109,192,41857,1,2,0:0:0:0:
182,192,42031,1,2,0:0:0:0:
256,192,42206,1,12,0:0:0:0:
402,192,42555,128,2,42903:0:0:0:0:
109,192,42903,1,12,0:0:0:0:
475,192,43252,128,2,43601:0:0:0:0:
36,192,43601,1,12,0:0:0:0:
182,192,43950,128,2,44299:0:0:0:0:
402,192,44299,1,12,0:0:0:0:
109,192,44648,128,2,44996:0:0:0:0:
475,192,44996,1,12,0:0:0:0:
36,192,45345,1,2,0:0:0:0:
182,192,45345,1,4,0:0:0:0:
256,192,45694,1,8,0:0:0:0:
329,192,46043,1,6,0:0:0:0:
402,192,46392,1,8,0:0:0:0:
36,192,46741,1,2,0:0:0:0:
109,192,46741,1,4,0:0:0:0:
182,192,47438,1,12,0:0:0:0:
329,192,47613,128,4,48136:0:0:0:0:
475,192,47613,1,2,0:0:0:0:
36,192,48136,1,4,0:0:0:0:
256,192,48136,1,2,0:0:0:0:
329,192,48659,1,2,0:0:0:0:
109,192,48834,1,8,0:0:0:0:
402,192,49531,1,2,0:0:0:0:
182,192,49706,1,8,0:0:0:0:
475,192,50055,1,2,0:0:0:0:
256,192,50229,1,8,0:0:0:0:
36,192,50752,1,2,0:0:0:0:
256,192,50927,1,2,0:0:0:0:
475,192,50927,1,4,0:0:0:0:
182,192,51450,1,2,0:0:0:0:
402,192,51624,1,8,0:0:0:0:
109,192,52148,1,2,0:0:0:0:
329,192,52322,1,2,0:0:0:0:
182,192,52496,1,8,0:0:0:0:
36,192,52845,1,2,0:0:0:0:
256,192,53020,1,8,0:0:0:0:
475,192,53369,1,0,0:0:0:70:TOM_3.wav
109,192,53717,1,6,0:0:0:0:
402,192,53717,1,0,0:0:0:80:A#6S_Bb6S_s.wav
182,192,55113,1,0,0:0:0:80:D#6S_Eb6S_s.wav
329,192,55810,1,8,0:0:0:0:
256,192,56159,1,0,0:0:0:70:TOM_2.wav
109,192,56508,1,2,0:0:0:0:
402,192,56508,1,4,0:0:0:0:
475,192,56857,1,2,0:0:0:0:
256,192,57206,1,2,0:0:0:0:
329,192,57555,1,2,0:0:0:0:
109,192,57903,1,10,0:0:0:0:
402,192,58078,1,10,0:0:0:0:
36,192,58601,128,2,59299:0:0:0:0:
256,192,59299,1,4,0:0:0:0:
475,192,59299,1,2,0:0:0:0:
36,192,59648,1,8,0:0:0:0:
329,192,59996,1,2,0:0:0:0:
109,192,60345,1,8,0:0:0:0:
256,192,60694,1,2,0:0:0:0:
402,192,61043,1,8,0:0:0:0:
109,192,61392,1,2,0:0:0:0:
329,192,61741,1,8,0:0:0:0:
36,192,62090,1,2,0:0:0:0:
182,192,62090,1,4,0:0:0:0:
256,192,62438,1,8,0:0:0:0:
329,192,62787,128,2,63136:0:0:0:0:
475,192,63136,128,8,63485:0:0:0:0:
182,192,63485,128,2,63834:0:0:0:0:
329,192,63834,128,8,64183:0:0:0:0:
36,192,64183,128,2,64531:0:0:0:0:
256,192,64531,128,8,64880:0:0:0:0:
109,192,64880,1,4,0:0:0:0:
402,192,64880,1,2,0:0:0:0:
182,192,65229,1,8,0:0:0:0:
475,192,65578,1,2,0:0:0:0:
256,192,65927,1,8,0:0:0:0:
329,192,66276,1,2,0:0:0:0:
109,192,66624,1,8,0:0:0:0:
256,192,66973,1,2,0:0:0:0:
36,192,67322,1,8,0:0:0:0:
402,192,67671,1,6,0:0:0:0:
109,192,68020,1,8,0:0:0:0:
329,192,68369,1,8,0:0:0:0:
402,192,68543,1,2,0:0:0:0:
256,192,68717,1,8,0:0:0:0:
182,192,68892,1,6,0:0:0:0:
109,192,69241,1,2,0:0:0:0:
182,192,69415,1,8,0:0:0:0:
36,192,69590,1,6,0:0:0:0:
329,192,69938,1,2,0:0:0:0:
475,192,70113,128,12,70462:0:0:0:0:
109,192,70462,1,4,0:0:0:0:
182,192,70462,1,2,0:0:0:0:
256,192,70810,1,8,0:0:0:0:
329,192,71159,1,2,0:0:0:0:
402,192,71508,1,8,0:0:0:0:
36,192,71857,1,2,0:0:0:0:
109,192,72206,1,8,0:0:0:0:
182,192,72555,1,2,0:0:0:0:
256,192,72903,1,8,0:0:0:0:
402,192,73252,1,2,0:0:0:0:
329,192,73601,1,8,0:0:0:0:
182,192,73950,1,2,0:0:0:0:
109,192,74299,1,8,0:0:0:0:
475,192,74648,1,2,0:0:0:0:
329,192,74996,1,8,0:0:0:0:
36,192,75345,1,8,0:0:0:0:
109,192,75694,1,2,0:0:0:0:
182,192,76043,1,4,0:0:0:0:
256,192,76043,1,2,0:0:0:0:
402,192,76392,1,8,0:0:0:0:
475,192,76566,1,2,0:0:0:0:
109,192,76741,1,12,0:0:0:0:
182,192,77090,1,0,0:0:0:0:
402,192,77264,1,2,0:0:0:0:
256,192,77438,1,12,0:0:0:0:
109,192,77787,1,12,0:0:0:0:
36,192,77962,1,2,0:0:0:0:
329,192,78136,1,12,0:0:0:0:
256,192,78485,1,2,0:0:0:0:
109,192,78834,1,2,0:0:0:0:
402,192,78834,1,4,0:0:0:0:
402,192,79183,1,2,0:0:0:0:
109,192,79531,1,2,0:0:0:0:
109,192,79880,1,2,0:0:0:0:
329,192,80229,128,6,80927:0:0:0:0:
182,192,80927,1,10,0:0:0:0:
36,192,81101,1,10,0:0:0:0:
256,192,81624,128,2,81973:0:0:0:0:
475,192,81624,1,4,0:0:0:0:
36,192,81973,128,6,82322:0:0:0:0:
329,192,82322,1,10,0:0:0:0:
475,192,82496,1,10,0:0:0:0:
36,192,82845,1,8,0:0:0:0:
182,192,82845,1,4,0:0:0:0:
402,192,83369,1,6,0:0:0:0:
329,192,83717,1,6,0:0:0:0:
475,192,84066,1,2,0:0:0:0:
36,192,84415,1,4,0:0:0:0:
256,192,84415,1,2,0:0:0:0:
109,192,84938,1,2,0:0:0:0:
329,192,84938,1,0,0:0:0:0:
256,192,85462,1,2,0:0:0:0:
475,192,85462,1,4,0:0:0:0:
182,192,85985,1,10,0:0:0:0:
402,192,85985,1,4,0:0:0:0:
329,192,86508,1,2,0:0:0:0:
475,192,86683,1,2,0:0:0:0:
36,192,87031,1,2,0:0:0:0:
182,192,87031,1,4,0:0:0:0:
