osu file format v14

[General]
AudioFilename: audio.mp3
AudioLeadIn: 0
PreviewTime: 58219
Countdown: 0
SampleSet: Soft
StackLeniency: 0.7
Mode: 0
LetterboxInBreaks: 0
WidescreenStoryboard: 1

[Editor]
DistanceSpacing: 1.2
BeatDivisor: 4
GridSize: 4
TimelineZoom: 1

[Metadata]
Title:Omoide Shiritori (TV Size)
TitleUnicode:おもいでしりとり (TV Size)
Artist:DIALOGUE+
ArtistUnicode:DIALOGUE+
Creator:Little
Version:Very Hard
Source:ひげを剃る。そして女子高生を拾う。
Tags:higehiro: after being rejected, i shaved and took in a high school runaway hige wo soru. soshite joshikousei wo hirou. anime op opening japanese pop CloudSplash16 Kyle73 Meyrink Akitoshi Corinn -Laura- Doormat
BeatmapID:2952762
BeatmapSetID:1434635

[Difficulty]
HPDrainRate:5
CircleSize:3.8
OverallDifficulty:7
ApproachRate:8.5
SliderMultiplier:1.5
SliderTickRate:1

[Events]
//Background and Video events
0,0,"sayu.jpg",0,0
Video,-50,"protecc.flv"
//Break Periods
//Storyboard Layer 0 (Background)
//Storyboard Layer 1 (Fail)
//Storyboard Layer 2 (Pass)
//Storyboard Layer 3 (Foreground)
//Storyboard Layer 4 (Overlay)
//Storyboard Sound Samples

[TimingPoints]
-647,348.837209302326,4,2,7,50,1,0
2143,-125,4,2,7,50,0,0
6504,-125,4,2,7,60,0,0
7725,-100,4,2,7,80,0,0
13655,-125,4,2,7,80,0,0
14178,-125,4,2,7,70,0,0
14701,-100,4,2,7,70,0,0
24469,-125,4,2,7,60,0,0
34236,-111.111111111111,4,2,7,60,0,0
35632,-125,4,2,7,60,0,0
37027,-100,4,2,7,70,0,0
48190,-125,4,2,7,70,0,0
53771,-125,4,2,7,50,0,0
55864,-125,4,2,7,60,0,0
56562,-125,4,2,7,70,0,0
57957,-125,4,2,7,80,0,0
59353,-100,4,2,7,80,0,1
81678,-100,4,2,7,80,0,0
87085,-100,4,2,7,70,0,0
88655,-100,4,2,7,15,0,0

[Colours]
Combo1 : 128,184,225
Combo2 : 193,132,132
Combo3 : 213,170,255

[HitObjects]
316,184,2143,6,0,P|299:208|291:237,1,60,2|0,0:0|0:0,0:0:0:0:
328,332,2492,2,0,P|352:348|381:356,1,60,2|0,0:0|0:0,0:0:0:0:
432,186,2841,2,0,B|399:172|399:172|316:183,1,120,2|0,0:0|0:0,0:0:0:0:
196,200,3364,1,0,0:0:0:0:
196,200,3539,6,0,P|212:175|220:146,1,60,2|0,0:0|0:0,0:0:0:0:
184,52,3888,2,0,P|159:35|130:27,1,60,2|0,0:0|0:0,0:0:0:0:
79,197,4236,2,0,B|112:211|112:211|195:200,1,120,2|0,0:0|0:0,0:0:0:0:
316,183,4759,1,0,0:0:0:0:
316,183,4934,6,0,P|306:242|299:301,1,120,2|0,0:0|0:0,0:0:0:0:
299,301,5457,1,0,0:0:0:0:
448,192,5632,1,2,0:0:0:0:
156,96,5980,1,2,0:0:0:0:
299,301,6329,5,2,0:0:0:0:
352,172,6504,1,8,0:0:0:0:
168,268,6678,1,8,0:3:0:0:
168,268,7027,5,8,0:0:0:0:
115,139,7202,1,4,0:3:0:0:
299,235,7376,1,8,0:3:0:0:
299,235,7550,1,8,0:3:0:0:
140,350,7725,6,0,P|87:299|92:226,1,150,4|0,0:0|0:0,0:0:0:0:
316,260,8248,1,0,0:0:0:0:
224,96,8422,2,0,L|203:244,1,150,4|0,0:0|0:0,0:0:0:0:
184,360,8946,1,0,0:0:0:0:
387,278,9120,6,0,P|353:263|316:260,1,75,12|0,0:0|3:0,0:0:0:0:
91,227,9469,2,0,P|128:223|162:208,1,75,12|0,0:0|3:0,0:0:0:0:
256,100,9818,2,0,L|266:25,1,75,12|2,0:0|0:0,0:0:0:0:
416,112,10166,2,0,L|406:187,1,75,4|8,0:3|0:3,0:0:0:0:
324,312,10515,6,0,P|290:327|253:330,1,75,4|2,0:0|0:0,0:0:0:0:
68,172,10864,1,0,3:0:0:0:
143,130,11039,1,2,3:2:0:0:
225,154,11213,1,0,3:0:0:0:
265,229,11387,1,2,3:2:0:0:
118,285,11562,5,0,3:0:0:0:
143,130,11736,1,2,3:2:0:0:
265,229,11911,2,0,L|259:266,7,37.5,4|8|10|8|8|8|8|8,0:0|0:0|0:0|0:0|0:0|3:0|3:0|3:0,0:0:0:0:
176,215,12608,1,12,0:0:0:0:
404,148,12783,1,4,0:0:0:0:
256,192,12957,12,2,14178,0:0:0:0:
80,164,14526,5,10,0:0:0:0:
80,164,14614,1,10,0:0:0:0:
80,164,14701,2,0,L|90:238,1,75,4|0,0:0|0:0,0:0:0:0:
212,128,15050,2,0,L|201:53,1,75,4|0,0:0|0:0,0:0:0:0:
80,164,15399,1,8,0:0:0:0:
230,255,15573,1,8,0:0:0:0:
240,108,15748,1,0,3:0:0:0:
153,298,15922,6,0,P|211:341|283:326,1,150,12|2,0:0|0:0,0:0:0:0:
334,155,16446,1,0,3:0:0:0:
230,255,16620,1,2,0:0:0:0:
388,312,16794,2,0,L|398:237,1,75,8|0,0:0|3:0,0:0:0:0:
259,95,17143,1,4,0:3:0:0:
259,95,17230,1,4,0:3:0:0:
259,95,17318,1,8,3:0:0:0:
259,95,17405,1,8,0:3:0:0:
259,95,17492,6,0,P|241:127|237:164,1,75,4|0,0:0|0:0,0:0:0:0:
409,215,17841,2,0,P|426:182|430:145,1,75,4|0,0:0|0:0,0:0:0:0:
244,196,18190,1,8,0:0:0:0:
336,364,18364,1,8,0:0:0:0:
409,215,18539,1,0,3:0:0:0:
240,308,18713,6,0,B|164:332|168:284|93:307,1,150,12|2,0:0|0:0,0:0:0:0:
36,136,19236,1,0,3:0:0:0:
204,216,19411,1,2,0:0:0:0:
64,320,19585,2,0,L|53:245,1,75,8|0,0:0|3:0,0:0:0:0:
224,92,19934,2,0,L|218:129,3,37.5,8|8|4|8,0:0|0:0|0:3|0:3,0:0:0:0:
204,216,20283,5,4,0:0:0:0:
376,264,20457,2,0,L|370:226,3,37.5,8|8|8|0,0:0|0:0|0:0|0:0,0:0:0:0:
356,140,20806,5,4,0:0:0:0:
196,112,20980,2,0,L|190:149,3,37.5,8|8|8|0,0:0|0:0|0:0|0:0,0:0:0:0:
176,236,21329,5,4,0:0:0:0:
348,284,21503,2,0,L|342:246,3,37.5,8|8|8|0,0:0|0:0|0:0|0:0,0:0:0:0:
328,160,21852,5,4,0:0:0:0:
168,132,22027,2,0,L|162:169,3,37.5,0|4|8|8,3:0|0:3|0:3|0:3,0:0:0:0:
148,256,22376,5,8,0:0:0:0:
328,160,22550,1,8,0:0:0:0:
36,168,22899,6,0,B|112:192|108:144|183:167,1,150,4|0,0:0|3:0,0:0:0:0:
272,260,23422,2,0,P|263:295|249:330,1,75,8|2,0:0|0:0,0:0:0:0:
148,256,23771,1,0,3:0:0:0:
328,160,23946,1,2,0:0:0:0:
216,140,24120,2,0,P|202:105|193:68,1,75,8|0,0:0|0:0,0:0:0:0:
424,128,24469,6,0,P|414:187|396:244,1,120,6|0,0:0|0:0,0:0:0:0:
356,336,24992,1,2,0:0:0:0:
356,336,25079,1,2,0:0:0:0:
356,336,25166,1,2,0:0:0:0:
92,192,25515,1,2,0:0:0:0:
92,192,25864,6,0,L|210:175,1,120,6|8,0:0|0:1,0:0:0:0:
316,160,26387,1,0,0:0:0:0:
316,160,26562,2,0,L|307:219,1,60,8|0,0:1|0:0,0:0:0:0:
220,280,26911,2,0,L|228:339,1,60,8|0,0:1|3:0,0:0:0:0:
352,368,27259,5,2,3:2:0:0:
352,368,27434,1,0,0:0:0:0:
460,304,27608,2,0,P|435:287|406:279,1,60,8|0,0:1|0:0,0:0:0:0:
340,180,27957,2,0,P|397:190|449:162,1,120,8|8,0:1|0:1,0:0:0:0:
500,52,28480,1,0,0:0:0:0:
500,52,28655,6,0,L|440:43,1,60,2|0,3:2|0:0,0:0:0:0:
344,80,29004,2,0,L|284:71,1,60,8|0,0:1|0:0,0:0:0:0:
424,139,29353,2,0,L|484:148,1,60,8|0,0:1|0:0,0:0:0:0:
328,176,29702,2,0,L|268:167,1,60,8|0,0:1|3:0,0:0:0:0:
164,228,30050,6,0,P|171:287|180:346,2,120,2|8|8,3:2|0:1|0:1,0:0:0:0:
180,48,31097,1,8,0:1:0:0:
180,48,31271,1,0,0:0:0:0:
56,176,31446,6,0,P|107:204|165:193,1,120,2|8,3:2|0:1,0:0:0:0:
268,132,31969,1,0,0:0:0:0:
268,132,32143,2,0,L|276:191,1,60,8|0,0:1|0:0,0:0:0:0:
220,288,32492,2,0,L|228:347,1,60,8|0,0:1|3:0,0:0:0:0:
364,376,32841,6,0,P|392:325|381:267,1,120,2|8,3:2|0:1,0:0:0:0:
276,191,33364,1,0,0:0:0:0:
276,191,33538,2,0,L|335:182,1,60,8|0,0:1|0:0,0:0:0:0:
452,116,33887,2,0,L|392:107,1,60,8|0,0:1|0:0,0:0:0:0:
216,52,34236,6,0,P|205:83|207:117,1,67.4999979400635,2|0,3:2|0:0,0:0:0:0:
167,270,34585,2,0,P|148:299|122:319,1,67.4999979400635,8|0,0:1|0:0,0:0:0:0:
71,151,34934,2,0,P|99:171|131:180,1,67.4999979400635,8|0,0:1|0:0,0:0:0:0:
296,323,35283,2,0,P|285:291|264:265,1,67.4999979400635,8|0,0:1|0:0,0:0:0:0:
288,170,35632,6,0,B|376:138|376:202|464:170,1,180,2|0,0:0|0:0,0:0:0:0:
419,90,36329,1,4,0:3:0:0:
332,266,36504,1,0,3:0:0:0:
332,266,36591,1,8,0:0:0:0:
332,266,36678,2,0,L|340:325,1,60,8|8,0:0|0:3,0:0:0:0:
223,359,37027,6,0,P|191:341|154:337,1,75,4|0,0:0|0:0,0:0:0:0:
56,216,37376,2,0,P|125:238|187:200,1,150,8|0,0:0|3:0,0:0:0:0:
196,40,37899,1,2,3:2:0:0:
116,152,38073,1,0,0:0:0:0:
284,148,38248,6,0,L|294:222,1,75,8|0,0:0|0:0,0:0:0:0:
236,344,38597,1,0,3:0:0:0:
404,348,38772,2,0,L|414:273,1,75,8|2,0:0|0:0,0:0:0:0:
308,124,39120,1,2,3:2:0:0:
396,248,39294,1,0,3:0:0:0:
492,143,39469,2,0,P|456:134|420:140,1,75,10|0,0:0|0:0,0:0:0:0:
260,252,39818,6,0,P|223:261|187:255,1,75,0|0,3:0|0:0,0:0:0:0:
57,129,40166,2,0,P|93:119|129:125,1,75,8|0,0:0|0:0,0:0:0:0:
260,252,40515,1,0,3:0:0:0:
344,136,40690,1,2,3:2:0:0:
153,153,40864,2,0,L|164:228,1,75,8|0,0:0|0:0,0:0:0:0:
356,308,41213,6,0,L|367:233,1,75,2|0,3:2|3:0,0:0:0:0:
188,248,41562,2,0,L|177:323,1,75,8|0,0:0|0:0,0:0:0:0:
36,236,41911,2,0,P|98:198|167:220,1,150,2|8,3:2|0:0,0:0:0:0:
272,356,42434,1,2,0:0:0:0:
368,196,42608,5,0,3:0:0:0:
188,248,42783,1,2,3:2:0:0:
304,344,42957,2,0,P|317:309|317:272,1,75,12|0,0:0|0:0,0:0:0:0:
258,123,43306,5,0,3:0:0:0:
167,287,43481,1,2,3:2:0:0:
317,272,43655,2,0,P|302:237|275:211,1,75,12|0,0:0|0:0,0:0:0:0:
128,148,44004,5,0,3:0:0:0:
179,328,44179,1,2,3:2:0:0:
275,211,44353,2,0,P|240:197|203:197,1,75,12|0,0:0|0:0,0:0:0:0:
55,257,44701,5,0,3:0:0:0:
218,348,44876,1,2,3:2:0:0:
203,197,45050,2,0,P|168:211|142:238,1,75,12|0,0:0|0:0,0:0:0:0:
328,312,45399,6,0,P|363:298|389:271,1,75,4|0,0:0|0:0,0:0:0:0:
297,143,45748,2,0,L|308:218,1,75,8|0,0:0|0:0,0:0:0:0:
460,164,46097,2,0,L|470:89,1,75,8|0,0:0|3:0,0:0:0:0:
308,44,46446,2,0,L|318:118,1,75,8|8,0:0|0:3,0:0:0:0:
388,271,46794,6,0,B|278:231|278:311|168:271,1,225,4|0,0:0|3:0,0:0:0:0:
48,192,47492,1,8,0:0:0:0:
269,160,47666,1,12,0:0:0:0:
140,112,48015,5,0,3:0:0:0:
140,112,48190,2,0,L|156:230,1,120,4|2,0:0|0:0,0:0:0:0:
276,348,48887,1,8,0:0:0:0:
456,296,49236,2,0,P|431:279|402:271,1,60,2|2,0:0|0:0,0:0:0:0:
270,208,49585,6,0,P|298:199|323:183,1,60,0|8,3:0|0:0,0:0:0:0:
392,88,49934,2,0,L|400:28,1,60,2|0,0:0|3:0,0:0:0:0:
228,72,50283,2,0,L|244:190,1,120,8|2,0:0|0:0,0:0:0:0:
260,305,50806,1,0,3:0:0:0:
52,304,50980,6,0,P|94:263|152:259,1,120,4|2,0:0|0:0,0:0:0:0:
260,305,51504,1,0,3:0:0:0:
348,228,51678,2,0,L|340:168,1,60,8|0,0:0|0:0,0:0:0:0:
260,305,52027,2,0,L|268:364,1,60,2|0,0:0|3:0,0:0:0:0:
436,384,52376,6,0,P|463:333|452:275,1,120,4|4,0:0|3:0,0:0:0:0:
280,152,53073,2,0,B|340:168|340:168|396:152,1,120,8|4,0:0|3:0,0:0:0:0:
504,120,53597,1,8,3:0:0:0:
504,120,53771,1,4,0:0:0:0:
48,56,55864,5,8,0:0:0:0:
112,272,56213,1,4,3:0:0:0:
392,132,56562,5,4,0:0:0:0:
312,228,56736,1,2,0:0:0:0:
268,110,56911,1,0,3:0:0:0:
392,132,57085,1,2,3:2:0:0:
221,193,57259,5,4,0:3:0:0:
408,226,57433,1,8,0:3:0:0:
342,49,57608,1,8,0:3:0:0:
221,193,57783,1,0,3:0:0:0:
221,193,57870,1,0,3:0:0:0:
221,193,57957,5,8,0:0:0:0:
477,101,58132,1,8,0:0:0:0:
221,193,58655,5,2,3:2:0:0:
348,264,58829,1,8,0:0:0:0:
348,264,58916,1,8,0:0:0:0:
348,264,59004,2,0,L|377:259,3,30,8|0|8|0,0:0|3:0|0:0|3:0,0:0:0:0:
452,212,59353,6,0,P|469:179|474:142,1,75,4|2,0:0|0:0,0:0:0:0:
340,56,59701,2,0,P|322:88|317:125,1,75,8|2,0:0|0:0,0:0:0:0:
348,264,60050,2,0,P|288:220|217:238,1,150,0|8,3:0|0:0,0:0:0:0:
124,344,60573,1,2,0:0:0:0:
273,302,60748,5,0,3:0:0:0:
273,302,60922,1,2,0:0:0:0:
107,225,61097,1,8,0:0:0:0:
107,225,61271,1,2,3:2:0:0:
244,156,61446,2,0,B|253:220|253:220|263:235|263:235|273:302,1,150,0|8,3:0|0:0,0:0:0:0:
107,225,61969,1,0,0:0:0:0:
180,98,62143,6,0,P|247:70|311:104,1,150,4|8,0:0|0:0,0:0:0:0:
388,240,62666,1,2,0:0:0:0:
210,284,62841,2,0,P|185:311|170:345,1,75,0|0,3:0|0:0,0:0:0:0:
244,156,63190,2,0,P|248:119|239:82,1,75,8|0,0:0|0:0,0:0:0:0:
291,277,63539,6,0,P|309:309|337:333,1,75,2|0,3:2|0:0,0:0:0:0:
181,208,63887,2,0,P|147:192|109:189,1,75,8|0,0:0|0:0,0:0:0:0:
312,200,64236,2,0,B|388:176|384:224|459:201,1,150,2|8,3:2|0:0,0:0:0:0:
424,116,64759,1,2,0:0:0:0:
292,224,64934,6,0,L|302:298,1,75,4|2,0:0|0:0,0:0:0:0:
156,260,65283,2,0,L|145:185,1,75,8|2,0:0|0:0,0:0:0:0:
276,116,65632,1,0,3:2:0:0:
276,116,65806,1,2,0:0:0:0:
140,152,65980,2,0,L|65:141,1,75,8|2,0:0|0:0,0:0:0:0:
349,237,66329,5,0,3:0:0:0:
349,237,66503,1,2,0:0:0:0:
276,116,66678,2,0,L|265:41,1,75,8|2,0:0|0:0,0:0:0:0:
213,274,67027,1,0,3:0:0:0:
213,274,67201,1,2,0:0:0:0:
349,237,67375,2,0,L|423:247,1,75,8|2,0:0|3:2,0:0:0:0:
276,116,67725,5,12,0:0:0:0:
213,274,67899,1,0,3:0:0:0:
349,237,68073,1,8,0:0:0:0:
140,152,68248,1,0,3:0:0:0:
213,274,68422,1,8,0:0:0:0:
276,116,68597,2,0,L|265:41,1,75,2|8,3:2|0:0,0:0:0:0:
86,85,68946,6,0,P|53:150|82:216,1,150,4|0,0:0|3:0,0:0:0:0:
213,274,69469,1,8,0:0:0:0:
276,116,69643,1,4,0:0:0:0:
140,152,69818,1,0,0:0:0:0:
140,152,69992,1,0,3:0:0:0:
349,237,70166,1,8,0:0:0:0:
349,237,70515,6,0,L|423:226,1,75,4|2,0:0|0:0,0:0:0:0:
440,76,70864,2,0,L|365:86,1,75,8|2,0:0|0:0,0:0:0:0:
256,188,71213,2,0,B|247:252|247:252|252:269|252:269|243:336,1,150,0|8,3:0|0:0,0:0:0:0:
150,286,71736,1,2,0:0:0:0:
349,237,71911,5,0,3:0:0:0:
349,237,72085,1,2,0:0:0:0:
216,360,72259,1,8,0:0:0:0:
216,360,72433,1,2,0:0:0:0:
73,244,72608,2,0,P|133:200|204:218,1,150,0|8,3:0|0:0,0:0:0:0:
320,336,73132,1,2,0:0:0:0:
396,176,73306,5,0,3:0:0:0:
224,240,73480,1,2,0:0:0:0:
348,352,73655,2,0,P|352:314|344:278,1,75,8|2,0:0|0:0,0:0:0:0:
276,138,74004,2,0,P|268:101|272:64,1,75,0|2,3:0|0:0,0:0:0:0:
424,164,74353,1,8,0:0:0:0:
424,164,74527,1,2,0:0:0:0:
224,239,74701,6,0,L|149:228,1,75,0|2,3:0|0:0,0:0:0:0:
32,116,75050,2,0,L|106:105,1,75,10|2,0:0|0:0,0:0:0:0:
264,84,75399,1,8,0:0:0:0:
60,304,75748,1,8,0:3:0:0:
60,304,76097,6,0,B|136:280|132:328|207:305,1,150,4|2,0:0|0:0,0:0:0:0:
324,232,76620,1,0,3:0:0:0:
199,72,76794,2,0,B|190:136|190:136|180:151|180:151|171:218,1,150,12|2,0:0|0:0,0:0:0:0:
416,160,77318,1,0,3:0:0:0:
334,306,77492,6,0,L|323:231,1,75,12|0,0:0|3:0,0:0:0:0:
240,120,77841,2,0,L|250:45,1,75,12|0,0:0|3:0,0:0:0:0:
84,108,78190,2,0,P|144:152|215:134,1,150,12|4,0:0|0:3,0:0:0:0:
328,36,78713,1,8,0:3:0:0:
160,63,78887,5,4,0:0:0:0:
267,194,79062,1,2,0:0:0:0:
309,18,79236,1,0,3:0:0:0:
154,87,79410,1,2,0:0:0:0:
291,186,79585,2,0,L|328:180,3,37.5,8|10|8|8,0:0|0:0|0:0|0:0,0:0:0:0:
412,168,79934,5,2,3:2:0:0:
336,340,80108,1,8,0:0:0:0:
180,232,80283,2,0,L|174:269,7,37.5,12|8|10|8|8|8|8|8,0:0|0:0|0:0|0:0|0:0|0:0|3:0|3:0,0:0:0:0:
291,186,80980,1,12,0:0:0:0:
52,112,81155,1,10,0:0:0:0:
52,112,81678,6,0,L|62:186,1,75,4|0,0:0|0:0,0:0:0:0:
188,96,82027,2,0,L|198:22,1,75,4|0,0:0|0:0,0:0:0:0:
291,186,82376,1,8,0:0:0:0:
180,284,82550,2,0,P|142:288|106:280,1,75,8|0,0:0|3:0,0:0:0:0:
291,186,82899,6,0,B|367:162|363:210|438:187,1,150,4|2,0:0|0:0,0:0:0:0:
440,56,83422,2,0,P|403:48|366:52,1,75,8|0,0:0|0:0,0:0:0:0:
268,208,83771,2,0,L|257:282,1,75,8|0,0:0|3:0,0:0:0:0:
400,256,84120,2,0,L|406:219,3,37.5,4|4|8|8,0:3|0:3|0:3|0:3,0:0:0:0:
420,132,84469,5,4,0:0:0:0:
248,84,84643,2,0,L|254:122,3,37.5,8|8|8|0,0:0|0:0|0:0|0:0,0:0:0:0:
268,208,84992,5,4,0:0:0:0:
428,236,85166,2,0,L|434:199,3,37.5,8|8|8|0,0:0|0:0|0:0|0:0,0:0:0:0:
448,112,85515,5,4,0:0:0:0:
276,64,85689,2,0,L|282:102,3,37.5,8|8|8|0,0:0|0:0|0:0|0:0,0:0:0:0:
296,188,86038,5,4,0:0:0:0:
456,216,86213,2,0,L|462:179,3,37.5,0|4|8|8,3:0|0:3|0:3|0:3,0:0:0:0:
476,92,86562,5,8,0:0:0:0:
296,188,86736,1,8,0:0:0:0:
512,348,87085,5,6,0:0:0:0:
256,192,87172,12,0,88655,0:0:0:0:
