osu file format v14

[General]
AudioFilename: audio.mp3
AudioLeadIn: 0
PreviewTime: 58219
Countdown: 0
SampleSet: Soft
StackLeniency: 0.7
Mode: 0
LetterboxInBreaks: 0
WidescreenStoryboard: 1

[Editor]
DistanceSpacing: 0.9
BeatDivisor: 4
GridSize: 4
TimelineZoom: 1.1

[Metadata]
Title:Omoide Shiritori (TV Size)
TitleUnicode:おもいでしりとり (TV Size)
Artist:DIALOGUE+
ArtistUnicode:DIALOGUE+
Creator:Little
Version:Normal
Source:ひげを剃る。そして女子高生を拾う。
Tags:higehiro: after being rejected, i shaved and took in a high school runaway hige wo soru. soshite joshikousei wo hirou. anime op opening japanese pop CloudSplash16 Kyle73 Meyrink Akitoshi Corinn -Laura- Doormat
BeatmapID:2952290
BeatmapSetID:1434635

[Difficulty]
HPDrainRate:4
CircleSize:3.2
OverallDifficulty:4.5
ApproachRate:5
SliderMultiplier:1.2
SliderTickRate:1

[Events]
//Background and Video events
0,0,"sayu.jpg",0,0
Video,-50,"protecc.flv"
//Break Periods
//Storyboard Layer 0 (Background)
//Storyboard Layer 1 (Fail)
//Storyboard Layer 2 (Pass)
//Storyboard Layer 3 (Foreground)
//Storyboard Layer 4 (Overlay)
//Storyboard Sound Samples

[TimingPoints]
-647,348.837209302326,4,2,7,50,1,0
6504,-100,4,2,7,60,0,0
7725,-100,4,2,7,80,0,0
13306,-125,4,2,7,80,0,0
14178,-125,4,2,7,70,0,0
14701,-100,4,2,7,70,0,0
24469,-100,4,2,7,60,0,0
37027,-100,4,2,7,70,0,0
53771,-100,4,2,7,50,0,0
55864,-100,4,2,7,60,0,0
56562,-100,4,2,7,70,0,0
57957,-100,4,2,7,80,0,0
59353,-100,4,2,7,80,0,1
81678,-100,4,2,7,80,0,0
87085,-100,4,2,7,70,0,0
88655,-100,4,2,7,15,0,0

[Colours]
Combo1 : 128,184,225
Combo2 : 193,132,132
Combo3 : 213,170,255

[HitObjects]
124,88,2143,6,0,L|113:147,2,60,2|0|2,0:0|0:0|0:0,0:0:0:0:
229,64,2841,2,0,P|255:117|248:176,1,120,2|0,0:0|0:0,0:0:0:0:
161,240,3539,6,0,L|101:250,2,60,2|0|2,0:0|0:0|0:0,0:0:0:0:
261,280,4236,2,0,P|314:306|373:299,1,120,2|0,0:0|0:0,0:0:0:0:
421,272,4759,1,0,0:0:0:0:
421,272,4934,6,0,P|433:213|440:153,1,120,2|0,0:0|0:0,0:0:0:0:
445,100,5457,1,0,0:0:0:0:
445,100,5632,1,2,0:0:0:0:
357,40,5980,1,2,0:0:0:0:
261,86,6329,6,0,P|232:93|202:91,1,60,2|8,0:0|0:0,0:0:0:0:
149,80,6678,1,8,0:3:0:0:
157,188,7027,1,8,0:0:0:0:
66,250,7376,2,0,P|64:279|71:308,1,60,8|8,0:3|0:3,0:0:0:0:
105,350,7725,6,0,P|163:361|218:339,1,120,4|0,0:0|0:0,0:0:0:0:
293,262,8422,2,0,P|305:203|312:143,1,120,4|0,0:0|0:0,0:0:0:0:
317,34,9120,5,12,0:0:0:0:
221,84,9469,1,12,0:0:0:0:
129,25,9818,1,12,0:0:0:0:
31,75,10166,2,0,L|41:134,1,60,4|8,0:3|0:3,0:0:0:0:
80,172,10515,6,0,P|73:231|60:290,1,120,4|0,0:0|3:0,0:0:0:0:
48,344,11039,1,2,3:2:0:0:
48,344,11213,1,0,3:0:0:0:
156,360,11562,2,0,L|215:349,1,60,0|2,3:0|3:2,0:0:0:0:
268,340,11911,6,0,P|324:356|381:340,1,120,4|8,0:0|0:0,0:0:0:0:
464,268,12608,1,12,0:0:0:0:
464,268,12783,1,4,0:0:0:0:
380,132,13306,6,0,B|287:91|285:159|192:115|192:115|204:136|220:151,1,240,2|2,0:0|0:0,0:0:0:0:
357,240,14701,6,0,P|416:235|464:201,1,120,4|4,0:0|0:0,0:0:0:0:
380,132,15399,1,8,0:0:0:0:
380,132,15573,1,8,0:0:0:0:
276,160,15922,6,0,P|263:218|255:278,1,120,12|2,0:0|0:0,0:0:0:0:
252,332,16446,1,0,3:0:0:0:
152,296,16794,1,8,0:0:0:0:
70,364,17143,1,4,0:3:0:0:
12,272,17492,6,0,P|20:212|33:154,1,120,4|4,0:0|0:0,0:0:0:0:
104,72,18190,1,8,0:0:0:0:
104,72,18364,1,8,0:0:0:0:
208,44,18713,6,0,P|263:65|321:53,1,120,12|2,0:0|0:0,0:0:0:0:
372,32,19236,1,0,3:0:0:0:
472,72,19585,1,8,0:0:0:0:
487,178,19934,1,8,0:0:0:0:
402,243,20283,6,0,B|342:267|278:239|278:239|296:260|302:284,1,180,4|4,0:0|0:0,0:0:0:0:
160,364,21329,2,0,P|133:310|139:251,1,120,4|8,0:0|0:0,0:0:0:0:
164,204,21853,2,0,P|190:150|184:91,1,120,4|8,0:0|0:3,0:0:0:0:
164,44,22376,1,8,0:0:0:0:
164,44,22550,1,8,0:0:0:0:
56,56,22899,6,0,P|42:114|35:173,1,120,4|0,0:0|3:0,0:0:0:0:
32,228,23422,1,8,0:0:0:0:
136,204,23771,1,0,3:0:0:0:
104,308,24120,1,8,0:0:0:0:
208,284,24469,6,0,B|296:256|296:312|384:284,1,180,6|2,0:0|0:0,0:0:0:0:
436,268,25166,1,2,0:0:0:0:
492,176,25515,1,2,0:0:0:0:
430,90,25864,6,0,P|374:68|316:81,1,120,6|8,0:0|0:1,0:0:0:0:
268,104,26387,1,0,0:0:0:0:
268,104,26562,1,8,0:1:0:0:
164,80,26911,1,8,0:1:0:0:
96,164,27259,6,0,L|85:223,1,60,2|0,3:2|0:0,0:0:0:0:
33,234,27608,2,0,L|43:293,1,60,8|0,0:1|0:0,0:0:0:0:
65,342,27957,2,0,P|121:359|178:343,1,120,8|8,0:1|0:1,0:0:0:0:
225,314,28480,1,0,0:0:0:0:
225,314,28655,5,2,3:2:0:0:
329,346,29004,1,8,0:1:0:0:
391,256,29353,1,8,0:1:0:0:
324,169,29701,1,8,0:1:0:0:
220,205,30050,5,2,3:2:0:0:
153,117,30399,1,8,0:1:0:0:
214,26,30748,1,8,0:1:0:0:
319,55,31097,2,0,P|348:64|378:65,1,60,8|0,0:1|0:0,0:0:0:0:
432,64,31446,6,0,P|418:122|411:181,1,120,2|8,3:2|0:1,0:0:0:0:
408,237,31969,1,0,0:0:0:0:
408,237,32143,1,8,0:1:0:0:
453,336,32492,2,0,L|394:346,1,60,8|0,0:1|3:0,0:0:0:0:
341,356,32841,6,0,P|287:334|229:345,1,120,2|8,3:2|0:1,0:0:0:0:
177,364,33364,1,0,0:0:0:0:
177,364,33539,1,8,0:1:0:0:
84,308,33887,2,0,L|74:248,1,60,8|0,0:1|0:0,0:0:0:0:
64,196,34236,5,2,3:2:0:0:
148,128,34585,1,8,0:1:0:0:
249,166,34934,1,8,0:1:0:0:
287,65,35283,1,8,0:1:0:0:
186,27,35632,5,2,0:0:0:0:
32,176,36329,2,0,L|43:235,1,60,4|0,0:3|3:0,0:0:0:0:
52,288,36678,1,8,0:0:0:0:
132,360,37027,6,0,P|190:371|245:349,1,120,4|8,0:0|0:0,0:0:0:0:
280,308,37550,1,2,0:0:0:0:
280,308,37725,2,0,L|290:248,2,60,0|2|8,3:0|3:2|0:0,0:0:0:0:
181,268,38422,6,0,L|170:208,1,60,0|0,3:0|3:0,0:0:0:0:
160,156,38771,1,8,0:0:0:0:
264,124,39120,2,0,P|319:145|377:134,1,120,2|10,3:2|0:0,0:0:0:0:
424,108,39643,1,0,0:0:0:0:
424,108,39818,5,0,3:0:0:0:
504,180,40166,1,8,0:0:0:0:
481,285,40515,1,0,3:0:0:0:
401,212,40864,1,8,0:0:0:0:
321,139,41213,5,2,3:2:0:0:
298,244,41562,1,8,0:0:0:0:
378,316,41910,1,2,3:2:0:0:
276,352,42259,2,0,P|247:342|217:341,1,60,8|2,0:0|0:0,0:0:0:0:
164,348,42608,6,0,L|154:288,1,60,0|2,3:0|3:2,0:0:0:0:
144,233,42957,1,12,0:0:0:0:
92,140,43306,2,0,L|151:129,1,60,0|2,3:0|3:2,0:0:0:0:
207,120,43655,1,12,0:0:0:0:
304,168,44004,6,0,P|326:148|341:122,1,60,0|2,3:0|3:2,0:0:0:0:
360,72,44353,1,12,0:0:0:0:
468,92,44701,2,0,P|466:121|473:150,1,60,0|2,3:0|3:2,0:0:0:0:
496,198,45050,1,12,0:0:0:0:
444,292,45399,6,0,P|390:267|331:275,1,120,4|8,0:0|0:0,0:0:0:0:
236,328,46097,1,8,0:0:0:0:
144,276,46446,1,8,0:0:0:0:
236,216,46794,6,0,P|261:133|218:56,1,180,4|0,0:0|3:0,0:0:0:0:
169,35,47492,1,8,0:0:0:0:
169,35,47666,1,12,0:0:0:0:
32,120,48190,6,0,P|91:127|150:142,1,120,4|2,0:0|0:0,0:0:0:0:
224,220,48887,1,8,0:0:0:0:
328,196,49236,2,0,P|348:174|361:147,1,60,2|2,0:0|0:0,0:0:0:0:
416,156,49585,6,0,P|421:185|436:211,1,60,0|8,3:0|0:0,0:0:0:0:
472,252,49934,1,2,0:0:0:0:
400,332,50283,2,0,P|341:317|282:310,1,120,8|2,0:0|0:0,0:0:0:0:
228,312,50806,1,0,3:0:0:0:
228,312,50980,6,0,P|174:336|115:328,1,120,4|2,0:0|0:0,0:0:0:0:
36,256,51678,1,8,0:0:0:0:
104,172,52027,2,0,L|163:161,1,60,2|0,0:0|3:0,0:0:0:0:
216,152,52376,6,0,L|226:92,1,60,4|8,0:0|0:0,0:0:0:0:
237,38,52725,1,4,3:0:0:0:
344,38,53073,2,0,L|364:156,1,120,8|4,0:0|3:0,0:0:0:0:
376,208,53597,1,8,3:0:0:0:
376,208,53771,1,4,0:0:0:0:
376,208,55166,5,2,0:0:0:0:
224,360,55864,1,8,0:0:0:0:
136,296,56213,1,4,3:0:0:0:
112,192,56562,6,0,P|111:163|117:132,1,60,4|2,0:0|0:0,0:0:0:0:
145,87,56911,2,0,P|165:65|190:49,1,60,0|2,3:0|3:2,0:0:0:0:
240,36,57259,2,0,P|268:35|299:41,1,60,4|8,0:3|0:3,0:0:0:0:
342,69,57608,2,0,P|363:89|379:114,1,60,8|0,0:3|3:0,0:0:0:0:
402,163,57957,5,8,0:0:0:0:
402,163,58132,1,8,0:0:0:0:
279,268,58655,2,0,P|265:209|258:150,1,120,2|8,3:2|0:0,0:0:0:0:
216,52,59353,6,0,P|196:73|170:90,1,60,4|2,0:0|0:0,0:0:0:0:
143,135,59701,2,0,P|112:136|83:130,1,60,8|2,0:0|0:0,0:0:0:0:
32,120,60050,2,0,P|56:174|48:233,1,120,0|8,3:0|0:0,0:0:0:0:
28,340,60748,6,0,P|55:328|85:325,1,60,0|2,3:0|0:0,0:0:0:0:
140,328,61097,2,0,P|167:339|197:342,1,60,8|2,0:0|3:2,0:0:0:0:
252,344,61446,2,0,P|306:320|365:328,1,120,0|8,3:0|0:0,0:0:0:0:
416,348,61969,1,2,0:0:0:0:
416,348,62143,6,0,P|423:288|437:230,1,120,4|8,0:0|0:0,0:0:0:0:
452,180,62666,1,2,0:0:0:0:
452,180,62841,1,0,3:0:0:0:
388,92,63190,1,8,0:0:0:0:
279,103,63539,5,2,3:2:0:0:
343,191,63887,1,8,0:0:0:0:
298,290,64236,2,0,P|244:314|185:306,1,120,2|8,3:2|0:0,0:0:0:0:
140,276,64759,1,2,0:0:0:0:
140,276,64934,6,0,L|129:216,1,60,4|2,0:0|0:0,0:0:0:0:
120,164,65283,1,8,0:0:0:0:
172,68,65632,2,0,P|199:79|229:84,1,60,0|2,3:2|0:0,0:0:0:0:
282,86,65980,1,8,0:0:0:0:
360,160,66329,6,0,P|330:163|302:174,1,60,0|2,3:0|0:0,0:0:0:0:
254,198,66677,1,8,0:0:0:0:
254,198,66853,2,0,L|233:316,1,120,2|2,0:0|0:0,0:0:0:0:
224,368,67376,1,8,0:0:0:0:
120,344,67725,6,0,P|109:316|105:286,1,60,12|0,0:0|3:0,0:0:0:0:
60,256,68073,2,0,P|72:228|90:204,1,60,8|0,0:0|3:0,0:0:0:0:
79,151,68422,2,0,P|106:140|136:136,1,60,8|2,0:0|3:2,0:0:0:0:
192,140,68771,1,8,0:0:0:0:
192,140,68946,6,0,P|246:164|305:156,1,120,4|0,0:0|3:0,0:0:0:0:
408,128,69643,1,4,0:0:0:0:
408,128,69818,2,0,P|393:186|387:245,1,120,0|8,3:0|0:0,0:0:0:0:
420,348,70515,6,0,L|360:337,1,60,4|2,0:0|0:0,0:0:0:0:
316,308,70864,2,0,L|256:318,1,60,8|2,0:0|0:0,0:0:0:0:
212,348,71213,2,0,L|93:327,1,120,0|8,3:0|0:0,0:0:0:0:
32,240,71911,6,0,L|21:180,1,60,0|2,3:0|0:0,0:0:0:0:
60,144,72259,2,0,L|70:84,1,60,8|2,0:0|0:0,0:0:0:0:
84,32,72608,2,0,P|134:62|194:61,1,120,0|8,3:0|0:0,0:0:0:0:
248,52,73132,1,2,0:0:0:0:
248,52,73306,6,0,L|307:41,1,60,0|2,3:0|0:0,0:0:0:0:
360,32,73655,1,8,0:0:0:0:
404,132,74004,2,0,L|352:162,1,60,0|2,3:0|0:0,0:0:0:0:
305,189,74353,1,8,0:0:0:0:
212,244,74701,6,0,P|182:239|154:229,1,60,0|2,3:0|0:0,0:0:0:0:
108,200,75050,1,10,0:0:0:0:
88,92,75399,1,8,0:0:0:0:
171,20,75748,1,8,0:3:0:0:
274,55,76097,6,0,P|330:71|388:55,1,120,4|2,0:0|0:0,0:0:0:0:
440,32,76620,1,0,3:0:0:0:
440,32,76794,2,0,P|425:90|419:149,1,120,12|2,0:0|0:0,0:0:0:0:
416,204,77318,1,0,3:0:0:0:
416,204,77492,5,12,0:0:0:0:
504,268,77841,1,12,0:0:0:0:
405,312,78190,1,12,0:0:0:0:
306,356,78539,2,0,L|246:345,1,60,4|8,0:3|0:3,0:0:0:0:
192,344,78887,6,0,P|135:360|77:344,1,120,4|0,0:0|3:0,0:0:0:0:
36,312,79411,1,2,0:0:0:0:
36,312,79585,1,8,0:0:0:0:
92,220,79934,2,0,L|151:209,1,60,2|8,3:2|0:0,0:0:0:0:
204,200,80283,6,0,P|219:142|225:83,1,120,4|8,0:0|0:0,0:0:0:0:
132,28,80980,1,12,0:0:0:0:
132,28,81155,1,10,0:0:0:0:
44,164,81678,6,0,P|50:223|65:281,1,120,4|4,0:0|0:0,0:0:0:0:
152,348,82376,1,8,0:0:0:0:
152,348,82550,1,8,0:0:0:0:
238,294,82899,6,0,P|297:283|352:304,1,120,4|2,0:0|0:0,0:0:0:0:
396,336,83422,1,8,0:0:0:0:
488,280,83771,1,8,0:0:0:0:
486,174,84120,1,4,0:3:0:0:
393,122,84469,6,0,B|316:135|316:135|300:150|300:150|221:164,1,180,4|4,0:0|0:0,0:0:0:0:
100,56,85515,2,0,B|116:112|116:112|104:180,1,120,4|8,0:0|0:0,0:0:0:0:
60,204,86039,2,0,B|44:260|44:260|54:320,1,120,4|8,0:0|0:3,0:0:0:0:
100,352,86562,1,8,0:0:0:0:
100,352,86736,1,8,0:0:0:0:
208,336,87085,5,6,0:0:0:0:
256,192,87172,12,0,88655,0:0:0:0:
