osu file format v14

[General]
AudioFilename: audio.mp3
AudioLeadIn: 0
PreviewTime: 58219
Countdown: 0
SampleSet: Soft
StackLeniency: 0.4
Mode: 0
LetterboxInBreaks: 0
WidescreenStoryboard: 1

[Editor]
Bookmarks: 748,7725,14701,25864,37027,48190,59353,81678,87085,88655
DistanceSpacing: 0.9
BeatDivisor: 4
GridSize: 4
TimelineZoom: 2.2

[Metadata]
Title:Omoide Shiritori (TV Size)
TitleUnicode:おもいでしりとり (TV Size)
Artist:DIALOGUE+
ArtistUnicode:DIALOGUE+
Creator:Little
Version:Meyrink's Insane
Source:ひげを剃る。そして女子高生を拾う。
Tags:higehiro: after being rejected, i shaved and took in a high school runaway hige wo soru. soshite joshikousei wo hirou. anime op opening japanese pop CloudSplash16 Kyle73 Meyrink Akitoshi Corinn -Laura- Doormat
BeatmapID:2952289
BeatmapSetID:1434635

[Difficulty]
HPDrainRate:6
CircleSize:4
OverallDifficulty:8
ApproachRate:9
SliderMultiplier:1.75
SliderTickRate:1

[Events]
//Background and Video events
0,0,"sayu.jpg",0,0
Video,-50,"protecc.flv"
//Break Periods
2,53971,55264
//Storyboard Layer 0 (Background)
//Storyboard Layer 1 (Fail)
//Storyboard Layer 2 (Pass)
//Storyboard Layer 3 (Foreground)
//Storyboard Layer 4 (Overlay)
//Storyboard Sound Samples

[TimingPoints]
-647,348.837209302326,4,2,7,50,1,0
748,-200,4,2,7,50,0,0
2143,-133.333333333333,4,2,7,50,0,0
6504,-133.333333333333,4,2,7,60,0,0
7725,-100,4,2,7,80,0,0
14178,-100,4,2,7,70,0,0
14527,-100,4,2,7,70,0,0
24469,-133.333333333333,4,2,7,60,0,0
36853,-100,4,2,7,60,0,0
37027,-100,4,2,7,70,0,0
46794,-133.333333333333,4,2,7,70,0,0
48190,-111.111111111111,4,2,7,70,0,0
53771,-133.333333333333,4,2,7,50,0,0
55864,-133.333333333333,4,2,7,60,0,0
56562,-100,4,2,7,70,0,0
57957,-100,4,2,7,80,0,0
59353,-100,4,2,7,80,0,1
70166,-100,4,2,7,80,0,0
70515,-100,4,2,7,80,0,1
79585,-100,4,2,7,40,0,1
79934,-100,4,2,7,60,0,1
80283,-100,4,2,7,80,0,1
81678,-100,4,2,7,80,0,0
87085,-100,4,2,7,70,0,0
88655,-100,4,2,7,15,0,0

[Colours]
Combo1 : 128,184,225
Combo2 : 193,132,132
Combo3 : 213,170,255

[HitObjects]
365,73,748,6,0,L|407:65,1,43.75,2|0,0:0|0:0,0:0:0:0:
476,179,1097,2,0,L|432:186,1,43.75,2|0,0:0|0:0,0:0:0:0:
245,162,1446,2,0,L|288:169,1,43.75,2|0,0:0|0:0,0:0:0:0:
334,295,1794,2,0,L|290:287,1,43.75,2|0,0:0|0:0,0:0:0:0:
85,253,2143,6,0,P|117:249|149:241,1,65.6250025033952,2|0,0:0|0:0,0:0:0:0:
245,162,2492,1,2,0:0:0:0:
245,162,2666,1,0,0:0:0:0:
210,356,2841,2,0,P|203:291|186:228,1,131.25000500679,2|0,0:0|0:0,0:0:0:0:
115,125,3364,1,0,0:0:0:0:
215,5,3539,6,0,P|206:36|202:69,1,65.6250025033952,2|0,0:0|0:0,0:0:0:0:
339,137,3887,2,0,P|306:143|275:154,1,65.6250025033952,2|0,0:0|0:0,0:0:0:0:
289,286,4236,2,0,P|349:261|414:253,1,131.25000500679,2|0,0:0|0:0,0:0:0:0:
405,242,4934,6,0,P|341:233|287:268,1,131.25000500679,2|0,0:0|0:0,0:0:0:0:
134,269,5457,1,0,0:0:0:0:
134,269,5632,2,0,P|199:274|263:286,1,131.25000500679,2|2,0:0|0:0,0:0:0:0:
281,88,6329,5,2,0:0:0:0:
285,108,6417,1,8,0:0:0:0:
288,126,6504,1,8,0:0:0:0:
451,193,6678,2,0,P|418:188|385:187,1,65.6250025033952,8|2,0:3|0:0,0:0:0:0:
207,231,7027,1,8,0:0:0:0:
365,191,7201,1,4,0:3:0:0:
254,121,7376,1,8,0:3:0:0:
301,303,7550,1,8,0:3:0:0:
100,260,7725,6,0,B|57:259|31:278|31:278|38:225|19:177,1,175,4|0,0:0|0:0,0:0:0:0:
149,43,8248,1,0,0:0:0:0:
335,162,8422,2,0,P|248:151|161:143,1,175,4|0,0:0|0:0,0:0:0:0:
64,89,8946,1,0,0:0:0:0:
79,291,9120,6,0,P|122:283|167:279,1,87.5,12|0,0:0|3:0,0:0:0:0:
335,162,9469,2,0,P|292:154|248:150,1,87.5,12|0,0:0|3:0,0:0:0:0:
270,349,9818,2,0,P|273:305|281:262,1,87.5,12|2,0:0|0:0,0:0:0:0:
332,83,10166,1,4,0:3:0:0:
205,214,10341,1,8,0:3:0:0:
111,78,10515,6,0,P|153:69|197:66,1,87.5,4|2,0:0|0:0,0:0:0:0:
298,160,10864,1,0,3:0:0:0:
206,303,11039,1,2,3:2:0:0:
160,186,11213,1,0,3:0:0:0:
326,247,11387,1,2,3:2:0:0:
190,343,11562,1,0,3:0:0:0:
217,123,11736,1,2,3:2:0:0:
407,237,11911,5,4,0:0:0:0:
409,9,12085,1,10,0:0:0:0:
372,11,12172,1,8,0:0:0:0:
339,27,12259,1,8,0:0:0:0:
316,54,12346,1,4,3:0:0:0:
303,90,12433,1,8,3:0:0:0:
306,126,12521,1,8,3:0:0:0:
322,158,12608,1,12,0:0:0:0:
512,114,12783,1,4,0:0:0:0:
256,192,12957,12,2,14178,0:0:0:0:
360,173,14527,5,10,0:0:0:0:
356,169,14614,1,10,0:0:0:0:
352,165,14701,2,0,P|308:164|267:178,1,87.5,4|0,0:0|0:0,0:0:0:0:
292,316,15050,2,0,P|335:316|376:302,1,87.5,4|0,0:0|0:0,0:0:0:0:
413,99,15399,1,8,0:0:0:0:
325,240,15573,1,8,0:0:0:0:
474,253,15748,1,0,3:0:0:0:
448,20,15922,6,0,P|431:105|420:192,1,175,12|2,0:0|0:0,0:0:0:0:
229,347,16446,2,0,P|233:303|241:260,1,87.5,0|2,3:0|0:0,0:0:0:0:
310,142,16794,1,8,0:0:0:0:
113,65,16969,1,0,3:0:0:0:
113,65,17056,1,0,3:0:0:0:
113,65,17143,2,0,L|157:59,1,43.75,4|4,0:3|0:3,0:0:0:0:
227,128,17318,2,0,L|183:134,1,43.75,8|8,3:0|0:3,0:0:0:0:
91,182,17492,6,0,P|83:225|79:268,1,87.5,4|0,0:0|0:0,0:0:0:0:
307,258,17841,2,0,P|257:217|193:222,1,131.25,4|0,0:0|0:0,0:0:0:0:
160,235,18190,1,8,0:0:0:0:
325,349,18364,1,8,0:0:0:0:
320,165,18539,1,0,3:0:0:0:
79,269,18713,6,0,P|165:256|252:249,1,175,12|2,0:0|0:0,0:0:0:0:
326,139,19236,1,0,3:0:0:0:
226,35,19411,2,0,P|182:33|138:29,1,87.5,2|8,0:0|0:0,0:0:0:0:
11,181,19759,1,0,3:0:0:0:
11,181,19847,1,0,3:0:0:0:
11,181,19934,2,0,L|2:134,1,43.75,8|8,0:0|0:0,0:0:0:0:
116,109,20108,2,0,L|107:151,1,43.75,4|8,0:3|0:3,0:0:0:0:
156,242,20283,6,0,P|196:260|241:254,1,87.5,4|8,0:0|0:0,0:0:0:0:
314,210,20544,1,8,0:0:0:0:
314,210,20632,2,0,L|307:164,1,43.75,8|0,0:0|0:0,0:0:0:0:
369,91,20806,6,0,P|411:86|451:104,1,87.5,4|8,0:0|0:0,0:0:0:0:
506,180,21068,1,8,0:0:0:0:
506,180,21155,2,0,L|499:223,1,43.75,8|0,0:0|0:0,0:0:0:0:
445,299,21329,6,0,L|357:290,1,87.5,4|8,0:0|0:0,0:0:0:0:
226,322,21591,1,8,0:0:0:0:
226,322,21678,2,0,L|269:315,1,43.75,8|0,0:0|0:0,0:0:0:0:
314,210,21853,6,0,P|312:166|302:123,1,87.5,4|0,0:0|3:0,0:0:0:0:
201,43,22114,1,4,0:3:0:0:
201,43,22201,2,0,P|206:64|211:85,1,43.75,8|8,0:3|0:3,0:0:0:0:
157,172,22376,5,8,0:0:0:0:
351,55,22550,1,8,0:0:0:0:
351,55,22899,6,0,P|338:138|329:231,1,175,4|0,0:0|3:0,0:0:0:0:
181,269,23422,1,8,0:0:0:0:
232,178,23597,1,2,0:0:0:0:
232,178,23684,1,2,3:2:0:0:
232,178,23771,1,0,3:0:0:0:
280,333,23946,1,2,0:0:0:0:
71,264,24120,2,0,P|113:255|157:251,1,87.5,8|0,0:0|0:0,0:0:0:0:
307,229,24469,6,0,P|319:166|288:110,1,131.25000500679,6|0,0:0|0:0,0:0:0:0:
150,33,24992,1,2,0:0:0:0:
150,33,25079,1,2,0:0:0:0:
149,32,25166,2,0,L|219:22,1,65.6250025033952,2|0,0:0|0:0,0:0:0:0:
170,135,25515,2,0,P|136:126|100:125,1,65.6250025033952,2|0,0:0|0:0,0:0:0:0:
14,162,25864,6,0,P|26:226|35:291,1,131.25000500679,6|8,0:0|0:1,0:0:0:0:
117,337,26387,1,0,0:0:0:0:
117,337,26562,2,0,P|151:328|187:327,1,65.6250025033952,8|0,0:1|0:0,0:0:0:0:
255,259,26911,2,0,P|287:260|319:268,1,65.6250025033952,8|0,0:1|3:0,0:0:0:0:
400,196,27259,6,0,P|464:188|512:228,2,131.25000500679,2|8|8,3:2|0:1|0:1,0:0:0:0:
303,180,28132,1,0,0:0:0:0:
303,180,28306,2,0,P|298:147|289:116,1,65.6250025033952,8|0,0:1|0:0,0:0:0:0:
317,19,28655,6,0,P|348:26|381:29,1,65.6250025033952,2|0,3:2|0:0,0:0:0:0:
206,79,29004,2,0,P|173:81|141:89,1,65.6250025033952,8|0,0:1|0:0,0:0:0:0:
127,202,29353,2,0,P|158:194|191:191,1,65.6250025033952,8|0,0:1|0:0,0:0:0:0:
284,247,29701,2,0,P|293:278|288:310,1,65.6250025033952,8|0,0:1|3:0,0:0:0:0:
201,367,30050,6,0,P|136:354|71:350,2,131.25000500679,2|8|8,3:2|0:1|0:1,0:0:0:0:
371,275,31096,1,8,0:1:0:0:
371,275,31271,1,0,0:0:0:0:
282,222,31446,6,0,P|270:158|302:102,1,131.25000500679,2|8,3:2|0:1,0:0:0:0:
416,37,31969,1,0,0:0:0:0:
416,37,32143,2,0,P|383:30|351:27,1,65.6250025033952,8|0,0:1|0:0,0:0:0:0:
360,171,32492,2,0,P|392:168|424:161,1,65.6250025033952,8|0,0:1|3:0,0:0:0:0:
453,306,32841,6,0,P|388:293|323:289,1,131.25000500679,2|8,3:2|0:1,0:0:0:0:
249,211,33364,1,0,0:0:0:0:
176,291,33539,2,0,P|110:294|46:307,1,131.25000500679,8|8,0:1|0:1,0:0:0:0:
0,212,34062,1,0,0:0:0:0:
122,136,34236,6,0,P|89:129|57:127,1,65.6250025033952,2|0,3:2|0:0,0:0:0:0:
180,48,34585,2,0,P|212:45|244:39,1,65.6250025033952,8|0,0:1|0:0,0:0:0:0:
210,213,34934,2,0,P|212:180|218:148,1,65.6250025033952,8|0,0:1|0:0,0:0:0:0:
348,46,35283,2,0,P|341:78|339:110,1,65.6250025033952,8|0,0:1|0:0,0:0:0:0:
300,239,35632,6,0,B|353:229|386:257|386:257|405:222|450:204|450:204|476:238|464:286,1,262.500010013581,2|4,0:0|0:3,0:0:0:0:
380,351,36504,1,0,3:0:0:0:
375,355,36591,1,8,0:0:0:0:
371,360,36678,1,8,0:0:0:0:
339,161,36853,2,0,L|331:211,1,43.75,8|0,0:3|0:0,0:0:0:0:
291,292,37027,6,0,P|303:205|316:118,1,175,4|8,0:0|0:0,0:0:0:0:
183,195,37550,1,2,0:0:0:0:
231,353,37725,1,0,3:0:0:0:
60,297,37899,2,0,P|102:287|146:283,1,87.5,2|0,3:2|0:0,0:0:0:0:
418,248,38248,6,0,P|356:191|276:217,1,175,8|0,0:0|3:0,0:0:0:0:
183,195,38771,1,8,0:0:0:0:
324,357,38946,1,2,0:0:0:0:
324,357,39033,1,2,0:0:0:0:
324,357,39120,2,0,P|328:313|339:271,1,87.5,2|0,3:2|3:0,0:0:0:0:
275,45,39469,2,0,P|260:86|251:129,1,87.5,10|0,0:0|0:0,0:0:0:0:
460,130,39818,6,0,P|416:132|366:144,1,87.5,0|0,3:0|0:0,0:0:0:0:
262,244,40166,2,0,P|218:238|177:223,1,87.5,8|0,0:0|0:0,0:0:0:0:
78,121,40515,1,0,3:0:0:0:
78,121,40690,1,2,3:2:0:0:
32,306,40864,2,0,P|25:262|15:220,1,87.5,8|0,0:0|0:0,0:0:0:0:
168,66,41213,5,2,3:2:0:0:
98,214,41387,1,0,3:0:0:0:
239,166,41562,2,0,P|257:252|261:339,1,175,8|2,0:0|3:2,0:0:0:0:
163,283,42085,1,0,3:0:0:0:
322,180,42259,1,8,0:0:0:0:
341,356,42434,1,2,0:0:0:0:
341,356,42521,1,2,0:0:0:0:
341,356,42608,5,0,3:0:0:0:
235,262,42783,1,2,3:2:0:0:
490,256,42957,2,0,B|426:275|419:232|361:251,1,131.25,12|0,0:0|0:0,0:0:0:0:
338,263,43306,1,0,3:0:0:0:
361,83,43480,1,2,3:2:0:0:
150,178,43655,2,0,P|214:167|280:163,1,131.25,12|0,0:0|0:0,0:0:0:0:
308,161,44004,5,0,3:0:0:0:
268,336,44178,1,2,3:2:0:0:
483,271,44353,2,0,P|435:231|365:237,1,131.25,12|0,0:0|0:0,0:0:0:0:
342,253,44701,1,0,3:0:0:0:
168,187,44876,1,2,3:2:0:0:
226,367,45050,2,0,L|241:236,1,131.25,12|0,0:0|0:0,0:0:0:0:
265,202,45399,6,0,P|259:156|246:112,1,87.5,4|0,0:0|0:0,0:0:0:0:
390,39,45748,2,0,P|346:34|304:24,1,87.5,8|0,0:0|0:0,0:0:0:0:
64,106,46097,2,0,P|108:95|155:91,1,87.5,8|0,0:0|3:0,0:0:0:0:
351,216,46446,2,0,P|308:205|265:202,1,87.5,8|8,0:0|0:3,0:0:0:0:
53,287,46794,6,0,B|72:314|75:358|75:358|115:320|188:328,1,196.875007510186,4|0,0:0|3:0,0:0:0:0:
265,201,47492,1,8,0:0:0:0:
343,351,47666,2,0,P|280:334|215:329,1,131.25000500679,12|0,0:0|3:0,0:0:0:0:
111,212,48190,6,0,P|117:174|124:135,1,78.7499975967408,4|2,0:0|0:0,0:0:0:0:
20,42,48539,2,0,P|11:80|5:119,1,78.7499975967408,2|0,0:0|3:0,0:0:0:0:
47,274,48887,2,0,P|123:257|202:249,1,157.499995193482,8|2,0:0|0:0,0:0:0:0:
313,149,49411,1,2,0:0:0:0:
313,149,49498,1,8,0:0:0:0:
313,149,49585,5,0,3:0:0:0:
267,305,49759,1,8,0:0:0:0:
404,172,49934,2,0,P|399:132|388:95,1,78.7499975967408,2|0,0:0|3:0,0:0:0:0:
154,160,50283,2,0,P|193:163|231:173,1,78.7499975967408,8|2,0:0|0:0,0:0:0:0:
346,250,50632,1,2,0:0:0:0:
278,77,50806,1,0,3:0:0:0:
95,239,50980,6,0,P|173:245|249:264,1,157.499995193482,4|2,0:0|0:0,0:0:0:0:
379,347,51504,1,0,3:0:0:0:
395,130,51678,2,0,P|336:175|346:249,1,157.499995193482,8|2,0:0|0:0,0:0:0:0:
502,299,52201,1,0,3:0:0:0:
502,299,52289,1,0,3:0:0:0:
502,299,52376,5,4,0:0:0:0:
409,206,52550,1,8,0:0:0:0:
377,329,52725,1,4,3:0:0:0:
506,208,52899,1,8,3:0:0:0:
304,192,53073,1,8,0:0:0:0:
393,309,53248,1,4,3:0:0:0:
422,118,53422,1,4,3:0:0:0:
233,82,53597,1,8,3:0:0:0:
204,272,53771,5,4,0:0:0:0:
203,275,55864,5,8,0:0:0:0:
297,231,56039,1,0,3:0:0:0:
293,330,56213,1,4,3:0:0:0:
207,187,56387,1,8,3:0:0:0:
313,50,56562,5,4,0:0:0:0:
297,231,56736,1,2,0:0:0:0:
121,257,56911,1,0,3:0:0:0:
286,134,57085,1,2,3:2:0:0:
373,304,57259,5,4,0:3:0:0:
207,187,57434,1,8,0:3:0:0:
370,151,57608,1,8,0:3:0:0:
268,324,57783,1,0,3:0:0:0:
268,324,57870,1,0,3:0:0:0:
268,324,57957,5,8,0:0:0:0:
171,120,58132,1,8,0:0:0:0:
171,119,58655,6,0,P|163:163|158:206,1,87.5,2|8,3:2|0:0,0:0:0:0:
141,329,58917,1,8,0:0:0:0:
141,329,59004,2,0,L|133:287,1,43.75,8|0,0:0|3:0,0:0:0:0:
243,190,59178,2,0,L|251:232,1,43.75,8|0,0:0|3:0,0:0:0:0:
327,345,59353,6,0,P|332:301|339:258,1,87.5,4|2,0:0|0:0,0:0:0:0:
399,114,59701,1,8,0:0:0:0:
348,233,59876,1,2,0:0:0:0:
482,91,60050,2,0,P|423:32|339:52,1,175,0|8,3:0|0:0,0:0:0:0:
212,106,60573,1,2,0:0:0:0:
266,246,60748,5,0,3:0:0:0:
299,120,60922,1,2,0:0:0:0:
157,190,61097,1,8,0:0:0:0:
350,273,61271,1,2,3:2:0:0:
216,367,61446,2,0,P|217:302|227:236,1,131.25,0|0,3:0|0:0,0:0:0:0:
240,207,61794,2,0,P|282:198|326:193,1,87.5,8|0,0:0|0:0,0:0:0:0:
127,339,62143,6,0,B|79:317|21:325|21:325|35:295|27:258,1,175,4|8,0:0|0:0,0:0:0:0:
117,54,62666,1,2,0:0:0:0:
117,54,62841,2,0,L|127:140,1,87.5,0|0,3:0|0:0,0:0:0:0:
27,259,63190,2,0,P|70:262|113:270,1,87.5,8|0,0:0|0:0,0:0:0:0:
306,200,63539,6,0,P|263:191|219:188,1,87.5,2|0,3:2|0:0,0:0:0:0:
198,363,63887,2,0,P|201:319|209:276,1,87.5,8|0,0:0|0:0,0:0:0:0:
365,131,64236,2,0,P|395:209|349:282,1,175,2|8,3:2|0:0,0:0:0:0:
134,169,64759,5,2,0:0:0:0:
306,199,64934,1,4,0:0:0:0:
208,276,65108,1,2,0:0:0:0:
243,115,65283,1,8,0:0:0:0:
382,242,65457,5,2,0:0:0:0:
314,71,65632,1,0,3:2:0:0:
225,195,65806,1,2,0:0:0:0:
406,102,65980,1,8,0:0:0:0:
245,18,66155,1,2,0:0:0:0:
332,168,66329,1,0,3:0:0:0:
495,102,66504,1,2,0:0:0:0:
382,242,66678,1,8,0:0:0:0:
170,230,66853,6,0,P|213:229|256:220,1,87.5,2|0,0:0|3:0,0:0:0:0:
429,335,67201,2,0,P|386:325|342:325,1,87.5,2|8,0:0|0:0,0:0:0:0:
224,334,67550,1,2,3:2:0:0:
224,334,67637,1,2,3:2:0:0:
224,334,67725,5,12,0:0:0:0:
332,168,67899,1,0,3:0:0:0:
133,109,68073,1,8,0:0:0:0:
256,219,68248,1,0,3:0:0:0:
265,34,68422,1,8,0:0:0:0:
182,187,68597,1,2,3:2:0:0:
346,256,68771,1,8,0:0:0:0:
97,228,68946,6,0,P|183:216|270:206,1,175,4|0,0:0|3:0,0:0:0:0:
352,130,69469,1,8,0:0:0:0:
443,302,69643,2,0,B|422:328|422:360|422:360|370:330|313:345,1,175,4|0,0:0|3:0,0:0:0:0:
180,240,70166,2,0,P|181:194|191:154,1,87.5,8|2,0:0|0:0,0:0:0:0:
382,29,70515,5,4,0:0:0:0:
300,116,70690,1,2,0:0:0:0:
425,164,70864,2,0,P|435:206|436:250,1,87.5,8|2,0:0|0:0,0:0:0:0:
313,344,71213,2,0,P|226:331|139:327,1,175,0|8,3:0|0:0,0:0:0:0:
115,171,71736,1,2,0:0:0:0:
39,293,71911,5,0,3:0:0:0:
207,238,72085,1,2,0:0:0:0:
63,102,72259,1,8,0:0:0:0:
121,250,72434,1,2,0:0:0:0:
306,166,72608,2,0,P|262:163|219:157,1,87.5,0|2,3:0|0:0,0:0:0:0:
171,325,72957,2,0,P|214:331|257:333,1,87.5,8|2,0:0|0:0,0:0:0:0:
467,236,73306,5,0,3:0:0:0:
356,265,73480,1,2,0:0:0:0:
396,171,73655,1,8,0:0:0:0:
436,330,73829,1,2,0:0:0:0:
258,247,74004,5,0,3:0:0:0:
429,101,74178,1,2,0:0:0:0:
356,265,74353,1,8,0:0:0:0:
191,182,74527,1,2,0:0:0:0:
267,336,74701,5,0,3:0:0:0:
316,161,74876,1,2,0:0:0:0:
136,119,75050,1,10,0:0:0:0:
86,293,75225,1,2,0:0:0:0:
369,246,75399,6,0,P|326:256|282:258,1,87.5,8|0,0:0|0:0,0:0:0:0:
65,198,75748,2,0,P|108:200|151:210,1,87.5,8|0,0:3|3:0,0:0:0:0:
407,329,76097,6,0,P|452:258|423:179,1,175,4|2,0:0|0:0,0:0:0:0:
270,112,76620,1,0,3:0:0:0:
402,9,76794,2,0,P|388:96|377:183,1,175,12|2,0:0|0:0,0:0:0:0:
282,258,77318,1,0,3:0:0:0:
173,163,77492,6,0,P|178:122|188:75,1,87.5,12|0,0:0|3:0,0:0:0:0:
0,251,77841,2,0,P|42:241|86:236,1,87.5,12|0,0:0|3:0,0:0:0:0:
246,334,78190,2,0,P|202:338|160:348,1,87.5,12|0,0:0|3:0,0:0:0:0:
85,147,78539,1,4,0:3:0:0:
195,249,78713,1,8,0:3:0:0:
241,107,78887,6,0,P|284:111|327:120,1,87.5,4|2,0:0|0:0,0:0:0:0:
500,51,79236,2,0,P|457:60|413:64,1,87.5,0|2,3:0|0:0,0:0:0:0:
201,31,79585,5,8,0:0:0:0:
170,54,79672,1,2,0:0:0:0:
153,90,79759,1,8,0:0:0:0:
155,130,79847,1,8,0:0:0:0:
175,165,79934,1,2,3:2:0:0:
188,202,80021,1,8,0:0:0:0:
184,241,80109,1,8,0:0:0:0:
161,274,80196,1,8,0:0:0:0:
127,292,80283,6,0,P|126:226|141:159,1,131.25,4|0,0:0|0:0,0:0:0:0:
241,107,80632,1,8,0:0:0:0:
241,107,80719,1,8,0:0:0:0:
241,107,80806,1,8,3:0:0:0:
241,107,80893,1,8,3:0:0:0:
241,107,80980,1,12,0:0:0:0:
285,280,81155,1,10,0:0:0:0:
285,280,81678,6,0,P|329:282|372:292,1,87.5,4|0,0:0|0:0,0:0:0:0:
394,176,82027,2,0,P|351:166|307:164,1,87.5,4|0,0:0|0:0,0:0:0:0:
129,210,82376,1,8,0:0:0:0:
218,50,82550,1,8,0:0:0:0:
239,207,82725,1,0,3:0:0:0:
78,132,82899,6,0,P|93:218|104:304,1,175,4|2,0:0|0:0,0:0:0:0:
311,358,83422,2,0,P|305:314|299:271,1,87.5,8|0,0:0|0:0,0:0:0:0:
182,142,83771,1,8,0:0:0:0:
373,179,83946,1,0,3:0:0:0:
373,179,84033,1,0,3:0:0:0:
373,179,84120,2,0,L|381:137,1,43.75,4|4,0:3|0:3,0:0:0:0:
260,91,84294,2,0,L|268:133,1,43.75,8|8,0:3|0:3,0:0:0:0:
217,238,84469,6,0,P|173:239|130:230,1,87.5,4|8,0:0|0:0,0:0:0:0:
58,280,84730,1,8,0:0:0:0:
58,280,84818,2,0,L|65:334,1,43.75,8|0,0:0|0:0,0:0:0:0:
0,211,84992,6,0,P|3:167|21:119,1,87.5,4|8,0:0|0:0,0:0:0:0:
81,65,85254,1,8,0:0:0:0:
81,65,85341,2,0,L|124:71,1,43.75,8|0,0:0|0:0,0:0:0:0:
215,116,85515,6,0,L|301:104,1,87.5,4|8,0:0|0:0,0:0:0:0:
421,171,85777,1,8,0:0:0:0:
421,171,85864,2,0,L|378:164,1,43.75,8|0,0:0|0:0,0:0:0:0:
288,210,86039,6,0,P|273:251|270:294,1,87.5,4|0,0:0|3:0,0:0:0:0:
344,367,86300,1,4,0:3:0:0:
344,367,86387,2,0,L|387:360,1,43.75,8|8,0:3|0:3,0:0:0:0:
462,282,86562,5,8,0:0:0:0:
203,179,86736,1,8,0:0:0:0:
203,179,87085,5,6,0:0:0:0:
256,192,87172,12,0,88655,0:0:0:0:
