osu file format v14

[General]
AudioFilename: audio.mp3
AudioLeadIn: 0
PreviewTime: 58219
Countdown: 0
SampleSet: Soft
StackLeniency: 0.5
Mode: 0
LetterboxInBreaks: 0
WidescreenStoryboard: 0

[Editor]
DistanceSpacing: 1.2
BeatDivisor: 4
GridSize: 4
TimelineZoom: 1

[Metadata]
Title:Omoide Shiritori (TV Size)
TitleUnicode:おもいでしりとり (TV Size)
Artist:DIALOGUE+
ArtistUnicode:DIALOGUE+
Creator:Little
Version:Kyle73's Hard
Source:ひげを剃る。そして女子高生を拾う。
Tags:higehiro: after being rejected, i shaved and took in a high school runaway hige wo soru. soshite joshikousei wo hirou. anime op opening japanese pop CloudSplash16 Kyle73 Meyrink Akitoshi Corinn -Laura- Doormat
BeatmapID:2952288
BeatmapSetID:1434635

[Difficulty]
HPDrainRate:5
CircleSize:3.5
OverallDifficulty:6
ApproachRate:8
SliderMultiplier:1.37
SliderTickRate:1

[Events]
//Background and Video events
0,0,"sayu.jpg",0,0
Video,-50,"protecc.flv"
//Break Periods
//Storyboard Layer 0 (Background)
//Storyboard Layer 1 (Fail)
//Storyboard Layer 2 (Pass)
//Storyboard Layer 3 (Foreground)
//Storyboard Layer 4 (Overlay)
//Storyboard Sound Samples

[TimingPoints]
-647,348.837209302326,4,2,7,50,1,0
6504,-100,4,2,7,60,0,0
7725,-100,4,2,7,80,0,0
14178,-100,4,2,7,70,0,0
24469,-100,4,2,7,60,0,0
25864,-111.111111111111,4,2,7,60,0,0
37027,-100,4,2,7,70,0,0
48190,-125,4,2,7,70,0,0
53771,-166.666666666667,4,2,7,50,0,0
55864,-166.666666666667,4,2,7,60,0,0
56213,-125,4,2,7,60,0,0
56562,-90.9090909090909,4,2,7,70,0,0
57957,-90.9090909090909,4,2,7,80,0,0
59353,-90.9090909090909,4,2,7,80,0,1
75399,-100,4,2,7,80,0,0
78887,-90.9090909090909,4,2,7,80,0,0
79585,-90.9090909090909,4,2,7,40,0,0
79934,-90.9090909090909,4,2,7,60,0,0
80283,-90.9090909090909,4,2,7,80,0,0
81678,-90.9090909090909,4,2,7,80,0,0
87085,-90.9090909090909,4,2,7,70,0,0
88655,-90.9090909090909,4,2,7,15,0,0

[Colours]
Combo1 : 128,184,225
Combo2 : 193,132,132
Combo3 : 213,170,255

[HitObjects]
69,43,2143,6,0,L|53:128,1,68.5,2|0,0:0|0:0,0:0:0:0:
167,168,2492,2,0,L|155:101,1,68.5,2|0,0:0|0:0,0:0:0:0:
254,115,2841,2,0,P|320:111|361:58,1,137,2|0,0:0|0:0,0:0:0:0:
476,101,3364,1,0,0:0:0:0:
476,101,3539,6,0,L|486:168,1,68.5,2|0,0:0|0:0,0:0:0:0:
382,251,3887,2,0,L|392:183,1,68.5,2|0,0:0|0:0,0:0:0:0:
288,216,4236,2,0,B|211:246|246:256|168:281,1,137,2|0,0:0|0:0,0:0:0:0:
78,237,4759,1,0,0:0:0:0:
91,142,4934,5,2,0:0:0:0:
325,36,5457,1,0,0:0:0:0:
325,36,5632,2,0,L|257:28,1,68.5,2|0,0:0|0:0,0:0:0:0:
259,127,5980,2,0,L|191:135,1,68.5,2|0,0:0|0:0,0:0:0:0:
114,61,6329,6,0,P|109:44|107:27,2,34.25,2|8|8,0:0|0:0|0:0,0:0:0:0:
41,133,6678,2,0,P|37:168|31:201,1,68.5,8|2,0:3|0:0,0:0:0:0:
8,307,7027,2,0,L|74:289,1,68.5,8|4,0:0|0:3,0:0:0:0:
145,219,7376,1,8,0:3:0:0:
145,219,7550,1,8,0:3:0:0:
213,298,7725,6,0,B|294:310|258:334|339:346,1,137,4|0,0:0|0:0,0:0:0:0:
428,299,8248,1,0,0:0:0:0:
428,299,8422,2,0,P|424:238|364:249,1,137,4|0,0:0|0:0,0:0:0:0:
283,220,8946,1,0,0:0:0:0:
304,137,9120,6,0,L|312:68,1,68.5,12|0,0:0|3:0,0:0:0:0:
387,20,9469,2,0,L|441:60,1,68.5,12|0,0:0|3:0,0:0:0:0:
456,149,9818,2,0,L|393:176,1,68.5,12|2,0:0|0:0,0:0:0:0:
362,263,10166,1,0,0:3:0:0:
362,263,10341,1,8,0:3:0:0:
475,347,10515,6,0,L|481:278,1,68.5,4|2,0:0|0:0,0:0:0:0:
454,181,10864,1,0,3:0:0:0:
454,181,11039,1,2,3:2:0:0:
362,263,11213,2,0,B|312:274|312:274|294:296|294:296|238:309,1,137,0|0,3:0|3:0,0:0:0:0:
170,367,11736,1,2,3:2:0:0:
49,302,11911,6,0,P|113:291|138:230,1,137,4|8,0:0|0:0,0:0:0:0:
87,149,12434,1,8,3:0:0:0:
87,149,12521,1,8,3:0:0:0:
87,149,12608,1,12,0:0:0:0:
29,212,12783,1,4,0:0:0:0:
29,212,14178,5,2,0:0:0:0:
135,71,14527,5,10,0:0:0:0:
135,71,14614,1,10,0:0:0:0:
135,71,14701,2,0,L|203:63,1,68.5,4|0,0:0|0:0,0:0:0:0:
124,172,15050,2,0,L|55:164,1,68.5,4|0,0:0|0:0,0:0:0:0:
1,252,15399,1,8,0:0:0:0:
94,333,15573,2,0,P|102:299|102:265,1,68.5,8|0,0:0|3:0,0:0:0:0:
150,155,15922,6,0,P|191:206|257:201,1,137,12|2,0:0|0:0,0:0:0:0:
343,246,16446,2,0,P|375:236|409:233,1,68.5,0|2,3:0|0:0,0:0:0:0:
505,272,16794,2,0,L|498:238,3,34.25,8|8|0|0,0:0|0:0|3:0|3:0,0:0:0:0:
486,210,17143,2,0,L|493:176,3,34.25,4|4|8|8,0:3|0:3|3:0|0:3,0:0:0:0:
504,143,17492,6,0,P|469:140|437:130,1,68.5,4|0,0:0|0:0,0:0:0:0:
322,55,17841,2,0,P|354:44|388:42,1,68.5,4|0,0:0|0:0,0:0:0:0:
333,150,18190,1,8,0:0:0:0:
333,150,18364,2,0,L|265:161,1,68.5,8|0,0:0|3:0,0:0:0:0:
204,252,18713,6,0,P|166:199|100:203,1,137,12|2,0:0|0:0,0:0:0:0:
28,266,19236,1,0,3:0:0:0:
28,266,19411,1,2,0:0:0:0:
27,160,19585,2,0,L|20:126,3,34.25,8|8|0|0,0:0|0:0|3:0|3:0,0:0:0:0:
42,105,19934,2,0,L|49:71,3,34.25,8|8|4|8,0:0|0:0|0:3|0:3,0:0:0:0:
61,43,20283,6,0,B|144:63|108:83|184:99,1,137,4|8,0:0|0:0,0:0:0:0:
344,121,20806,2,0,B|307:120|285:89|285:89|288:125|269:154,1,137,4|8,0:0|0:0,0:0:0:0:
180,197,21329,2,0,B|150:243|150:286|150:286|180:314,1,137,4|8,0:0|0:0,0:0:0:0:
273,368,21853,2,0,B|303:322|303:279|303:279|272:250,1,137,4|8,0:0|0:3,0:0:0:0:
361,204,22376,1,8,0:0:0:0:
415,287,22550,1,8,0:0:0:0:
180,314,22899,6,0,B|101:333|142:352|58:374,1,137,4|0,0:0|3:0,0:0:0:0:
0,262,23422,2,0,P|32:271|66:273,1,68.5,8|2,0:0|0:0,0:0:0:0:
191,187,23771,2,0,P|156:189|124:198,1,68.5,0|2,3:0|0:0,0:0:0:0:
1,137,24120,2,0,B|28:91|28:91|75:102,1,102.75,8|0,0:0|0:0,0:0:0:0:
100,113,24469,5,6,0:0:0:0:
197,315,24992,1,2,0:0:0:0:
197,315,25079,1,2,0:0:0:0:
197,315,25166,1,2,0:0:0:0:
67,272,25515,1,2,0:0:0:0:
191,187,25864,6,0,P|252:188|307:214,1,123.299996237183,6|8,0:0|0:1,0:0:0:0:
427,125,26387,1,0,0:0:0:0:
427,125,26562,2,0,P|365:123|310:97,1,123.299996237183,8|8,0:1|0:1,0:0:0:0:
256,26,27085,1,0,3:0:0:0:
169,46,27259,6,0,L|107:49,1,61.6499981185914,2|0,3:2|0:0,0:0:0:0:
15,117,27608,2,0,P|40:135|53:163,1,61.6499981185914,8|0,0:1|0:0,0:0:0:0:
131,239,27957,2,0,P|143:211|168:193,1,61.6499981185914,8|0,0:1|0:0,0:0:0:0:
256,174,28306,1,8,0:1:0:0:
307,253,28480,1,0,0:0:0:0:
307,253,28655,6,0,L|368:258,1,61.6499981185914,2|0,3:2|0:0,0:0:0:0:
422,173,29004,2,0,P|468:210|472:270,2,123.299996237183,8|8|8,0:1|0:1|0:1,0:0:0:0:
356,112,29876,1,0,3:0:0:0:
372,21,30050,6,0,L|310:26,1,61.6499981185914,2|0,3:2|0:0,0:0:0:0:
262,116,30399,2,0,L|200:110,1,61.6499981185914,8|0,0:1|0:0,0:0:0:0:
152,21,30748,2,0,L|90:26,1,61.6499981185914,8|0,0:1|0:0,0:0:0:0:
13,102,31097,1,8,0:1:0:0:
101,130,31271,1,0,0:0:0:0:
29,193,31446,6,0,B|-2:227|1:271|1:271|35:287,1,123.299996237183,2|8,3:2|0:1,0:0:0:0:
123,274,31969,1,0,0:0:0:0:
122,273,32143,2,0,P|152:279|180:291,1,61.6499981185914,8|0,0:1|0:0,0:0:0:0:
237,365,32492,1,8,0:1:0:0:
310,308,32666,1,0,3:0:0:0:
310,308,32841,6,0,L|371:313,1,61.6499981185914,2|0,3:2|0:0,0:0:0:0:
462,329,33190,1,8,0:1:0:0:
478,238,33364,1,0,0:0:0:0:
387,222,33539,2,0,P|356:215|328:203,1,61.6499981185914,8|0,0:1|0:0,0:0:0:0:
239,181,33887,1,8,0:1:0:0:
248,97,34062,1,0,0:0:0:0:
248,97,34236,6,0,L|256:35,1,61.6499981185914,2|0,3:2|0:0,0:0:0:0:
341,6,34585,2,0,L|389:43,1,61.6499981185914,8|0,0:1|0:0,0:0:0:0:
373,132,34934,2,0,L|315:155,1,61.6499981185914,8|0,0:1|0:0,0:0:0:0:
297,247,35283,1,8,0:1:0:0:
395,258,35457,1,0,0:0:0:0:
395,258,35632,6,0,B|287:282|348:309|230:335,1,184.949994355774,2|0,0:0|0:0,0:0:0:0:
146,373,36329,2,0,P|148:342|150:311,1,61.6499981185914,4|0,0:3|3:0,0:0:0:0:
138,288,36591,1,8,0:0:0:0:
138,288,36678,2,0,P|135:257|133:226,1,61.6499981185914,8|8,0:0|0:3,0:0:0:0:
14,128,37027,6,0,B|70:144|70:144|142:114,1,137,4|8,0:0|0:0,0:0:0:0:
211,46,37550,1,2,0:0:0:0:
210,45,37725,2,0,P|231:71|240:104,1,68.5,0|2,3:0|3:2,0:0:0:0:
301,183,38073,1,0,0:0:0:0:
387,132,38248,1,8,0:0:0:0:
387,132,38422,6,0,L|455:126,1,68.5,0|0,0:0|3:0,0:0:0:0:
455,257,38771,2,0,L|387:252,1,68.5,8|2,0:0|0:0,0:0:0:0:
305,295,39120,2,0,B|294:326|294:326|307:358,2,68.5,2|0|10,3:2|3:0|0:0,0:0:0:0:
276,214,39643,1,0,0:0:0:0:
196,261,39818,6,0,L|127:264,1,68.5,0|0,3:0|0:0,0:0:0:0:
16,308,40166,2,0,B|26:256|26:256|49:237|49:237|59:183,1,137,8|0,0:0|3:0,0:0:0:0:
0,116,40690,1,2,3:2:0:0:
83,85,40864,2,0,L|150:96,1,68.5,8|0,0:0|0:0,0:0:0:0:
244,53,41213,5,2,3:2:0:0:
272,145,41387,1,0,3:0:0:0:
362,96,41562,2,0,L|429:84,1,68.5,8|0,0:0|0:0,0:0:0:0:
512,146,41911,2,0,B|495:176|495:176|502:209,1,68.5,2|0,3:2|3:0,0:0:0:0:
506,298,42259,1,8,0:0:0:0:
412,252,42434,1,2,0:0:0:0:
412,252,42521,1,2,0:0:0:0:
412,252,42608,6,0,L|343:259,2,68.5,0|2|12,3:0|3:2|0:0,0:0:0:0:
503,209,43132,1,0,0:0:0:0:
420,148,43306,2,0,B|412:114|412:114|429:84,1,68.5,0|2,3:0|3:2,0:0:0:0:
339,10,43655,2,0,B|346:43|346:43|329:73,1,68.5,12|0,0:0|0:0,0:0:0:0:
254,131,44004,5,0,3:0:0:0:
172,157,44178,1,2,3:2:0:0:
172,157,44353,2,0,L|104:170,1,68.5,12|0,0:0|0:0,0:0:0:0:
16,162,44701,1,0,3:0:0:0:
30,77,44876,1,2,3:2:0:0:
30,77,45050,2,0,L|98:64,1,68.5,12|0,0:0|0:0,0:0:0:0:
164,0,45399,6,0,P|185:26|192:59,1,68.5,4|0,0:0|0:0,0:0:0:0:
272,138,45748,2,0,P|278:104|300:78,1,68.5,8|0,0:0|0:0,0:0:0:0:
386,23,46097,2,0,L|454:29,1,68.5,8|0,0:0|3:0,0:0:0:0:
512,127,46446,2,0,L|443:133,1,68.5,8|8,0:0|0:3,0:0:0:0:
289,177,46794,6,0,B|328:170|355:152|355:152|346:193|350:217,1,137,4|0,0:0|0:0,0:0:0:0:
430,279,47318,1,0,3:0:0:0:
324,320,47492,1,8,0:0:0:0:
324,320,47666,2,0,B|277:332|277:332|265:345|265:345|195:359,1,137,12|0,0:0|3:0,0:0:0:0:
89,343,48190,6,0,P|91:315|96:288,1,54.8,4|2,0:0|0:0,0:0:0:0:
7,240,48539,2,0,P|4:212|0:185,1,54.8,2|0,0:0|3:0,0:0:0:0:
37,60,48887,2,0,P|59:107|111:119,1,109.6,8|2,0:0|0:0,0:0:0:0:
207,78,49411,1,2,0:0:0:0:
271,163,49585,6,0,L|325:169,1,54.8,0|8,3:0|0:0,0:0:0:0:
367,89,49934,2,0,L|421:82,1,54.8,2|0,0:0|3:0,0:0:0:0:
490,15,50283,1,8,0:0:0:0:
490,15,50632,1,2,0:0:0:0:
512,108,50806,1,0,3:0:0:0:
440,171,50980,5,4,0:0:0:0:
440,171,51155,2,0,L|445:225,1,54.8,0|2,0:0|0:0,0:0:0:0:
512,288,51504,1,0,3:0:0:0:
413,328,51678,2,0,P|387:337|364:352,1,54.8,8|0,0:0|0:0,0:0:0:0:
345,247,52027,2,0,P|319:237|296:222,1,54.8,2|0,0:0|3:0,0:0:0:0:
239,134,52376,6,0,P|195:165|187:218,1,109.6,4|4,0:0|3:0,0:0:0:0:
139,305,52899,1,8,3:0:0:0:
41,299,53073,1,8,0:0:0:0:
41,299,53422,1,4,3:0:0:0:
93,222,53597,1,8,3:0:0:0:
187,218,53771,5,4,0:0:0:0:
187,217,54120,2,0,P|226:226|257:253,2,82.1999974914552,2|0|2,0:0|0:0|0:0,0:0:0:0:
41,299,55166,2,0,L|34:217,1,82.1999974914552,2|0,0:0|0:0,0:0:0:0:
0,123,55690,1,0,0:0:0:0:
53,44,55864,1,8,0:0:0:0:
53,44,56039,1,0,3:0:0:0:
140,83,56213,2,0,L|194:85,1,54.8,4|8,3:0|3:0,0:0:0:0:
272,25,56562,6,0,P|291:58|293:95,1,75.3500022994996,4|2,0:0|0:0,0:0:0:0:
394,182,56911,2,0,P|395:144|414:112,1,75.3500022994996,0|2,3:0|3:2,0:0:0:0:
495,207,57259,1,4,0:3:0:0:
428,284,57434,1,8,0:3:0:0:
329,263,57608,1,8,0:3:0:0:
255,332,57783,5,0,3:0:0:0:
255,332,57870,1,0,3:0:0:0:
255,332,57957,1,8,0:0:0:0:
352,356,58132,1,8,0:0:0:0:
495,207,58655,5,2,3:2:0:0:
439,134,58829,1,8,0:0:0:0:
439,134,58916,1,8,0:0:0:0:
439,134,59004,2,0,L|430:97,3,37.6750011497498,8|0|8|0,0:0|3:0|0:0|3:0,0:0:0:0:
438,64,59353,6,0,L|362:58,1,75.3500022994996,4|2,0:0|0:0,0:0:0:0:
263,27,59701,1,8,0:0:0:0:
198,111,59876,1,2,0:0:0:0:
198,111,60050,2,0,B|110:140|148:153|63:177,1,150.700004598999,0|8,3:0|0:0,0:0:0:0:
17,265,60573,1,2,0:0:0:0:
114,357,60748,6,0,P|121:320|117:282,1,75.3500022994996,0|2,3:0|0:0,0:0:0:0:
231,213,61097,2,0,P|227:250|234:287,1,75.3500022994996,8|2,0:0|3:2,0:0:0:0:
343,370,61446,2,0,P|363:301|434:291,1,150.700004598999,0|8,3:0|0:0,0:0:0:0:
512,225,61969,1,0,0:0:0:0:
432,154,62143,6,0,L|419:79,1,75.3500022994996,4|0,0:0|0:0,0:0:0:0:
326,32,62492,1,8,0:0:0:0:
269,114,62666,1,2,0:0:0:0:
268,114,62841,2,0,P|231:119|196:133,1,75.3500022994996,0|0,3:0|0:0,0:0:0:0:
146,48,63190,2,0,P|108:42|73:28,1,75.3500022994996,8|0,0:0|0:0,0:0:0:0:
10,113,63539,6,0,L|24:186,1,75.3500022994996,2|0,3:2|0:0,0:0:0:0:
114,283,63887,2,0,L|128:209,1,75.3500022994996,8|0,0:0|0:0,0:0:0:0:
195,133,64236,2,0,B|251:159|267:188|267:188|237:239,1,150.700004598999,2|8,3:2|0:0,0:0:0:0:
323,305,64759,1,2,0:0:0:0:
323,305,64934,6,0,B|408:319|380:337|465:349,1,150.700004598999,4|8,0:0|0:0,0:0:0:0:
512,267,65457,1,2,0:0:0:0:
432,198,65632,2,0,L|440:123,1,75.3500022994996,0|2,3:2|0:0,0:0:0:0:
502,43,65980,1,8,0:0:0:0:
394,27,66155,1,2,0:0:0:0:
336,119,66329,6,0,L|261:132,2,75.3500022994996,0|2|8,3:0|0:0|0:0,0:0:0:0:
432,198,66853,2,0,L|506:211,1,75.3500022994996,2|0,0:0|3:0,0:0:0:0:
502,309,67201,1,2,0:0:0:0:
401,292,67376,1,8,0:0:0:0:
331,365,67550,1,2,3:2:0:0:
331,365,67725,6,0,L|315:291,1,75.3500022994996,12|0,0:0|3:0,0:0:0:0:
208,215,68073,2,0,L|192:288,1,75.3500022994996,8|0,0:0|3:0,0:0:0:0:
125,365,68422,1,8,0:0:0:0:
31,325,68597,1,2,3:2:0:0:
102,258,68771,1,8,0:0:0:0:
192,287,68946,6,0,P|264:299|313:245,1,150.700004598999,4|0,0:0|3:0,0:0:0:0:
407,189,69469,1,8,0:0:0:0:
483,267,69643,2,0,B|494:308|494:308|483:339,2,75.3500022994996,4|0|0,0:0|0:0|3:0,0:0:0:0:
407,189,70166,2,0,B|396:157|396:157|407:116,1,75.3500022994996,8|2,0:0|0:0,0:0:0:0:
439,16,70515,5,4,0:0:0:0:
341,45,70690,1,2,0:0:0:0:
341,45,70864,2,0,L|266:52,1,75.3500022994996,8|2,0:0|0:0,0:0:0:0:
138,41,71213,2,0,B|182:16|182:16|169:115,1,150.700004598999,0|8,3:0|0:0,0:0:0:0:
105,196,71736,1,2,0:0:0:0:
212,289,71911,6,0,B|222:250|222:250|214:215,1,75.3500022994996,0|2,3:0|0:0,0:0:0:0:
343,124,72259,2,0,B|335:158|335:158|345:197,1,75.3500022994996,8|2,0:0|0:0,0:0:0:0:
436,299,72608,2,0,L|361:312,1,75.3500022994996,0|2,3:0|0:0,0:0:0:0:
284,371,72957,1,8,0:0:0:0:
284,371,73132,1,2,0:0:0:0:
184,304,73306,6,0,P|146:307|115:328,1,75.3500022994996,0|2,3:0|0:0,0:0:0:0:
6,180,73655,2,0,P|36:200|74:204,1,75.3500022994996,8|2,0:0|0:0,0:0:0:0:
159,119,74004,2,0,L|144:45,1,75.3500022994996,0|2,3:0|0:0,0:0:0:0:
277,139,74353,2,0,L|262:212,1,75.3500022994996,8|2,0:0|0:0,0:0:0:0:
184,304,74701,5,0,3:0:0:0:
286,302,74876,1,2,0:0:0:0:
359,372,75050,1,10,0:0:0:0:
455,238,75399,6,0,L|446:170,1,68.5,8|0,0:0|0:0,0:0:0:0:
492,83,75748,1,8,0:3:0:0:
396,65,75922,1,0,3:0:0:0:
343,148,76097,6,0,B|289:163|289:163|274:185|274:185|222:201,1,137,4|2,0:0|0:0,0:0:0:0:
160,288,76620,1,0,3:0:0:0:
61,234,76794,2,0,L|69:165,1,68.5,12|0,0:0|0:0,0:0:0:0:
17,81,77143,1,2,0:0:0:0:
114,58,77318,1,0,3:0:0:0:
168,141,77492,6,0,L|236:149,1,68.5,12|0,0:0|3:0,0:0:0:0:
373,231,77841,2,0,L|305:239,1,68.5,12|0,0:0|3:0,0:0:0:0:
148,308,78190,2,0,L|216:316,1,68.5,12|0,0:0|3:0,0:0:0:0:
338,344,78539,1,4,0:3:0:0:
338,344,78713,1,8,0:3:0:0:
373,231,78887,6,0,B|380:189|380:189|368:158,1,75.3500022994996,4|2,0:0|0:0,0:0:0:0:
399,65,79236,1,0,3:0:0:0:
305,56,79411,1,2,0:0:0:0:
261,139,79585,2,0,L|187:157,1,75.3500022994996,8|8,0:0|0:0,0:0:0:0:
174,48,79934,2,0,L|100:29,1,75.3500022994996,2|8,3:2|0:0,0:0:0:0:
3,107,80283,6,0,P|19:140|21:177,1,75.3500022994996,4|0,0:0|0:0,0:0:0:0:
105,276,80632,2,0,L|110:238,3,37.6750011497498,8|8|8|8,0:0|0:0|3:0|3:0,0:0:0:0:
110,205,80980,1,12,0:0:0:0:
214,277,81155,1,10,0:0:0:0:
214,277,81329,2,0,L|289:280,1,75.3500022994996,2|0,0:0|0:0,0:0:0:0:
389,326,81678,6,0,B|402:291|402:291|393:254,1,75.3500022994996,4|0,0:0|0:0,0:0:0:0:
299,184,82027,2,0,B|286:149|286:149|294:112,1,75.3500022994996,4|0,0:0|0:0,0:0:0:0:
365,35,82376,1,8,0:0:0:0:
365,35,82550,2,0,L|439:46,1,75.3500022994996,8|0,0:0|3:0,0:0:0:0:
509,163,82899,6,0,P|437:160|403:223,1,150.700004598999,4|2,0:0|0:0,0:0:0:0:
350,322,83422,2,0,L|275:333,1,75.3500022994996,8|0,0:0|0:0,0:0:0:0:
193,257,83771,2,0,L|155:251,3,37.6750011497498,8|8|0|0,0:0|0:0|3:0|3:0,0:0:0:0:
130,229,84120,2,0,L|92:234,3,37.6750011497498,4|4|8|8,0:3|0:3|0:3|0:3,0:0:0:0:
64,251,84469,6,0,B|78:184|58:145|58:145|19:126,1,150.700004598999,4|8,0:0|0:0,0:0:0:0:
71,16,84992,2,0,B|127:27|127:27|148:56|148:56|204:69,1,150.700004598999,4|8,0:0|0:0,0:0:0:0:
372,150,85516,2,0,B|322:158|295:135|295:135|263:165|256:192,1,150.700004598999,4|8,0:0|0:0,0:0:0:0:
215,310,86039,2,0,B|265:302|292:325|292:325|324:295|330:267,1,150.700004598999,4|8,0:0|0:3,0:0:0:0:
372,150,86562,1,8,0:0:0:0:
464,228,86736,1,8,0:0:0:0:
256,192,87085,5,6,0:0:0:0:
256,192,87172,12,0,88655,0:0:0:0:
