osu file format v14

[General]
AudioFilename: audio.mp3
AudioLeadIn: 0
PreviewTime: 58219
Countdown: 0
SampleSet: Soft
StackLeniency: 0.3
Mode: 0
LetterboxInBreaks: 0
WidescreenStoryboard: 1

[Editor]
Bookmarks: 64934,70515
DistanceSpacing: 1.2
BeatDivisor: 4
GridSize: 4
TimelineZoom: 1

[Metadata]
Title:Omoide Shiritori (TV Size)
TitleUnicode:おもいでしりとり (TV Size)
Artist:DIALOGUE+
ArtistUnicode:DIALOGUE+
Creator:Little
Version:Kyle73's Expert
Source:ひげを剃る。そして女子高生を拾う。
Tags:higehiro: after being rejected, i shaved and took in a high school runaway hige wo soru. soshite joshikousei wo hirou. anime op opening japanese pop CloudSplash16 Kyle73 Meyrink Akitoshi Corinn -Laura- Doormat
BeatmapID:2952287
BeatmapSetID:1434635

[Difficulty]
HPDrainRate:6
CircleSize:4
OverallDifficulty:8.7
ApproachRate:9.2
SliderMultiplier:1.73
SliderTickRate:1

[Events]
//Background and Video events
0,0,"sayu.jpg",0,0
Video,-50,"protecc.flv"
//Break Periods
//Storyboard Layer 0 (Background)
//Storyboard Layer 1 (Fail)
//Storyboard Layer 2 (Pass)
//Storyboard Layer 3 (Foreground)
//Storyboard Layer 4 (Overlay)
//Storyboard Sound Samples

[TimingPoints]
-647,348.837209302326,4,2,7,50,1,0
6504,-100,4,2,7,60,0,0
7725,-100,4,2,7,80,0,0
10166,-80,4,2,7,80,0,0
10515,-100,4,2,7,80,0,0
12259,-80,4,2,7,80,0,0
12957,-125,4,2,7,80,0,0
14178,-125,4,2,7,70,0,0
14701,-100,4,2,7,70,0,0
19934,-80,4,2,7,70,0,0
22899,-100,4,2,7,70,0,0
24469,-100,4,2,7,60,0,0
25864,-111.111111111111,4,2,7,60,0,0
37027,-100,4,2,7,70,0,0
48190,-125,4,2,7,70,0,0
53771,-166.666666666667,4,2,7,50,0,0
55864,-166.666666666667,4,2,7,60,0,0
56213,-125,4,2,7,60,0,0
56562,-90.9090909090909,4,2,7,70,0,0
57957,-90.9090909090909,4,2,7,80,0,0
59353,-90.9090909090909,4,2,7,80,0,1
75399,-100,4,2,7,80,0,0
78887,-90.9090909090909,4,2,7,80,0,0
79585,-80,4,2,7,40,0,0
79934,-80,4,2,7,60,0,0
80283,-90.9090909090909,4,2,7,80,0,0
81678,-90.9090909090909,4,2,7,80,0,0
84120,-80,4,2,7,80,0,0
87085,-80,4,2,7,70,0,0
88655,-80,4,2,7,15,0,0

[Colours]
Combo1 : 128,184,225
Combo2 : 193,132,132
Combo3 : 213,170,255

[HitObjects]
29,102,2143,5,2,0:0:0:0:
114,120,2318,1,0,0:0:0:0:
178,62,2492,1,2,0:0:0:0:
88,33,2666,1,0,0:0:0:0:
29,102,2841,5,2,0:0:0:0:
29,102,3190,1,0,0:0:0:0:
206,153,3364,1,0,0:0:0:0:
67,202,3539,5,2,0:0:0:0:
114,120,3713,1,0,0:0:0:0:
256,239,3887,1,2,0:0:0:0:
161,228,4062,1,0,0:0:0:0:
330,175,4236,5,2,0:0:0:0:
330,175,4585,2,0,B|390:181|367:194|413:194,1,86.5,0|0,0:0|0:0,0:0:0:0:
502,16,4934,6,0,B|427:13|392:59|392:59|413:103,1,173,2|0,0:0|0:0,0:0:0:0:
509,134,5457,1,0,0:0:0:0:
333,354,5632,2,0,P|336:310|341:267,1,86.5,2|0,0:0|0:0,0:0:0:0:
413,103,5980,2,0,P|417:145|421:189,1,86.5,2|0,0:0|0:0,0:0:0:0:
489,287,6329,5,2,0:0:0:0:
489,287,6416,1,8,0:0:0:0:
489,287,6504,1,8,0:0:0:0:
338,237,6678,2,0,P|294:241|251:245,1,86.5,8|2,0:3|0:0,0:0:0:0:
182,298,7027,1,8,0:0:0:0:
1,206,7201,1,4,0:3:0:0:
115,120,7376,1,8,0:3:0:0:
26,349,7550,1,8,0:3:0:0:
111,223,7725,6,0,B|160:232|160:232|180:252|180:252|231:259,1,129.75,4|0,0:0|0:0,0:0:0:0:
264,267,8073,1,0,0:0:0:0:
504,326,8248,1,0,0:0:0:0:
358,365,8422,2,0,B|390:316|390:316|373:246,1,129.75,4|0,0:0|0:0,0:0:0:0:
359,218,8771,1,0,0:0:0:0:
450,152,8946,1,0,0:0:0:0:
271,92,9120,5,12,0:0:0:0:
496,296,9294,1,0,3:0:0:0:
231,259,9469,5,12,0:0:0:0:
494,52,9643,1,0,3:0:0:0:
385,331,9818,6,0,P|379:288|373:246,1,86.5,12|2,0:0|0:0,0:0:0:0:
110,97,10166,2,0,P|107:123|105:150,2,54.0625,4|0|8,0:3|0:0|0:3,0:0:0:0:
17,260,10515,5,4,0:0:0:0:
132,314,10690,1,2,0:0:0:0:
132,314,10777,1,0,0:0:0:0:
132,314,10864,1,0,3:0:0:0:
22,365,11039,1,2,3:2:0:0:
209,226,11213,1,0,3:0:0:0:
77,153,11387,1,2,3:2:0:0:
312,338,11562,1,0,3:0:0:0:
121,284,11736,1,2,3:2:0:0:
374,193,11911,5,4,0:0:0:0:
218,306,12085,1,10,0:0:0:0:
218,306,12172,1,8,0:0:0:0:
218,306,12259,2,0,P|221:279|225:252,1,54.0625,8|4,0:0|3:0,0:0:0:0:
277,83,12434,2,0,P|280:109|284:136,1,54.0625,8|8,3:0|3:0,0:0:0:0:
467,308,12608,1,12,0:0:0:0:
314,252,12783,1,4,0:0:0:0:
217,306,12957,6,0,P|184:313|150:320,1,69.2,0|0,0:0|0:0,0:0:0:0:
56,205,13306,2,0,P|90:211|123:219,1,69.2,0|0,0:0|0:0,0:0:0:0:
277,83,13655,2,0,P|247:142|181:144,1,138.4,0|0,0:0|0:0,0:0:0:0:
49,43,14178,1,2,0:0:0:0:
49,43,14527,5,10,0:0:0:0:
66,38,14614,1,10,0:0:0:0:
83,33,14701,2,0,P|126:36|169:39,1,86.5,4|0,0:0|0:0,0:0:0:0:
431,80,15050,2,0,B|392:106|351:96|351:96|346:121|328:135,1,129.75,4|0,0:0|0:0,0:0:0:0:
308,157,15399,1,8,0:0:0:0:
141,215,15573,1,8,0:0:0:0:
234,101,15748,1,0,3:0:0:0:
319,257,15922,6,0,P|275:260|232:264,1,86.5,12|0,0:0|0:0,0:0:0:0:
45,364,16271,1,2,0:0:0:0:
45,364,16446,2,0,B|27:325|27:325|39:283,1,86.5,0|2,3:0|0:0,0:0:0:0:
157,129,16794,1,8,0:0:0:0:
53,86,16969,5,0,3:0:0:0:
38,110,17056,1,0,3:0:0:0:
35,138,17144,1,4,0:3:0:0:
42,166,17231,1,4,0:3:0:0:
60,189,17318,1,8,3:0:0:0:
84,203,17405,1,8,0:3:0:0:
113,208,17492,6,0,P|156:208|195:224,1,86.5,4|0,0:0|0:0,0:0:0:0:
344,358,17841,2,0,B|313:314|313:314|338:242,1,129.75,4|0,0:0|0:0,0:0:0:0:
354,214,18190,1,8,0:0:0:0:
476,52,18364,1,8,0:0:0:0:
512,154,18539,1,0,3:0:0:0:
365,104,18713,6,0,P|322:109|279:113,1,86.5,12|0,0:0|0:0,0:0:0:0:
95,191,19062,1,2,0:0:0:0:
166,58,19236,1,0,3:0:0:0:
313,240,19411,1,2,0:0:0:0:
190,153,19585,1,8,0:0:0:0:
139,332,19759,5,0,3:0:0:0:
139,332,19847,1,0,3:0:0:0:
139,332,19934,2,0,P|141:305|145:278,1,54.0625,8|8,0:0|0:0,0:0:0:0:
344,241,20108,2,0,P|341:214|337:187,1,54.0625,4|8,0:3|0:3,0:0:0:0:
194,46,20283,1,4,0:0:0:0:
373,95,20457,5,8,0:0:0:0:
333,105,20544,1,8,0:0:0:0:
294,116,20631,1,8,0:0:0:0:
255,127,20718,1,0,0:0:0:0:
216,138,20805,1,4,0:0:0:0:
35,167,20980,5,8,0:0:0:0:
74,170,21067,1,8,0:0:0:0:
106,195,21154,1,8,0:0:0:0:
121,232,21241,1,0,0:0:0:0:
113,271,21328,1,4,0:0:0:0:
295,370,21504,5,8,0:0:0:0:
269,339,21591,1,8,0:0:0:0:
264,299,21678,1,8,0:0:0:0:
280,262,21765,1,0,0:0:0:0:
313,240,21852,1,4,0:0:0:0:
452,167,22027,5,0,3:0:0:0:
412,156,22114,1,4,0:3:0:0:
373,145,22201,1,8,0:3:0:0:
334,134,22288,1,8,0:3:0:0:
295,123,22375,1,8,0:0:0:0:
437,265,22550,1,8,0:0:0:0:
437,265,22899,6,0,B|374:281|374:281|356:318|356:318|291:334,1,173,4|0,0:0|3:0,0:0:0:0:
200,376,23422,1,8,0:0:0:0:
66,328,23597,1,2,0:0:0:0:
66,328,23684,1,2,3:2:0:0:
66,328,23771,2,0,B|55:283|55:283|66:244,1,86.5,0|2,3:0|0:0,0:0:0:0:
203,169,24120,2,0,B|214:214|214:214|202:252,1,86.5,8|0,0:0|0:0,0:0:0:0:
38,105,24469,5,6,0:0:0:0:
38,105,24992,1,2,0:0:0:0:
49,112,25079,1,2,0:0:0:0:
60,119,25166,1,2,0:0:0:0:
148,85,25515,1,2,0:0:0:0:
203,169,25864,6,0,B|294:189|253:207|347:224,1,155.699995248413,6|8,0:0|0:1,0:0:0:0:
511,307,26387,1,0,0:0:0:0:
393,348,26562,2,0,B|405:290|405:290|431:273|431:273|441:208,1,155.699995248413,8|8,0:1|0:1,0:0:0:0:
382,52,27085,1,0,3:0:0:0:
350,172,27259,5,2,3:2:0:0:
486,87,27434,1,0,0:0:0:0:
468,226,27608,2,0,P|471:264|475:303,1,77.8499976242066,8|0,0:1|0:0,0:0:0:0:
349,278,27957,2,0,P|274:294|230:356,1,155.699995248413,8|8,0:1|0:1,0:0:0:0:
140,380,28480,1,0,0:0:0:0:
39,313,28655,6,0,P|42:274|46:235,1,77.8499976242066,2|0,3:2|0:0,0:0:0:0:
202,221,29004,2,0,P|198:182|194:143,1,77.8499976242066,8|0,0:1|0:0,0:0:0:0:
32,28,29353,2,0,B|98:73|98:73|169:48,1,155.699995248413,8|8,0:1|0:1,0:0:0:0:
257,5,29876,1,0,3:0:0:0:
374,124,30050,6,0,P|412:128|451:132,1,77.8499976242066,2|0,3:2|0:0,0:0:0:0:
363,232,30399,2,0,P|324:236|285:240,1,77.8499976242066,8|0,0:1|0:0,0:0:0:0:
261,87,30748,2,0,P|222:82|183:78,1,77.8499976242066,8|0,0:1|0:0,0:0:0:0:
31,30,31097,1,8,0:1:0:0:
178,163,31271,1,0,0:0:0:0:
0,136,31446,6,0,B|29:118|63:112|63:112|97:147|87:193,1,155.699995248413,2|8,3:2|0:1,0:0:0:0:
1,337,31969,1,0,0:0:0:0:
131,275,32143,2,0,P|169:278|208:282,1,77.8499976242066,8|0,0:1|0:0,0:0:0:0:
295,247,32492,1,8,0:1:0:0:
459,335,32666,1,0,3:0:0:0:
372,360,32841,6,0,P|373:321|376:282,1,77.8499976242066,2|0,3:2|0:0,0:0:0:0:
448,55,33190,1,8,0:1:0:0:
511,118,33364,1,0,0:0:0:0:
424,141,33539,2,0,P|385:146|346:152,1,77.8499976242066,8|0,0:1|0:0,0:0:0:0:
143,272,33887,1,8,0:1:0:0:
67,217,34062,1,0,0:0:0:0:
138,151,34236,6,0,P|140:112|140:73,1,77.8499976242066,2|0,3:2|0:0,0:0:0:0:
233,139,34585,2,0,B|247:179|247:179|234:212,1,77.8499976242066,8|0,0:1|0:0,0:0:0:0:
50,117,34934,2,0,B|36:77|36:77|48:43,1,77.8499976242066,8|0,0:1|0:0,0:0:0:0:
210,13,35283,1,8,0:1:0:0:
138,151,35457,1,0,0:0:0:0:
383,243,35632,5,2,0:0:0:0:
383,243,36155,1,0,0:0:0:0:
469,268,36329,1,4,0:3:0:0:
357,334,36504,1,0,3:0:0:0:
357,334,36591,1,8,0:0:0:0:
357,334,36678,1,8,0:0:0:0:
484,357,36853,1,8,0:3:0:0:
374,229,37027,6,0,B|279:248|323:271|215:294,1,173,4|8,0:0|0:0,0:0:0:0:
142,228,37550,1,2,0:0:0:0:
1,350,37725,1,0,3:0:0:0:
93,373,37899,2,0,P|86:330|79:287,1,86.5,2|0,3:2|0:0,0:0:0:0:
208,171,38248,1,8,0:0:0:0:
22,114,38422,5,0,0:0:0:0:
216,295,38597,1,0,3:0:0:0:
23,219,38771,2,0,P|65:210|107:202,1,86.5,8|2,0:0|0:0,0:0:0:0:
174,56,39120,2,0,P|216:64|258:72,1,86.5,2|0,3:2|3:0,0:0:0:0:
441,32,39469,1,10,0:0:0:0:
496,98,39643,1,0,0:0:0:0:
411,114,39818,6,0,B|381:160|383:199|383:199|407:229,1,129.75,0|0,3:0|0:0,0:0:0:0:
427,252,40166,2,0,P|469:257|512:266,1,86.5,8|0,0:0|0:0,0:0:0:0:
370,341,40515,1,0,3:0:0:0:
290,281,40690,1,2,3:2:0:0:
204,360,40864,2,0,P|161:369|118:374,1,86.5,8|0,0:0|0:0,0:0:0:0:
14,313,41213,5,2,3:2:0:0:
132,242,41387,1,0,3:0:0:0:
35,114,41562,2,0,B|16:154|16:154|27:194,1,86.5,8|0,0:0|0:0,0:0:0:0:
204,360,41911,1,2,3:2:0:0:
39,309,42085,1,0,3:0:0:0:
249,199,42259,1,8,0:0:0:0:
160,265,42434,5,2,0:0:0:0:
160,265,42521,1,2,0:0:0:0:
160,265,42608,1,0,3:0:0:0:
339,299,42783,1,2,3:2:0:0:
176,368,42957,2,0,P|219:363|262:359,1,86.5,12|0,0:0|0:0,0:0:0:0:
457,230,43306,1,0,3:0:0:0:
278,182,43480,1,2,3:2:0:0:
378,370,43655,2,0,P|372:327|367:284,1,86.5,12|0,0:0|0:0,0:0:0:0:
416,104,44004,5,0,3:0:0:0:
250,268,44178,1,2,3:2:0:0:
476,206,44353,2,0,P|432:202|389:199,1,86.5,12|0,0:0|0:0,0:0:0:0:
160,125,44701,1,0,3:0:0:0:
360,20,44876,1,2,3:2:0:0:
241,0,45050,2,0,P|247:43|252:86,1,86.5,12|0,0:0|0:0,0:0:0:0:
154,224,45399,6,0,B|88:227|88:227|42:271,1,129.75,4|0,0:0|0:0,0:0:0:0:
18,252,45748,2,0,B|0:215|0:215|12:171,1,86.5,8|0,0:0|0:0,0:0:0:0:
85,79,46097,1,8,0:0:0:0:
277,334,46271,1,0,3:0:0:0:
42,271,46446,1,8,0:0:0:0:
255,118,46620,1,8,0:3:0:0:
116,176,46794,6,0,B|218:191|174:225|278:228,1,173,4|0,0:0|0:0,0:0:0:0:
364,174,47318,1,0,3:0:0:0:
497,353,47492,1,8,0:0:0:0:
497,353,47666,2,0,P|489:310|483:267,1,86.5,12|0,0:0|0:0,0:0:0:0:
385,197,48015,1,0,3:0:0:0:
480,139,48190,5,4,0:0:0:0:
385,295,48364,1,2,0:0:0:0:
489,239,48539,1,2,0:0:0:0:
364,174,48713,1,0,3:0:0:0:
277,340,48888,6,0,P|242:345|208:351,1,69.2,8|0,0:0|0:0,0:0:0:0:
54,237,49236,2,0,P|88:243|123:249,1,69.2,2|2,0:0|0:0,0:0:0:0:
208,178,49585,5,0,3:0:0:0:
97,349,49759,1,8,0:0:0:0:
277,340,49934,2,0,P|271:305|265:271,1,69.2,2|0,0:0|3:0,0:0:0:0:
103,82,50283,2,0,P|108:116|114:150,1,69.2,8|2,0:0|0:0,0:0:0:0:
11,109,50632,1,2,0:0:0:0:
146,2,50806,1,0,3:0:0:0:
208,178,50980,5,4,0:0:0:0:
103,82,51155,1,0,0:0:0:0:
238,40,51329,2,0,P|272:41|307:43,1,69.2,2|0,0:0|3:0,0:0:0:0:
496,147,51678,2,0,P|461:148|426:150,1,69.2,8|0,0:0|0:0,0:0:0:0:
225,187,52027,1,2,0:0:0:0:
419,260,52201,1,0,3:0:0:0:
261,323,52376,5,4,0:0:0:0:
328,160,52550,1,8,0:0:0:0:
442,282,52725,1,4,3:0:0:0:
331,244,52899,1,8,3:0:0:0:
427,150,53073,6,0,P|429:115|431:80,1,69.2,8|4,0:0|3:0,0:0:0:0:
251,20,53422,1,4,3:0:0:0:
328,74,53597,1,8,3:0:0:0:
294,169,53771,5,4,0:0:0:0:
294,169,54120,2,0,P|242:177|191:186,2,103.799996832275,2|0|2,0:0|0:0|0:0,0:0:0:0:
431,81,55166,5,2,0:0:0:0:
431,81,55690,1,0,0:0:0:0:
304,254,55864,1,8,0:0:0:0:
336,88,56039,1,0,3:0:0:0:
493,283,56213,1,4,3:0:0:0:
387,172,56387,1,8,3:0:0:0:
186,325,56562,5,4,0:0:0:0:
481,193,56736,1,2,0:0:0:0:
191,112,56911,1,0,3:0:0:0:
482,300,57085,1,2,3:2:0:0:
121,220,57259,1,4,0:3:0:0:
412,47,57434,1,8,0:3:0:0:
272,20,57608,5,8,0:3:0:0:
276,55,57695,1,0,0:0:0:0:
280,90,57782,1,0,3:0:0:0:
284,126,57869,1,0,3:0:0:0:
289,161,57956,1,8,0:0:0:0:
464,290,58132,1,8,0:0:0:0:
464,290,58655,5,2,3:2:0:0:
348,242,58829,1,8,0:0:0:0:
324,244,58916,1,8,0:0:0:0:
300,247,59003,1,8,0:0:0:0:
277,250,59090,1,0,0:0:0:0:
253,253,59177,1,8,0:0:0:0:
229,256,59265,1,0,3:0:0:0:
206,259,59353,6,0,P|158:264|111:269,1,95.1500029037476,4|2,0:0|0:0,0:0:0:0:
0,181,59701,1,8,0:0:0:0:
202,95,59876,1,2,0:0:0:0:
48,11,60050,2,0,B|99:52|99:52|89:128,1,142.725004355621,0|0,3:0|0:0,0:0:0:0:
84,160,60399,1,8,0:0:0:0:
259,325,60573,1,2,0:0:0:0:
87,284,60748,5,0,3:0:0:0:
270,184,60922,1,2,0:0:0:0:
383,361,61097,1,8,0:0:0:0:
242,293,61271,1,2,3:2:0:0:
449,236,61446,2,0,B|486:191|473:137|473:137|447:110,1,142.725004355621,0|0,3:0|0:0,0:0:0:0:
427,86,61794,2,0,P|379:82|334:67,1,95.1500029037476,8|0,0:0|0:0,0:0:0:0:
61,69,62143,6,0,P|150:63|183:146,1,190.300005807495,4|8,0:0|0:0,0:0:0:0:
7,307,62666,1,2,0:0:0:0:
109,347,62841,2,0,B|124:303|124:303|109:256,1,95.1500029037476,0|0,3:0|0:0,0:0:0:0:
333,101,63190,2,0,B|318:145|318:145|332:191,1,95.1500029037476,8|0,0:0|0:0,0:0:0:0:
512,301,63539,6,0,B|466:302|429:281|429:281|412:313|393:324,1,142.725004355621,2|0,3:2|0:0,0:0:0:0:
367,343,63887,2,0,B|317:338|317:338|277:358,1,95.1500029037476,8|0,0:0|0:0,0:0:0:0:
18,179,64236,2,0,B|68:184|68:184|107:163,1,95.1500029037476,2|0,3:2|0:0,0:0:0:0:
178,85,64585,1,8,0:0:0:0:
330,190,64759,1,2,0:0:0:0:
175,264,64934,5,4,0:0:0:0:
323,91,65108,1,2,0:0:0:0:
432,184,65283,1,8,0:0:0:0:
220,172,65457,5,2,0:0:0:0:
508,259,65632,1,0,3:2:0:0:
429,81,65806,1,2,0:0:0:0:
312,218,65980,1,8,0:0:0:0:
473,159,66155,1,2,0:0:0:0:
302,120,66329,5,0,3:0:0:0:
508,259,66504,1,2,0:0:0:0:
270,323,66678,1,8,0:0:0:0:
400,233,66853,6,0,P|447:235|495:235,1,95.1500029037476,2|0,0:0|3:0,0:0:0:0:
150,201,67201,2,0,P|102:199|54:199,1,95.1500029037476,2|8,0:0|0:0,0:0:0:0:
283,130,67550,1,2,3:2:0:0:
147,61,67725,5,12,0:0:0:0:
62,303,67899,1,0,3:0:0:0:
408,112,68073,1,8,0:0:0:0:
479,338,68247,1,0,3:0:0:0:
174,359,68422,5,8,0:0:0:0:
479,190,68597,1,2,3:2:0:0:
174,84,68771,1,8,0:0:0:0:
387,136,68946,6,0,P|298:147|281:235,1,190.300005807495,4|0,0:0|3:0,0:0:0:0:
343,335,69469,1,8,0:0:0:0:
181,196,69643,1,4,0:0:0:0:
93,243,69818,2,0,P|46:250|-1:258,1,95.1500029037476,0|0,0:0|3:0,0:0:0:0:
0,40,70166,2,0,P|46:48|93:55,1,95.1500029037476,8|2,0:0|0:0,0:0:0:0:
263,24,70515,5,4,0:0:0:0:
115,145,70690,1,2,0:0:0:0:
280,257,70864,2,0,B|298:216|298:216|283:167,1,95.1500029037476,8|2,0:0|0:0,0:0:0:0:
82,276,71213,2,0,B|166:296|125:318|207:339,1,142.725004355621,0|0,3:0|0:0,0:0:0:0:
239,351,71562,1,8,0:0:0:0:
446,235,71736,1,2,0:0:0:0:
258,152,71911,5,0,3:0:0:0:
493,321,72085,1,2,0:0:0:0:
432,121,72259,1,8,0:0:0:0:
255,251,72434,1,2,0:0:0:0:
452,215,72608,2,0,P|405:209|358:204,1,95.1500029037476,0|2,3:0|0:0,0:0:0:0:
358,204,72870,1,2,0:0:0:0:
358,204,72957,1,8,0:0:0:0:
156,292,73132,1,2,0:0:0:0:
255,125,73306,5,0,3:0:0:0:
384,357,73480,1,2,0:0:0:0:
230,236,73655,1,8,0:0:0:0:
432,121,73829,1,2,0:0:0:0:
249,354,74004,5,0,3:0:0:0:
391,221,74178,1,2,0:0:0:0:
139,132,74353,1,8,0:0:0:0:
255,251,74527,1,2,0:0:0:0:
58,374,74701,6,0,P|62:326|67:279,1,95.1500029037476,0|2,3:0|0:0,0:0:0:0:
278,38,75050,2,0,P|282:85|287:132,1,95.1500029037476,10|2,0:0|0:0,0:0:0:0:
116,109,75399,1,8,0:0:0:0:
116,109,75748,5,8,0:3:0:0:
213,173,75922,1,0,3:0:0:0:
68,250,76097,6,0,P|130:241|176:283,1,129.75,4|0,0:0|0:0,0:0:0:0:
187,313,76446,1,2,0:0:0:0:
46,353,76620,1,0,3:0:0:0:
187,313,76794,2,0,P|230:316|273:320,1,86.5,12|0,0:0|0:0,0:0:0:0:
465,229,77143,1,2,0:0:0:0:
376,175,77318,1,0,3:0:0:0:
466,124,77492,5,12,0:0:0:0:
187,313,77666,1,0,3:0:0:0:
494,248,77841,5,12,0:0:0:0:
198,107,78015,1,0,3:0:0:0:
350,372,78190,6,0,P|350:328|351:285,1,86.5,12|0,0:0|3:0,0:0:0:0:
288,46,78539,1,4,0:3:0:0:
381,123,78713,1,8,0:3:0:0:
228,198,78887,6,0,P|181:204|134:210,1,95.1500029037476,4|2,0:0|0:0,0:0:0:0:
9,270,79236,1,0,3:0:0:0:
159,68,79411,1,2,0:0:0:0:
159,68,79498,1,2,0:0:0:0:
159,68,79585,2,0,P|161:94|163:121,1,54.0625,8|2,0:0|0:0,0:0:0:0:
354,217,79759,2,0,P|351:243|349:270,1,54.0625,8|8,0:0|0:0,0:0:0:0:
115,333,79934,5,2,3:2:0:0:
166,347,80021,1,8,0:0:0:0:
215,328,80108,1,8,0:0:0:0:
243,283,80195,1,8,0:0:0:0:
238,230,80283,6,0,B|243:198|243:198|254:181|254:181|260:139,1,95.1500029037476,4|0,0:0|0:0,0:0:0:0:
28,7,80632,1,8,0:0:0:0:
34,48,80719,1,8,0:0:0:0:
43,89,80806,1,8,3:0:0:0:
52,132,80893,1,8,3:0:0:0:
60,173,80980,1,12,0:0:0:0:
0,308,81155,1,10,0:0:0:0:
143,223,81329,2,0,P|190:227|238:230,1,95.1500029037476,0|0,0:0|0:0,0:0:0:0:
398,73,81678,6,0,B|352:116|352:116|375:192,1,142.725004355621,4|0,0:0|0:0,0:0:0:0:
482,289,82027,2,0,B|528:246|528:246|504:169,1,142.725004355621,4|0,0:0|0:0,0:0:0:0:
376,192,82376,1,8,0:0:0:0:
509,306,82550,1,8,0:0:0:0:
277,362,82725,1,0,3:0:0:0:
364,282,82899,6,0,B|293:293|293:293|264:331|264:331|194:342,1,190.300005807495,4|2,0:0|0:0,0:0:0:0:
31,275,83422,2,0,P|78:269|125:262,1,95.1500029037476,8|0,0:0|0:0,0:0:0:0:
292,143,83771,1,8,0:0:0:0:
139,63,83946,5,0,3:0:0:0:
139,63,84033,1,0,3:0:0:0:
139,63,84120,2,0,P|144:89|149:115,1,54.0625,4|4,0:3|0:3,0:0:0:0:
374,229,84294,2,0,P|369:255|364:282,1,54.0625,8|8,0:3|0:3,0:0:0:0:
136,365,84469,1,4,0:0:0:0:
246,246,84643,5,8,0:0:0:0:
205,251,84730,1,8,0:0:0:0:
165,257,84817,1,8,0:0:0:0:
125,262,84904,1,0,0:0:0:0:
85,268,84991,1,4,0:0:0:0:
54,62,85166,5,8,0:0:0:0:
94,61,85253,1,8,0:0:0:0:
129,80,85340,1,8,0:0:0:0:
149,115,85427,1,0,0:0:0:0:
148,155,85514,1,4,0:0:0:0:
449,247,85690,5,8,0:0:0:0:
409,248,85777,1,8,0:0:0:0:
374,229,85864,1,8,0:0:0:0:
354,194,85951,1,0,0:0:0:0:
355,154,86038,1,4,0:0:0:0:
252,28,86213,5,0,3:0:0:0:
248,60,86300,1,4,0:3:0:0:
253,92,86387,1,8,0:3:0:0:
260,123,86474,1,8,0:3:0:0:
254,154,86562,2,0,P|257:181|260:208,1,54.0625,8|0,0:0|0:0,0:0:0:0:
84,324,86736,2,0,P|87:297|90:270,1,54.0625,8|0,0:0|0:0,0:0:0:0:
25,44,87085,5,6,0:0:0:0:
256,192,87172,12,0,88655,0:0:0:0:
