osu file format v14

[General]
AudioFilename: audio.mp3
AudioLeadIn: 0
PreviewTime: 58219
Countdown: 0
SampleSet: Soft
StackLeniency: 0.7
Mode: 0
LetterboxInBreaks: 0
WidescreenStoryboard: 1

[Editor]
DistanceSpacing: 3.2
BeatDivisor: 4
GridSize: 32
TimelineZoom: 1

[Metadata]
Title:Omoide Shiritori (TV Size)
TitleUnicode:おもいでしりとり (TV Size)
Artist:DIALOGUE+
ArtistUnicode:DIALOGUE+
Creator:Little
Version:Akitoshi's Expert
Source:ひげを剃る。そして女子高生を拾う。
Tags:higehiro: after being rejected, i shaved and took in a high school runaway hige wo soru. soshite joshikousei wo hirou. anime op opening japanese pop CloudSplash16 Kyle73 Meyrink Akitoshi Corinn -Laura- Doormat
BeatmapID:2952284
BeatmapSetID:1434635

[Difficulty]
HPDrainRate:6
CircleSize:4
OverallDifficulty:8.3
ApproachRate:9.2
SliderMultiplier:1.6
SliderTickRate:1

[Events]
//Background and Video events
0,0,"sayu.jpg",0,0
Video,-50,"protecc.flv"
//Break Periods
//Storyboard Layer 0 (Background)
//Storyboard Layer 1 (Fail)
//Storyboard Layer 2 (Pass)
//Storyboard Layer 3 (Foreground)
//Storyboard Layer 4 (Overlay)
//Storyboard Sound Samples

[TimingPoints]
-647,348.837209302326,4,2,0,50,1,0
2143,-142.857142857143,4,2,0,50,0,0
4498,-142.857142857143,4,2,0,5,0,0
4585,-142.857142857143,4,2,0,50,0,0
6329,-111.111111111111,4,2,0,60,0,0
7725,-125,4,2,0,60,0,0
9120,-100,4,2,0,60,0,0
12608,-66.6666666666667,4,2,0,60,0,0
13306,-142.857142857143,4,2,0,60,0,0
14701,-100,4,2,0,70,0,0
22376,-66.6666666666667,4,2,0,70,0,0
22899,-100,4,2,0,70,0,0
24469,-125,4,2,0,70,0,0
24818,-125,4,2,0,50,0,0
25864,-142.857142857143,4,2,0,50,0,0
36329,-111.111111111111,4,2,0,60,0,0
37027,-100,4,2,0,60,0,0
43219,-100,4,2,0,5,0,0
43306,-100,4,2,0,60,0,0
46794,-125,4,2,0,60,0,0
47492,-100,4,2,0,60,0,0
48190,-125,4,2,0,60,0,0
53771,-166.666666666667,4,2,0,50,0,0
55864,-125,4,2,0,60,0,0
56562,-100,4,2,0,65,0,0
57957,-66.6666666666667,4,2,0,70,0,0
58306,-100,4,2,0,70,0,0
59353,-83.3333333333333,4,2,0,80,0,1
64498,-83.3333333333333,4,2,0,5,0,1
64585,-83.3333333333333,4,2,0,80,0,1
70428,-83.3333333333333,4,2,0,5,0,1
70515,-83.3333333333333,4,2,0,80,0,1
72870,-83.3333333333333,4,2,0,5,0,1
72957,-83.3333333333333,4,2,0,80,0,1
76097,-111.111111111111,4,2,0,70,0,0
78887,-90.9090909090909,4,2,0,70,0,0
80980,-66.6666666666667,4,2,0,70,0,0
81068,-66.6666666666667,4,2,0,5,0,0
81155,-125,4,2,0,70,0,0
81591,-125,4,2,0,5,0,0
81678,-100,4,2,0,70,0,0
86562,-66.6666666666667,4,2,0,70,0,0
87085,-125,4,2,0,70,0,0
87957,-125,4,2,0,30,0,0
88306,-125,4,2,0,15,0,0
88655,-125,4,2,0,5,0,0

[Colours]
Combo1 : 128,184,225
Combo2 : 193,132,132
Combo3 : 213,170,255

[HitObjects]
52,170,2143,6,0,P|62:213|67:244,1,55.9999982910157,2|0,0:0|0:0,0:0:0:0:
149,252,2492,2,0,P|154:224|161:197,1,55.9999982910157,2|0,0:0|0:0,0:0:0:0:
239,152,2841,2,0,P|268:185|346:168,1,111.999996582031,2|2,0:0|0:0,0:0:0:0:
396,118,3364,1,0,3:0:0:0:
463,177,3539,6,0,P|456:214|452:252,1,55.9999982910157,2|0,0:0|0:0,0:0:0:0:
442,324,3887,1,2,0:0:0:0:
442,324,4062,1,0,3:0:0:0:
357,294,4236,2,0,P|285:302|268:318,1,83.9999974365235,2|0,0:0|0:0,0:0:0:0:
261,322,4585,2,0,P|223:315|192:310,1,55.9999982910157,2|0,0:0|0:0,0:0:0:0:
107,202,4934,6,0,B|136:232|136:232|125:253|112:301,1,111.999996582031,2|0,0:0|0:0,0:0:0:0:
16,203,5457,1,0,3:0:0:0:
62,126,5632,2,0,P|91:115|132:118,1,55.9999982910157,2|0,0:0|0:0,0:0:0:0:
243,174,5980,2,0,P|215:172|189:162,1,55.9999982910157,2|0,0:0|0:0,0:0:0:0:
302,84,6329,5,2,0:0:0:0:
326,248,6504,1,0,1:0:0:0:
432,188,6678,2,0,P|438:148|419:108,1,71.9999978027344,4|0,3:0|0:0,0:0:0:0:
285,0,7027,5,0,1:0:0:0:
243,174,7201,1,4,3:0:0:0:
133,90,7376,2,0,P|87:95|64:106,1,71.9999978027344,2|0,0:0|0:0,0:0:0:0:
13,264,7725,6,0,B|50:272|84:274|84:274|114:304|114:304|149:297|212:315,1,192,6|0,1:2|0:0,0:0:0:0:
374,330,8422,6,0,B|423:273|385:207|385:207|359:235|316:242,1,192,6|0,1:2|0:0,0:0:0:0:
149,197,9120,5,6,1:2:0:0:
314,138,9294,1,4,3:0:0:0:
210,294,9469,1,6,1:2:0:0:
214,102,9643,1,4,3:0:0:0:
45,194,9818,2,0,B|30:233|30:233|47:286,1,80,6|0,1:2|0:0,0:0:0:0:
221,373,10166,2,0,P|214:324|209:286,1,80,8|0,3:0|0:0,0:0:0:0:
192,106,10515,5,4,3:0:0:0:
192,106,10864,1,4,3:0:0:0:
334,234,11039,1,4,3:0:0:0:
403,38,11213,5,4,3:0:0:0:
234,185,11387,1,4,3:0:0:0:
454,227,11562,2,0,P|447:266|441:305,1,80,4|0,3:0|0:0,0:0:0:0:
221,355,11911,6,0,B|209:317|209:317|222:271,1,80,6|0,1:2|0:0,0:0:0:0:
273,94,12259,1,8,3:0:0:0:
301,98,12346,1,4,3:0:0:0:
329,102,12433,1,4,3:0:0:0:
356,106,12520,1,4,3:0:0:0:
384,111,12608,6,0,B|416:118|416:118|455:100,1,60.0000022888184,6|0,1:2|0:0,0:0:0:0:
373,213,12783,1,6,1:2:0:0:
256,192,12957,12,2,14178,0:0:0:0:
158,261,14527,5,0,1:0:0:0:
158,261,14614,1,0,1:0:0:0:
158,261,14701,2,0,B|196:270|196:270|246:255,1,80,6|0,1:2|0:0,0:0:0:0:
364,151,15050,2,0,P|324:145|284:138,1,80,6|0,1:2|0:0,0:0:0:0:
415,8,15399,1,6,1:2:0:0:
497,172,15573,2,0,P|483:215|471:255,1,80,6|0,1:2|3:0,0:0:0:0:
323,381,15922,6,0,B|306:344|306:344|315:297,1,80,6|0,1:2|0:0,0:0:0:0:
158,261,16271,2,0,P|171:322|176:351,1,80,2|0,0:0|1:0,0:0:0:0:
222,194,16620,2,0,P|157:234|65:199,1,160,2|0,0:0|0:0,0:0:0:0:
29,71,17143,1,0,1:0:0:0:
56,66,17230,1,4,3:0:0:0:
84,62,17317,1,4,3:0:0:0:
112,58,17404,1,4,3:0:0:0:
138,53,17492,6,0,B|127:94|127:94|141:130,1,80,6|0,1:2|0:0,0:0:0:0:
312,217,17841,2,0,P|317:176|326:128,1,80,6|0,1:2|0:0,0:0:0:0:
414,308,18190,1,6,1:2:0:0:
209,271,18364,2,0,P|160:281|126:288,1,80,6|0,1:2|3:0,0:0:0:0:
324,138,18713,6,0,B|363:146|363:146|411:135,1,80,6|0,1:2|0:0,0:0:0:0:
209,57,19062,1,2,0:0:0:0:
302,241,19236,1,0,1:0:0:0:
380,47,19411,2,0,P|425:47|463:68,1,80,2|4,0:0|3:0,0:0:0:0:
508,262,19759,1,2,0:0:0:0:
508,262,19847,1,2,0:0:0:0:
508,262,19934,2,0,L|497:312,1,40,0|0,1:0|1:0,0:0:0:0:
419,366,20108,2,0,L|410:326,1,40,4|4,3:0|3:0,0:0:0:0:
375,172,20283,5,6,1:2:0:0:
203,267,20457,1,0,1:0:0:0:
203,267,20544,1,0,1:0:0:0:
203,267,20632,2,0,L|139:261,1,40,0|0,1:0|1:0,0:0:0:0:
254,132,20806,5,6,1:2:0:0:
300,335,20980,1,0,1:0:0:0:
300,335,21068,1,0,1:0:0:0:
300,335,21155,2,0,L|294:399,1,40,0|0,1:0|1:0,0:0:0:0:
163,263,21329,5,6,1:2:0:0:
362,237,21504,1,0,1:0:0:0:
362,237,21591,1,0,1:0:0:0:
362,237,21678,2,0,L|426:243,1,40,0|0,1:0|1:0,0:0:0:0:
300,335,21853,5,6,1:2:0:0:
254,132,22027,1,0,1:0:0:0:
254,132,22114,1,0,1:0:0:0:
254,132,22201,2,0,L|260:68,1,40,0|0,1:0|1:0,0:0:0:0:
176,39,22376,6,0,B|146:48|146:48|103:34,1,60.0000022888184,6|0,1:2|0:0,0:0:0:0:
47,142,22550,2,0,B|83:143|109:130|109:130|122:160|151:178,1,120.000004577637,6|0,1:2|0:0,0:0:0:0:
137,193,22899,6,0,B|185:187|224:168|224:168|262:184|274:232,1,160,6|4,1:2|3:0,0:0:0:0:
412,289,23422,2,0,P|451:290|498:273,1,80,0|0,1:0|0:0,0:0:0:0:
362,209,23771,2,0,P|382:175|391:126,1,80,0|0,1:0|0:0,0:0:0:0:
269,217,24120,2,0,P|250:182|212:150,1,80,0|0,1:0|0:0,0:0:0:0:
94,298,24469,6,0,P|136:320|154:211,1,192,6|2,1:2|0:0,0:0:0:0:
170,218,25079,1,2,0:0:0:0:
170,218,25166,1,2,0:0:0:0:
340,302,25515,1,2,0:0:0:0:
431,163,25864,6,0,P|439:114|452:46,1,111.999996582031,6|2,1:2|0:0,0:0:0:0:
368,17,26387,1,0,3:0:0:0:
368,17,26562,2,0,P|330:48|266:42,1,111.999996582031,2|2,0:0|0:0,0:0:0:0:
183,18,27085,1,4,3:0:0:0:
200,105,27259,6,0,P|194:147|192:174,1,55.9999982910157,4|0,3:0|0:0,0:0:0:0:
178,249,27608,2,0,P|118:232|51:225,2,111.999996582031,2|2|2,0:0|0:0|0:0,0:0:0:0:
261,283,28480,1,2,3:0:0:0:
339,239,28655,6,0,P|351:193|351:175,1,55.9999982910157,4|0,3:0|0:0,0:0:0:0:
430,141,29004,2,0,P|396:107|380:98,1,55.9999982910157,2|0,0:0|0:0,0:0:0:0:
392,13,29353,2,0,P|346:25|330:34,1,55.9999982910157,2|0,0:0|0:0,0:0:0:0:
281,98,29701,1,2,0:0:0:0:
281,98,29876,1,4,3:0:0:0:
352,185,30050,6,0,P|405:184|455:241,2,111.999996582031,4|2|2,3:0|0:0|0:0,0:0:0:0:
352,185,31097,2,0,P|363:238|365:248,1,55.9999982910157,2|0,0:0|3:0,0:0:0:0:
292,327,31446,6,0,P|258:299|183:305,1,111.999996582031,4|2,3:0|0:0,0:0:0:0:
116,344,31969,1,0,3:0:0:0:
116,344,32143,2,0,P|104:279|94:226,1,111.999996582031,2|2,0:0|0:0,0:0:0:0:
78,145,32666,1,4,3:0:0:0:
157,103,32841,6,0,B|219:109|204:130|272:138,1,111.999996582031,4|2,3:0|0:0,0:0:0:0:
354,124,33364,1,0,3:0:0:0:
354,124,33539,2,0,P|313:157|316:230,1,111.999996582031,2|2,0:0|0:0,0:0:0:0:
347,293,34062,1,0,3:0:0:0:
424,248,34236,6,0,P|457:252|486:259,1,55.9999982910157,4|0,3:0|0:0,0:0:0:0:
430,162,34585,2,0,P|463:166|492:173,1,55.9999982910157,2|0,0:0|0:0,0:0:0:0:
354,124,34934,2,0,P|321:120|292:113,1,55.9999982910157,2|0,0:0|0:0,0:0:0:0:
348,210,35283,2,0,P|315:206|286:199,1,55.9999982910157,2|0,0:0|0:0,0:0:0:0:
279,215,35632,5,2,0:0:0:0:
279,215,36329,5,8,3:0:0:0:
173,127,36504,1,0,1:0:0:0:
173,127,36591,1,0,1:0:0:0:
173,127,36678,2,0,P|114:138|100:146,1,71.9999978027344,0|0,1:0|3:0,0:0:0:0:
29,303,37027,6,0,B|124:283|124:283|146:307|185:316,1,160,6|0,1:2|1:0,0:0:0:0:
329,295,37550,1,2,0:0:0:0:
198,215,37725,1,4,3:0:0:0:
354,181,37899,2,0,P|391:189|438:179,1,80,0|0,1:0|0:0,0:0:0:0:
307,67,38248,1,0,1:0:0:0:
221,229,38422,5,2,0:0:0:0:
354,181,38597,1,4,3:0:0:0:
185,108,38771,2,0,P|114:118|86:122,1,80,0|0,1:0|0:0,0:0:0:0:
54,262,39120,1,2,0:0:0:0:
198,215,39294,1,4,3:0:0:0:
23,155,39469,2,0,P|15:116|25:77,1,80,0|2,1:0|0:0,0:0:0:0:
223,34,39818,6,0,B|202:123|207:93|184:201,2,160,4|0|4,3:0|1:0|3:0,0:0:0:0:
291,170,40690,1,4,3:0:0:0:
120,256,40864,2,0,P|76:257|39:234,1,80,0|0,1:0|0:0,0:0:0:0:
204,112,41213,5,4,3:0:0:0:
233,317,41387,1,4,3:0:0:0:
392,181,41562,2,0,P|433:187|490:198,1,80,0|0,1:0|0:0,0:0:0:0:
360,351,41911,1,4,3:0:0:0:
291,170,42085,1,4,3:0:0:0:
455,295,42259,1,0,1:0:0:0:
258,365,42434,1,2,0:0:0:0:
258,365,42521,1,2,0:0:0:0:
258,365,42608,6,0,P|210:355|175:348,1,80,4|4,3:0|3:0,0:0:0:0:
13,185,42957,2,0,B|46:186|70:206|70:206|92:180|134:173,1,120,6|0,1:2|0:0,0:0:0:0:
143,176,43306,1,4,3:0:0:0:
12,281,43480,1,4,3:0:0:0:
59,91,43655,2,0,P|97:74|154:77,1,80,4|0,1:2|0:0,0:0:0:0:
306,113,44004,5,4,3:0:0:0:
143,176,44178,1,4,3:0:0:0:
304,247,44353,2,0,P|342:240|390:231,1,80,6|0,1:2|0:0,0:0:0:0:
492,95,44701,1,4,3:0:0:0:
320,135,44876,1,4,3:0:0:0:
480,218,45050,2,0,P|494:257|488:300,1,80,6|0,1:2|0:0,0:0:0:0:
308,358,45399,6,0,P|255:349|225:345,1,80,4|0,3:0|0:0,0:0:0:0:
65,243,45748,2,0,P|104:237|144:230,1,80,4|0,1:2|0:0,0:0:0:0:
331,187,46097,1,0,1:2:0:0:
191,79,46271,1,4,3:0:0:0:
254,260,46446,1,4,3:0:0:0:
337,78,46620,1,4,3:0:0:0:
464,173,46794,6,0,B|437:211|437:211|452:247|464:305,1,128,6|0,1:2|0:0,0:0:0:0:
378,361,47318,1,2,0:0:0:0:
254,260,47492,5,0,1:0:0:0:
172,333,47666,2,0,B|130:330|97:351|97:351|49:351|12:320,1,160,4|2,3:0|0:0,0:0:0:0:
14,184,48190,6,0,B|94:172|94:172|108:184|139:194,1,128,6|0,1:2|0:0,0:0:0:0:
235,148,48713,1,4,3:0:0:0:
164,65,48887,2,0,P|119:71|100:82,1,64,6|0,1:2|0:0,0:0:0:0:
264,15,49236,2,0,P|293:28|324:29,1,64,2|0,0:2|0:0,0:0:0:0:
438,9,49585,5,4,3:0:0:0:
505,102,49759,2,0,P|492:154|476:244,1,128,6|4,1:2|3:0,0:0:0:0:
382,292,50283,2,0,P|374:260|373:225,1,64,6|0,1:2|0:0,0:0:0:0:
408,119,50632,1,2,0:0:0:0:
478,227,50806,1,4,3:0:0:0:
304,162,50980,6,0,B|254:168|222:185|222:185|206:181|176:170,1,128,6|0,1:2|0:0,0:0:0:0:
74,126,51504,1,4,3:0:0:0:
23,229,51678,2,0,P|39:268|44:300,1,64,6|0,1:2|0:0,0:0:0:0:
131,363,52027,2,0,P|137:331|151:302,1,64,2|4,0:2|3:0,0:0:0:0:
208,180,52376,5,6,1:2:0:0:
296,253,52550,2,0,B|369:239|333:247|431:230,1,128,0|4,1:0|3:0,0:0:0:0:
478,130,53073,2,0,P|443:122|396:113,1,64,6|0,1:2|0:0,0:0:0:0:
274,103,53422,1,4,3:0:0:0:
388,19,53597,1,4,3:0:0:0:
422,231,53771,5,6,1:2:0:0:
350,288,55166,1,2,0:0:0:0:
350,288,55864,5,0,1:0:0:0:
314,184,56039,1,8,3:0:0:0:
442,255,56213,1,4,3:0:0:0:
406,151,56388,1,4,3:0:0:0:
243,267,56562,5,6,1:2:0:0:
243,267,56911,1,4,3:0:0:0:
292,90,57085,1,4,3:0:0:0:
110,220,57259,5,4,3:0:0:0:
333,199,57434,1,4,3:0:0:0:
152,106,57608,1,0,1:0:0:0:
120,109,57695,1,4,3:0:0:0:
88,113,57782,1,4,3:0:0:0:
56,117,57869,1,4,3:0:0:0:
24,121,57957,6,0,B|15:94|15:94|28:58,1,60.0000022888184,6|0,1:2|0:0,0:0:0:0:
110,220,58132,1,6,1:2:0:0:
110,220,58655,5,2,3:0:0:0:
239,323,58829,1,0,1:0:0:0:
239,323,58916,1,0,1:0:0:0:
239,323,59004,2,0,L|305:313,1,40,0|0,1:0|1:0,0:0:0:0:
347,224,59178,2,0,L|307:218,1,40,0|0,1:0|1:0,0:0:0:0:
195,141,59353,6,0,B|181:94|181:94|205:38,1,95.9999970703126,6|2,1:2|0:0,0:0:0:0:
378,130,59701,1,0,1:0:0:0:
221,224,59876,1,2,0:0:0:0:
314,46,60050,2,0,P|361:25|425:35,1,95.9999970703126,4|2,3:0|0:0,0:0:0:0:
347,224,60399,1,0,1:2:0:0:
195,141,60573,1,2,0:0:0:0:
402,120,60748,6,0,P|462:130|508:140,1,95.9999970703126,4|2,3:0|0:0,0:0:0:0:
377,312,61097,1,0,1:0:0:0:
283,155,61271,1,2,0:0:0:0:
179,328,61446,2,0,P|123:335|86:320,1,95.9999970703126,4|2,3:0|0:0,0:0:0:0:
0,139,61794,2,0,P|44:123|91:131,1,95.9999970703126,0|2,1:0|0:0,0:0:0:0:
309,234,62143,6,0,B|366:221|416:205|416:205|463:223|455:273,1,191.999994140625,6|0,1:2|1:0,0:0:0:0:
325,350,62666,1,2,0:0:0:0:
236,157,62841,2,0,P|276:134|328:129,1,95.9999970703126,4|2,3:0|0:0,0:0:0:0:
137,227,63190,2,0,P|89:222|48:198,1,95.9999970703126,0|2,1:0|0:0,0:0:0:0:
130,24,63539,6,0,P|140:90|146:141,1,95.9999970703126,4|2,3:0|0:0,0:0:0:0:
213,344,63887,2,0,P|219:296|226:248,1,95.9999970703126,0|2,1:0|0:0,0:0:0:0:
355,133,64236,2,0,P|409:166|488:135,1,143.999995605469,4|0,3:0|0:0,0:0:0:0:
501,120,64585,2,0,P|508:73|491:28,1,95.9999970703126,0|2,1:0|0:0,0:0:0:0:
275,79,64934,5,6,1:2:0:0:
320,235,65108,1,2,0:0:0:0:
378,31,65283,1,0,1:0:0:0:
225,175,65457,1,2,0:0:0:0:
421,255,65632,2,0,P|409:308|400:360,1,95.9999970703126,4|2,3:0|0:0,0:0:0:0:
241,379,65980,2,0,P|232:331|221:284,1,95.9999970703126,0|2,1:0|0:0,0:0:0:0:
170,69,66329,5,4,3:0:0:0:
334,149,66504,1,2,0:0:0:0:
127,191,66678,1,0,1:0:0:0:
278,43,66853,2,0,P|332:30|395:44,1,95.9999970703126,2|4,0:0|3:0,0:0:0:0:
509,206,67201,2,0,P|461:210|415:197,1,95.9999970703126,2|0,0:0|1:0,0:0:0:0:
238,128,67550,1,2,0:0:0:0:
462,70,67725,5,6,1:2:0:0:
311,292,67899,1,4,3:0:0:0:
259,28,68073,1,2,1:2:0:0:
459,211,68248,1,4,3:0:0:0:
173,242,68422,5,2,1:2:0:0:
371,34,68597,1,4,3:0:0:0:
421,340,68771,1,2,1:2:0:0:
150,135,68946,6,0,B|106:151|106:151|57:141,1,95.9999970703126,6|0,1:2|0:0,0:0:0:0:
259,28,69294,1,4,3:0:0:0:
172,242,69469,1,0,1:0:0:0:
409,187,69643,6,0,B|453:203|453:203|502:193,1,95.9999970703126,6|0,1:2|0:0,0:0:0:0:
371,34,69992,1,4,3:0:0:0:
269,250,70166,2,0,B|303:337|303:337|284:354|262:375,1,143.999995605469,2|0,1:2|0:0,0:0:0:0:
179,361,70515,6,0,P|166:313|188:261,1,95.9999970703126,6|2,1:2|0:0,0:0:0:0:
406,187,70864,2,0,P|400:233|392:284,1,95.9999970703126,0|2,1:0|0:0,0:0:0:0:
256,132,71213,2,0,P|248:84|242:36,1,95.9999970703126,4|2,3:0|0:0,0:0:0:0:
172,247,71562,1,0,1:0:0:0:
382,180,71736,1,2,0:0:0:0:
145,132,71911,5,4,3:0:0:0:
281,280,72085,1,2,0:0:0:0:
242,36,72259,1,0,1:0:0:0:
382,180,72434,1,2,0:0:0:0:
171,247,72608,2,0,P|105:271|35:238,1,143.999995605469,4|0,3:0|0:0,0:0:0:0:
18,224,72957,2,0,P|24:170|31:121,1,95.9999970703126,0|2,1:0|0:0,0:0:0:0:
228,22,73306,5,4,3:0:0:0:
285,268,73480,1,2,0:0:0:0:
374,38,73655,1,0,1:0:0:0:
164,155,73829,1,2,0:0:0:0:
403,184,74004,5,4,3:0:0:0:
193,301,74178,1,2,0:0:0:0:
250,18,74353,1,0,1:0:0:0:
374,294,74527,1,2,0:0:0:0:
472,24,74701,5,4,3:0:0:0:
243,158,74876,1,2,0:0:0:0:
504,217,75050,2,0,P|497:264|491:312,1,95.9999970703126,0|2,1:0|0:0,0:0:0:0:
194,277,75399,6,0,P|245:266|293:283,1,95.9999970703126,6|0,1:2|0:0,0:0:0:0:
94,369,75748,1,4,3:0:0:0:
145,164,75922,1,4,3:0:0:0:
271,370,76097,6,0,B|330:358|330:358|357:369|357:369|426:351,1,143.999995605469,6|2,3:2|0:0,0:0:0:0:
495,257,76620,1,4,3:0:0:0:
382,193,76794,2,0,P|365:234|367:272,1,71.9999978027344,6|0,1:2|0:0,0:0:0:0:
489,151,77143,2,0,P|487:115|471:82,1,71.9999978027344,2|4,0:2|3:0,0:0:0:0:
230,8,77492,5,6,1:2:0:0:
266,242,77666,1,4,3:0:0:0:
87,23,77841,1,6,1:2:0:0:
123,257,78015,1,4,3:0:0:0:
316,99,78190,6,0,B|351:93|351:93|396:107,1,71.9999978027344,6|4,1:2|3:0,0:0:0:0:
201,190,78539,1,4,3:0:0:0:
243,33,78713,1,4,3:0:0:0:
365,261,78887,6,0,B|408:271|408:271|461:249,1,88.000002685547,6|0,1:2|0:0,0:0:0:0:
223,111,79236,1,4,3:0:0:0:
254,315,79411,1,2,0:0:0:0:
429,130,79585,5,4,3:0:0:0:
427,108,79672,1,0,3:0:0:0:
424,86,79759,1,0,3:0:0:0:
422,64,79846,1,0,3:0:0:0:
417,42,79934,5,4,3:0:0:0:
380,65,80021,1,2,0:0:0:0:
336,69,80108,1,2,0:0:0:0:
295,55,80195,1,2,0:0:0:0:
264,25,80283,6,0,B|223:40|223:40|162:24,1,88.000002685547,6|0,1:2|0:0,0:0:0:0:
4,130,80632,1,0,1:0:0:0:
10,173,80719,1,0,1:0:0:0:
16,217,80806,1,0,1:0:0:0:
22,260,80893,1,0,1:0:0:0:
28,304,80980,2,0,B|63:309|63:309|105:297,1,60.0000022888184,6|0,1:2|0:0,0:0:0:0:
205,272,81155,6,0,B|213:275|233:304|233:304|257:266|260:225|220:180,1,160,6|0,1:2|0:0,0:0:0:0:
226,175,81678,6,0,P|259:159|315:164,1,80,6|0,1:2|0:0,0:0:0:0:
432,253,82027,2,0,P|360:241|320:236,1,80,6|0,1:2|0:0,0:0:0:0:
498,171,82376,1,6,1:2:0:0:
412,351,82550,2,0,P|340:339|300:334,1,80,6|0,1:2|3:0,0:0:0:0:
226,175,82899,6,0,B|214:136|214:136|225:96,1,80,6|0,1:2|0:0,0:0:0:0:
49,17,83248,2,0,P|55:60|62:109,1,80,2|0,0:0|1:0,0:0:0:0:
86,287,83597,2,0,B|182:264|144:315|255:286,1,160,2|0,0:0|0:0,0:0:0:0:
406,257,84120,1,0,1:0:0:0:
406,257,84207,1,4,3:0:0:0:
406,257,84294,2,0,P|410:229|409:203,1,40,4|4,3:0|3:0,0:0:0:0:
402,38,84469,5,6,1:2:0:0:
267,148,84643,1,0,1:0:0:0:
267,148,84730,1,0,1:0:0:0:
267,148,84818,2,0,L|205:140,1,40,0|0,1:0|1:0,1:0:0:0:
285,24,84992,5,6,1:2:0:0:
420,134,85166,1,0,1:0:0:0:
420,134,85253,1,0,1:0:0:0:
420,134,85341,2,0,L|482:126,1,40,0|0,1:0|1:0,1:0:0:0:
316,233,85515,5,6,1:2:0:0:
391,43,85690,1,0,1:0:0:0:
391,43,85777,1,0,1:0:0:0:
391,43,85864,2,0,L|379:-3,1,40,0|0,1:0|1:0,1:0:0:0:
267,148,86039,5,6,1:2:0:0:
342,338,86214,1,0,1:0:0:0:
342,338,86301,1,0,1:0:0:0:
342,338,86388,2,0,L|330:384,1,40,0|0,1:0|1:0,1:0:0:0:
169,331,86562,6,0,B|194:324|194:324|231:329,1,60.0000022888184,6|0,1:2|0:0,0:0:0:0:
316,233,86736,2,0,B|278:226|278:226|238:237|238:237|188:226,1,120.000004577637,6|0,1:2|0:0,0:0:0:0:
391,43,87085,5,6,1:2:0:0:
256,192,87172,12,0,88655,0:0:0:0:
