osu file format v14

[General]
AudioFilename: audio.mp3
AudioLeadIn: 0
PreviewTime:58253
Countdown: 0
SampleSet: Soft
StackLeniency: 0.7
Mode: 2
LetterboxInBreaks: 0
WidescreenStoryboard: 1

[Editor]
Bookmarks: 7681,10472,17449,20239,22856,25821,36984,42914,45356,48146,50937,53728,56518,59309,62100,64891,68902,70472,73263,76053,78844,81635,84425,87042
DistanceSpacing: 1.1
BeatDivisor: 2
GridSize: 16
TimelineZoom: 0.6999999

[Metadata]
Title:Omoide Shiritori (TV Size)
TitleUnicode:おもいでしりとり (TV Size)
Artist:DIALOGUE+
ArtistUnicode:DIALOGUE+
Creator:Greaper
Version:Salad
Source:ひげを剃る。そして女子高生を拾う。
Tags:I Shaved a High School Girl Then Brought -Joakh Home Anime Japanese pop jpop j-pop opening op higehiro Hige wo Soru Soshite Joshikousei Hirou idol group 荻原 沙優 Sayu Ogiwara 田淵智也
BeatmapID:2951789
BeatmapSetID:1434346

[Difficulty]
HPDrainRate:3
CircleSize:3
OverallDifficulty:7
ApproachRate:7
SliderMultiplier:1.4
SliderTickRate:1

[Events]
//Background and Video events
0,0,"bg.jpg",0,0
//Break Periods
//Storyboard Layer 0 (Background)
//Storyboard Layer 1 (Fail)
//Storyboard Layer 2 (Pass)
//Storyboard Layer 3 (Foreground)
//Storyboard Layer 4 (Overlay)
//Storyboard Sound Samples

[TimingPoints]
705,348.837209302326,4,2,11,60,1,0
7681,-100,4,2,11,70,0,0
13263,-100,4,2,11,40,0,0
13611,-100,4,2,11,60,0,0
13960,-100,4,2,11,20,0,0
14484,-100,4,2,11,60,0,0
20239,-100,4,2,11,70,0,0
22681,-100,4,2,11,60,0,0
25821,-100,4,2,11,50,0,0
36984,-100,4,2,11,60,0,0
56518,-100,4,2,11,70,0,0
57914,-100,4,2,11,80,0,0
58263,-100,4,2,11,60,0,0
59309,-100,4,2,11,80,0,1
75356,-100,4,2,11,75,0,0
81635,-100,4,2,11,60,0,0
84425,-100,4,2,11,70,0,0
87216,-100,4,2,11,60,0,0
87565,-100,4,2,11,50,0,0
87914,-100,4,2,11,35,0,0
88263,-100,4,2,11,20,0,0
88611,-100,4,2,11,5,0,0

[Colours]
Combo1 : 159,211,107
Combo2 : 243,209,75
Combo3 : 73,125,245
Combo4 : 227,91,91

[HitObjects]
354,295,705,6,0,L|356:139,1,140,2|0,0:0|0:0,0:0:0:0:
217,273,1402,2,0,L|211:131,1,140,2|0,0:0|0:0,0:0:0:0:
395,194,2100,6,0,L|398:108,1,70,2|2,0:0|0:0,0:0:0:0:
325,124,2449,2,0,L|323:51,1,70,2|2,0:0|0:0,0:0:0:0:
399,48,2798,2,0,P|441:88|393:169,1,140,2|2,0:0|0:0,0:0:0:0:
342,174,3321,1,0,0:0:0:0:
250,197,3495,6,0,L|389:218,1,140,2|2,0:0|0:0,0:0:0:0:
391,287,4018,1,2,0:0:0:0:
315,317,4193,2,0,L|150:330,1,140,2|2,0:0|0:0,0:0:0:0:
345,332,4891,6,0,P|401:276|320:190,1,210,2|0,0:0|0:0,0:0:0:0:
261,183,5588,1,2,0:0:0:0:
411,137,5937,1,2,0:0:0:0:
249,145,6286,6,0,L|83:132,2,140,2|10|8,0:0|0:3|0:0,0:0:0:0:
393,126,7332,2,0,L|396:45,1,70,8|8,0:3|0:3,0:0:0:0:
231,202,7681,6,0,P|180:236|183:328,1,140,4|2,0:0|0:0,0:0:0:0:
244,329,8205,1,2,0:0:0:0:
329,345,8379,2,0,L|172:342,1,140,4|2,0:0|0:0,0:0:0:0:
118,352,8902,1,2,0:0:0:0:
205,252,9077,6,0,L|209:104,1,140,10|2,0:0|0:0,0:0:0:0:
139,101,9600,1,10,0:3:0:0:
66,99,9774,2,0,P|31:150|84:228,1,140,10|8,0:0|0:3,0:0:0:0:
133,222,10298,1,8,0:3:0:0:
296,227,10472,6,0,L|441:240,1,140,4|10,0:0|0:3,0:0:0:0:
440,163,10995,1,10,0:3:0:0:
373,143,11170,1,10,0:3:0:0:
224,124,11518,2,0,L|220:45,1,70,10|2,0:3|0:0,0:0:0:0:
310,47,11867,6,0,L|162:36,1,140,10|8,0:0|0:0,0:0:0:0:
316,106,12565,6,0,L|317:194,1,70,10|10,0:0|0:0,0:0:0:0:
256,192,13263,12,0,14135,0:0:0:0:
160,275,14658,6,0,P|118:222|168:175,1,140,10|10,0:3|0:3,0:0:0:0:
309,169,15356,2,0,L|313:87,1,70,10|10,0:0|0:0,0:0:0:0:
156,92,15879,6,0,L|316:83,2,140,6|2|2,0:0|0:0|0:0,0:0:0:0:
87,112,16751,2,0,L|80:254,1,140,8|8,0:3|0:3,0:0:0:0:
364,258,17449,6,0,L|367:112,1,140,6|10,0:0|0:3,0:0:0:0:
220,118,18146,2,0,L|217:223,1,70,10|10,0:0|0:0,0:0:0:0:
384,158,18670,6,0,L|257:232,1,140,10|2,0:0|0:0,0:0:0:0:
272,297,19193,1,10,0:3:0:0:
344,328,19367,1,2,0:0:0:0:
417,344,19542,2,0,L|417:194,1,140,8|8,0:0|0:3,0:0:0:0:
150,217,20239,6,0,P|54:175|85:86,1,210,4|4,0:0|0:0,0:0:0:0:
317,66,21286,2,0,L|78:53,1,210,4|4,0:0|0:0,0:0:0:0:
349,124,22332,2,0,L|352:206,1,70,10|10,0:0|0:0,0:0:0:0:
99,217,22856,6,0,P|60:175|111:112,1,140,4|8,0:0|0:3,0:0:0:0:
169,118,23379,2,0,L|174:207,1,70,8|0,0:0|0:0,0:0:0:0:
101,204,23728,2,0,L|108:347,1,140,8|8,0:3|0:0,0:0:0:0:
274,327,24425,6,0,P|340:236|255:204,1,210,6|2,0:0|0:0,0:0:0:0:
211,191,25123,2,0,L|203:49,1,140,2|2,0:0|0:0,0:0:0:0:
463,55,25821,6,0,P|488:132|426:164,1,140,4|2,0:0|0:0,0:0:0:0:
379,169,26344,1,2,0:0:0:0:
298,178,26518,2,0,L|446:201,1,140,2|0,0:0|0:0,0:0:0:0:
441,265,27042,1,10,0:3:0:0:
354,143,27216,6,0,L|351:61,1,70,10|2,0:3|0:0,0:0:0:0:
423,45,27565,2,0,L|253:33,2,140,2|2|0,0:0|0:0|0:0,0:0:0:0:
249,322,28611,6,0,L|241:171,1,140,10|2,0:3|0:0,0:0:0:0:
385,284,29309,2,0,L|389:119,1,140,2|2,0:0|0:0,0:0:0:0:
317,139,29832,1,8,0:3:0:0:
225,127,30007,6,0,L|80:120,2,140,10|2|2,0:3|0:0|0:0,0:0:0:0:
228,187,30879,1,0,0:0:0:0:
228,235,31053,1,0,0:0:0:0:
72,327,31402,6,0,L|68:174,1,140,2|2,0:0|0:0,0:0:0:0:
139,177,31925,1,2,0:0:0:0:
202,165,32100,2,0,P|203:75|187:24,1,140,2|0,0:0|0:0,0:0:0:0:
117,28,32623,1,2,0:0:0:0:
202,323,32798,6,0,L|358:314,1,140,2|2,0:0|0:0,0:0:0:0:
342,243,33321,1,2,0:0:0:0:
269,225,33495,2,0,L|263:75,1,140,2|0,0:0|0:0,0:0:0:0:
338,72,34018,1,2,0:0:0:0:
253,45,34193,6,0,L|109:38,1,140,10|2,0:3|0:0,0:0:0:0:
255,84,34891,2,0,L|259:227,1,140,2|2,0:0|0:0,0:0:0:0:
188,232,35414,1,0,0:0:0:0:
276,260,35588,5,2,0:0:0:0:
472,257,36111,2,0,L|473:183,1,70,0|10,0:0|0:3,0:0:0:0:
333,183,36635,1,8,0:0:0:0:
58,191,36984,6,0,P|15:136|58:93,1,140,6|8,0:0|0:0,0:0:0:0:
134,91,37507,1,2,0:0:0:0:
204,79,37681,2,0,L|210:159,1,70,10|8,0:3|0:3,0:0:0:0:
62,222,38205,6,0,L|60:323,1,70,2|2,0:0|0:0,0:0:0:0:
209,335,38728,2,0,L|53:332,2,140,10|10|8,0:0|0:3|0:0,0:0:0:0:
382,340,39774,6,0,P|420:272|381:244,1,140,2|10,0:0|0:0,0:0:0:0:
240,228,40472,2,0,L|385:219,1,140,10|10,0:3|0:0,0:0:0:0:
204,124,41170,6,0,L|41:116,1,140,10|10,0:3|0:0,0:0:0:0:
205,165,41867,2,0,P|242:215|185:257,1,140,10|10,0:3|0:0,0:0:0:0:
119,266,42391,1,10,0:3:0:0:
39,272,42565,5,10,0:3:0:0:
305,298,42914,2,0,L|473:286,1,140,4|10,0:0|0:3,0:0:0:0:
446,198,43437,1,10,0:3:0:0:
380,182,43611,1,10,0:0:0:0:
221,183,43960,5,10,0:3:0:0:
392,181,44309,2,0,L|232:170,1,140,4|10,0:0|0:3,0:0:0:0:
179,151,44832,1,10,0:3:0:0:
174,77,45007,1,10,0:0:0:0:
441,50,45356,6,0,P|479:115|437:153,1,140,6|10,0:0|0:0,0:0:0:0:
295,207,46053,2,0,L|435:199,1,140,10|10,0:3|0:0,0:0:0:0:
441,281,46577,1,8,0:3:0:0:
354,336,46751,6,0,L|529:322,1,140,6|2,0:0|0:0,0:0:0:0:
492,248,47274,1,2,0:0:0:0:
423,218,47449,1,10,0:0:0:0:
495,162,47623,1,8,0:0:0:0:
139,225,48146,6,0,L|134:125,1,70,10|2,0:0|0:0,0:0:0:0:
207,144,48495,1,2,0:0:0:0:
369,104,48844,2,0,L|209:103,1,140,10|2,0:0|0:0,0:0:0:0:
404,163,49542,6,0,P|432:212|379:263,1,140,10|2,0:3|0:0,0:0:0:0:
233,296,50239,2,0,L|429:326,1,140,10|2,0:0|0:0,0:0:0:0:
444,329,50763,1,10,0:3:0:0:
283,228,50937,6,0,L|139:217,1,140,4|2,0:0|0:0,0:0:0:0:
284,176,51635,2,0,P|322:131|256:71,1,140,10|10,0:0|0:3,0:0:0:0:
124,70,52332,6,0,L|314:56,1,140,10|2,0:3|0:0,0:0:0:0:
334,54,52856,1,8,0:3:0:0:
262,116,53030,2,0,P|233:183|270:251,1,140,10|10,0:0|0:3,0:0:0:0:
330,262,53553,1,10,0:3:0:0:
496,256,53728,5,6,0:0:0:0:
435,229,55821,2,0,L|436:83,1,140,8|10,0:0|0:3,0:0:0:0:
175,84,56518,6,0,P|40:127|196:269,1,420,14|8,0:0|0:0,0:0:0:0:
320,246,57914,6,0,L|316:145,1,70,12|8,0:0|0:0,0:0:0:0:
111,330,58611,2,0,L|103:176,1,140,6|10,0:0|0:0,0:0:0:0:
363,78,59309,6,0,P|399:136|347:202,1,140,6|10,0:0|0:0,0:0:0:0:
296,202,59832,1,2,0:0:0:0:
222,211,60007,1,10,0:3:0:0:
367,249,60356,1,10,0:0:0:0:
209,269,60705,6,0,L|60:243,1,140,10|10,0:3|0:0,0:0:0:0:
70,176,61228,1,2,0:0:0:0:
139,132,61402,1,10,0:3:0:0:
280,118,61751,2,0,L|288:29,1,70,10|2,0:0|0:0,0:0:0:0:
124,63,62100,6,0,P|86:114|134:166,1,140,10|8,0:3|0:0,0:0:0:0:
200,178,62623,1,2,0:0:0:0:
277,233,62798,2,0,L|118:253,1,140,10|10,0:3|0:0,0:0:0:0:
304,291,63495,6,0,L|310:115,1,140,10|10,0:3|0:0,0:0:0:0:
162,120,64193,2,0,L|322:110,1,140,10|8,0:3|0:0,0:0:0:0:
373,102,64716,1,2,0:0:0:0:
211,178,64891,6,0,L|218:326,1,140,10|10,0:3|0:0,0:0:0:0:
289,313,65414,1,2,0:0:0:0:
379,314,65588,2,0,P|391:243|326:187,1,140,10|10,0:3|0:0,0:0:0:0:
190,184,66286,6,0,L|115:181,2,70,10|2|10,0:3|0:0|0:0,0:0:0:0:
264,194,66809,2,0,L|265:350,1,140,2|2,0:0|0:0,0:0:0:0:
122,335,67507,1,2,0:0:0:0:
37,307,67681,6,0,L|34:237,1,70,10|2,0:3|0:0,0:0:0:0:
124,214,68030,2,0,L|202:210,1,70,10|10,0:0|0:3,0:0:0:0:
102,150,68379,2,0,L|28:146,2,70,10|10|10,0:3|0:3|0:0,0:0:0:0:
270,273,68902,6,0,L|418:274,1,140,6|8,0:0|0:3,0:0:0:0:
340,210,69425,1,8,0:0:0:0:
266,199,69600,1,6,0:0:0:0:
193,170,69774,2,0,L|337:162,1,140,2|10,0:0|0:0,0:0:0:0:
74,237,70472,6,0,L|69:141,1,70,10|2,0:3|0:0,0:0:0:0:
141,153,70821,1,10,0:0:0:0:
276,122,71170,2,0,L|269:267,1,140,10|10,0:3|0:0,0:0:0:0:
193,258,71693,1,2,0:0:0:0:
284,296,71867,6,0,L|425:296,1,140,10|10,0:3|0:0,0:0:0:0:
421,229,72391,1,2,0:0:0:0:
345,222,72565,2,0,L|342:74,1,140,10|10,0:3|0:0,0:0:0:0:
416,74,73088,1,2,0:0:0:0:
255,77,73263,6,0,L|111:93,1,140,10|10,0:3|0:0,0:0:0:0:
186,143,73786,1,2,0:0:0:0:
116,165,73960,2,0,P|106:243|147:306,1,140,10|10,0:3|0:0,0:0:0:0:
287,320,74658,6,0,L|126:306,1,140,10|10,0:3|0:0,0:0:0:0:
304,279,75356,2,0,L|308:125,1,140,10|10,0:3|0:0,0:0:0:0:
236,136,75879,1,8,0:3:0:0:
397,331,76053,6,0,P|401:251|383:194,1,140,6|2,0:0|0:0,0:0:0:0:
310,183,76577,1,10,0:3:0:0:
240,176,76751,1,10,0:0:0:0:
382,132,77100,2,0,L|377:50,1,70,2|10,0:0|0:3,0:0:0:0:
300,47,77449,6,0,L|157:52,1,140,10|10,0:0|0:0,0:0:0:0:
164,122,77972,1,10,0:3:0:0:
235,137,78146,1,10,0:0:0:0:
384,165,78495,2,0,L|390:243,1,70,10|10,0:3|0:3,0:0:0:0:
227,256,78844,6,0,L|65:244,1,140,10|10,0:0|0:0,0:0:0:0:
93,171,79367,1,10,0:3:0:0:
165,128,79542,1,10,0:0:0:0:
25,125,79891,2,0,L|24:47,1,70,10|10,0:0|0:3,0:0:0:0:
113,55,80239,6,0,L|282:46,1,140,6|10,0:0|0:0,0:0:0:0:
111,127,80937,2,0,L|107:207,1,70,10|8,0:0|0:0,0:0:0:0:
178,209,81286,1,2,0:0:0:0:
448,205,81635,6,0,P|491:262|439:299,1,140,6|10,0:0|0:3,0:0:0:0:
300,293,82332,2,0,L|293:212,1,70,10|10,0:0|0:0,0:0:0:0:
451,197,82856,6,0,L|226:187,1,210,6|10,0:0|0:3,0:0:0:0:
414,166,83728,2,0,P|460:135|412:79,1,140,8|8,0:0|0:3,0:0:0:0:
167,191,84425,6,0,P|107:163|179:82,1,210,4|4,0:0|0:0,0:0:0:0:
393,78,85472,2,0,L|163:71,1,210,4|4,0:0|0:0,0:0:0:0:
417,184,86518,2,0,L|421:261,1,70,8|8,0:0|0:0,0:0:0:0:
153,283,87042,5,4,0:0:0:0:
256,192,87391,12,0,88611,0:0:0:0:
