osu file format v14

[General]
AudioFilename: audio.mp3
AudioLeadIn: 0
PreviewTime:58253
Countdown: 0
SampleSet: Soft
StackLeniency: 0.7
Mode: 2
LetterboxInBreaks: 0
WidescreenStoryboard: 1

[Editor]
DistanceSpacing: 1
BeatDivisor: 4
GridSize: 16
TimelineZoom: 1

[Metadata]
Title:Omoide Shiritori (TV Size)
TitleUnicode:おもいでしりとり (TV Size)
Artist:DIALOGUE+
ArtistUnicode:DIALOGUE+
Creator:Greaper
Version:Rain
Source:ひげを剃る。そして女子高生を拾う。
Tags:I Shaved a High School Girl Then Brought -Joakh Home Anime Japanese pop jpop j-pop opening op higehiro Hige wo Soru Soshite Joshikousei Hirou idol group 荻原 沙優 Sayu Ogiwara 田淵智也
BeatmapID:2951788
BeatmapSetID:1434346

[Difficulty]
HPDrainRate:5
CircleSize:4
OverallDifficulty:9
ApproachRate:9
SliderMultiplier:1.8
SliderTickRate:2

[Events]
//Background and Video events
0,0,"bg.jpg",0,0
//Break Periods
//Storyboard Layer 0 (Background)
//Storyboard Layer 1 (Fail)
//Storyboard Layer 2 (Pass)
//Storyboard Layer 3 (Foreground)
//Storyboard Layer 4 (Overlay)
//Storyboard Sound Samples

[TimingPoints]
705,348.837209302326,4,2,11,60,1,0
7681,-100,4,2,11,70,0,0
13263,-100,4,2,11,40,0,0
13611,-100,4,2,11,60,0,0
13960,-100,4,2,11,20,0,0
14484,-100,4,2,11,60,0,0
20239,-100,4,2,11,70,0,0
22681,-100,4,2,11,60,0,0
25821,-100,4,2,11,50,0,0
36984,-100,4,2,11,60,0,0
56518,-100,4,2,11,70,0,0
57914,-100,4,2,11,80,0,0
58263,-100,4,2,11,60,0,0
59309,-100,4,2,11,80,0,1
75356,-100,4,2,11,75,0,0
81635,-100,4,2,11,60,0,0
84425,-100,4,2,11,70,0,0
87216,-100,4,2,11,60,0,0
87565,-100,4,2,11,50,0,0
87914,-100,4,2,11,35,0,0
88263,-100,4,2,11,20,0,0
88611,-100,4,2,11,5,0,0

[Colours]
Combo1 : 159,211,107
Combo2 : 243,209,75
Combo3 : 73,125,245
Combo4 : 227,91,91

[HitObjects]
303,307,705,5,2,0:0:0:0:
222,263,879,1,0,0:0:0:0:
196,174,1053,1,0,0:0:0:0:
241,94,1228,1,0,0:0:0:0:
331,70,1402,1,2,0:0:0:0:
241,66,1576,1,0,0:0:0:0:
151,63,1750,1,0,0:0:0:0:
61,60,1925,1,0,0:0:0:0:
238,123,2100,6,0,L|244:233,1,90,2|2,0:0|0:0,0:0:0:0:
152,199,2449,2,0,L|146:302,1,90,2|2,0:0|0:0,0:0:0:0:
311,297,2798,2,0,L|502:310,1,180,2|2,0:0|0:0,0:0:0:0:
486,233,3321,1,0,0:0:0:0:
315,241,3495,6,0,L|312:147,1,90,2|2,0:0|0:0,0:0:0:0:
409,142,3844,2,0,L|416:37,1,90,2|2,0:0|0:0,0:0:0:0:
240,44,4193,2,0,P|179:93|253:139,1,180,2|2,0:0|0:0,0:0:0:0:
331,141,4716,1,0,0:0:0:0:
159,342,4891,6,0,P|111:319|200:155,1,270,2|0,0:0|0:0,0:0:0:0:
250,107,5588,2,0,L|52:98,1,180,2|2,0:0|0:0,0:0:0:0:
341,78,6286,5,2,0:0:0:0:
344,125,6373,1,8,0:0:0:0:
347,172,6460,1,8,0:0:0:0:
185,171,6635,2,0,L|85:175,1,90,10|0,0:3|0:0,0:0:0:0:
334,338,6984,1,8,0:0:0:0:
405,291,7158,1,8,0:0:0:0:
399,205,7332,1,8,0:3:0:0:
321,170,7507,1,8,0:3:0:0:
60,241,7681,6,0,P|19:173|102:122,1,180,4|2,0:0|0:0,0:0:0:0:
176,113,8205,1,2,0:0:0:0:
437,216,8379,2,0,P|495:154|427:98,1,180,4|2,0:0|0:0,0:0:0:0:
350,96,8902,1,2,0:0:0:0:
86,95,9077,6,0,L|81:202,1,90,10|8,0:0|0:3,0:0:0:0:
172,189,9425,2,0,L|70:203,1,90,2|10,0:0|0:3,0:0:0:0:
322,220,9774,2,0,L|414:229,1,90,10|8,0:0|0:3,0:0:0:0:
245,325,10123,1,8,0:3:0:0:
207,303,10210,1,8,0:3:0:0:
205,260,10297,1,8,0:3:0:0:
241,235,10384,1,8,0:3:0:0:
403,60,10472,6,0,L|408:161,1,90,4|8,0:0|0:3,0:0:0:0:
254,65,10821,2,0,L|252:156,1,90,10|10,0:3|0:3,0:0:0:0:
398,202,11170,2,0,L|283:191,1,90,10|8,0:3|0:3,0:0:0:0:
155,247,11518,2,0,L|148:351,1,90,10|2,0:3|0:0,0:0:0:0:
430,321,11867,5,10,0:0:0:0:
465,297,11954,1,8,0:0:0:0:
467,256,12041,1,8,0:0:0:0:
429,237,12128,1,8,0:0:0:0:
282,239,12216,1,8,0:0:0:0:
272,198,12303,1,8,0:3:0:0:
281,159,12391,1,8,0:3:0:0:
333,147,12478,1,8,0:3:0:0:
179,88,12565,6,0,L|71:78,1,90,10|10,0:0|0:0,0:0:0:0:
256,192,13263,12,0,14135,0:0:0:0:
143,139,14484,6,0,L|139:78,1,45,8|8,0:0|0:0,0:0:0:0:
297,70,14658,2,0,P|352:133|301:197,1,180,10|10,0:3|0:3,0:0:0:0:
41,170,15356,2,0,L|38:75,1,90,10|10,0:0|0:0,0:0:0:0:
447,200,15879,6,0,P|499:268|433:312,1,180,6|2,0:0|0:0,0:0:0:0:
230,316,16577,1,2,0:0:0:0:
384,241,16751,1,8,0:3:0:0:
384,193,16838,1,8,0:3:0:0:
354,157,16925,1,8,0:3:0:0:
304,140,17012,1,8,0:3:0:0:
451,102,17100,2,0,L|502:98,1,45,8|8,0:3|0:3,0:0:0:0:
446,60,17274,2,0,L|395:57,1,45,8|8,0:3|0:3,0:0:0:0:
236,61,17449,6,0,P|184:79|233:163,1,180,6|10,0:0|0:3,0:0:0:0:
489,173,18146,2,0,L|495:265,1,90,10|10,0:0|0:0,0:0:0:0:
84,291,18670,6,0,P|37:263|104:184,1,180,10|2,0:0|0:0,0:0:0:0:
186,185,19193,2,0,L|64:168,1,90,10|2,0:3|0:0,0:0:0:0:
345,121,19542,1,8,0:0:0:0:
385,137,19629,1,8,0:0:0:0:
401,178,19716,1,8,0:0:0:0:
381,217,19803,1,8,0:0:0:0:
339,230,19891,2,0,L|272:223,1,45,8|8,0:3|0:3,0:0:0:0:
450,278,20065,2,0,L|496:280,1,45,8|8,0:3|0:3,0:0:0:0:
297,285,20239,6,0,L|175:274,1,90,4|8,0:0|0:0,0:0:0:0:
176,241,20501,1,8,0:0:0:0:
177,198,20588,1,8,0:0:0:0:
211,168,20675,1,8,0:0:0:0:
375,229,20763,2,0,L|376:131,1,90,4|8,0:0|0:0,0:0:0:0:
330,133,21024,1,8,0:0:0:0:
285,128,21111,1,8,0:0:0:0:
240,124,21198,1,8,0:0:0:0:
399,52,21286,6,0,L|494:58,1,90,4|8,0:0|0:0,0:0:0:0:
496,112,21548,1,8,0:0:0:0:
495,153,21635,1,8,0:0:0:0:
464,171,21722,1,8,0:0:0:0:
293,137,21809,2,0,L|186:143,1,90,4|8,0:0|0:3,0:0:0:0:
164,165,22071,1,8,0:3:0:0:
155,209,22158,1,8,0:3:0:0:
168,247,22245,1,8,0:3:0:0:
351,259,22332,2,0,L|447:268,1,90,10|10,0:0|0:0,0:0:0:0:
31,232,22856,6,0,P|46:179|171:150,1,180,4|8,0:0|0:3,0:0:0:0:
320,142,23379,2,0,L|326:43,1,90,8|0,0:0|0:0,0:0:0:0:
171,120,23728,2,0,L|169:15,1,90,8|0,0:3|0:0,0:0:0:0:
16,112,24077,2,0,L|19:17,1,90,8|0,0:0|0:0,0:0:0:0:
275,318,24425,6,0,P|331:292|264:200,1,180,6|0,0:0|0:0,0:0:0:0:
204,182,24949,2,0,L|157:175,1,45,2|2,0:0|0:0,0:0:0:0:
244,139,25123,2,0,L|431:135,1,180,2|2,0:0|0:0,0:0:0:0:
16,192,25821,6,0,P|19:135|137:75,1,180,4|2,0:0|0:0,0:0:0:0:
205,71,26344,1,2,0:0:0:0:
306,57,26518,2,0,L|100:38,1,180,2|0,0:0|0:0,0:0:0:0:
119,130,27042,1,10,0:3:0:0:
288,270,27216,6,0,L|283:165,1,90,10|2,0:3|0:0,0:0:0:0:
189,185,27565,2,0,L|384:172,1,180,2|2,0:0|0:0,0:0:0:0:
457,206,28088,1,0,0:0:0:0:
455,297,28262,1,0,0:0:0:0:
374,339,28437,1,2,0:0:0:0:
200,295,28611,6,0,P|146:231|202:170,1,180,10|2,0:3|0:0,0:0:0:0:
381,272,29309,2,0,P|436:217|379:147,1,180,2|2,0:0|0:0,0:0:0:0:
291,144,29832,1,8,0:3:0:0:
123,102,30007,6,0,L|305:93,2,180,10|2|2,0:3|0:0|0:0,0:0:0:0:
119,154,30879,1,0,0:0:0:0:
116,204,31053,1,0,0:0:0:0:
206,213,31228,1,2,0:0:0:0:
370,303,31402,6,0,P|426:258|361:188,1,180,2|2,0:0|0:0,0:0:0:0:
279,174,31925,1,2,0:0:0:0:
189,125,32100,2,0,L|377:118,1,180,2|0,0:0|0:0,0:0:0:0:
456,122,32623,1,2,0:0:0:0:
285,302,32798,6,0,P|242:277|306:182,1,180,2|2,0:0|0:0,0:0:0:0:
377,173,33321,1,2,0:0:0:0:
471,264,33495,2,0,L|474:84,1,180,2|0,0:0|0:0,0:0:0:0:
382,54,34018,1,2,0:0:0:0:
214,144,34193,6,0,L|411:133,1,180,10|2,0:3|0:0,0:0:0:0:
211,213,34891,2,0,L|31:223,1,180,2|2,0:0|0:0,0:0:0:0:
26,151,35414,1,0,0:0:0:0:
203,162,35588,6,0,P|286:245|188:311,1,270,2|0,0:0|0:0,0:0:0:0:
24,304,36286,2,0,L|22:196,1,90,10|8,0:3|0:0,0:0:0:0:
70,209,36548,1,8,0:0:0:0:
227,202,36635,2,0,L|330:200,1,90,8|8,0:0|0:0,0:0:0:0:
67,146,36984,6,0,P|22:112|82:31,1,180,6|8,0:0|0:0,0:0:0:0:
174,37,37507,1,2,0:0:0:0:
355,168,37681,2,0,L|450:173,1,90,10|8,0:3|0:3,0:0:0:0:
22,211,38205,6,0,L|24:312,1,90,2|2,0:0|0:0,0:0:0:0:
116,304,38553,1,8,0:3:0:0:
270,291,38728,2,0,L|76:273,1,180,10|10,0:0|0:3,0:0:0:0:
88,199,39251,1,8,0:3:0:0:
233,162,39425,2,0,L|116:154,1,90,8|2,0:0|0:0,0:0:0:0:
397,314,39774,6,0,L|398:224,1,90,2|0,0:0|0:0,0:0:0:0:
226,275,40123,2,0,L|222:173,1,90,10|0,0:0|0:0,0:0:0:0:
315,198,40472,2,0,L|319:102,1,90,10|2,0:3|0:0,0:0:0:0:
152,163,40821,2,0,L|148:67,1,90,10|0,0:0|0:0,0:0:0:0:
389,66,41170,6,0,L|396:167,1,90,10|8,0:3|0:3,0:0:0:0:
240,48,41518,2,0,L|139:45,1,90,10|0,0:0|0:0,0:0:0:0:
308,193,41867,2,0,L|314:307,1,90,10|8,0:3|0:3,0:0:0:0:
148,321,42216,2,0,L|38:334,1,90,10|10,0:0|0:3,0:0:0:0:
328,322,42565,6,0,L|436:332,1,90,10|8,0:3|0:3,0:0:0:0:
178,295,42914,1,4,0:0:0:0:
271,279,43088,2,0,L|368:269,2,90,2|10|10,0:0|0:3|0:3,0:0:0:0:
35,154,43611,2,0,L|29:55,1,90,10|0,0:0|0:0,0:0:0:0:
272,323,43960,6,0,L|372:332,1,90,10|8,0:3|0:3,0:0:0:0:
126,230,44309,1,4,0:0:0:0:
219,222,44484,2,0,L|317:218,2,90,2|10|10,0:0|0:3|0:3,0:0:0:0:
53,205,45007,2,0,L|48:99,1,90,10|0,0:0|0:0,0:0:0:0:
296,144,45356,6,0,L|399:151,1,90,6|0,0:0|0:0,0:0:0:0:
228,190,45705,2,0,L|218:279,1,90,10|0,0:0|0:0,0:0:0:0:
380,294,46053,2,0,L|488:305,2,90,10|8|10,0:3|0:3|0:0,0:0:0:0:
290,288,46577,1,8,0:3:0:0:
34,258,46751,6,0,P|36:208|144:142,1,180,6|2,0:0|0:0,0:0:0:0:
229,144,47274,1,2,0:0:0:0:
133,80,47449,1,10,0:0:0:0:
303,210,47623,2,0,L|101:224,1,180,8|10,0:0|0:3,0:0:0:0:
381,331,48146,6,0,L|386:231,1,90,10|2,0:0|0:0,0:0:0:0:
288,319,48495,2,0,L|291:215,1,90,2|8,0:0|0:3,0:0:0:0:
127,311,48844,2,0,L|120:201,1,90,10|0,0:0|0:0,0:0:0:0:
218,173,49193,2,0,L|111:167,1,90,2|0,0:0|0:0,0:0:0:0:
378,179,49542,6,0,L|478:186,1,90,10|8,0:3|0:0,0:0:0:0:
308,177,49891,2,0,L|306:71,1,90,2|8,0:0|0:3,0:0:0:0:
466,203,50239,2,0,P|476:258|378:325,1,180,10|2,0:0|0:0,0:0:0:0:
296,324,50763,1,10,0:3:0:0:
34,240,50937,6,0,L|32:342,1,90,4|2,0:0|0:0,0:0:0:0:
125,330,51286,1,2,0:0:0:0:
371,245,51635,2,0,L|173:261,1,180,10|10,0:0|0:3,0:0:0:0:
100,264,52158,1,8,0:3:0:0:
358,107,52332,6,0,L|363:207,1,90,10|8,0:3|0:0,0:0:0:0:
268,197,52681,2,0,L|162:209,1,90,2|8,0:0|0:3,0:0:0:0:
347,228,53030,2,0,L|167:239,1,180,10|10,0:0|0:3,0:0:0:0:
77,248,53553,1,10,0:3:0:0:
368,341,53728,5,6,0:0:0:0:
220,347,55821,2,0,L|214:242,1,90,8|10,0:0|0:3,0:0:0:0:
386,271,56170,2,0,L|388:172,1,90,10|8,0:3|0:3,0:0:0:0:
146,57,56518,5,14,0:0:0:0:
63,70,56692,1,8,0:3:0:0:
55,153,56866,1,8,0:3:0:0:
326,123,57041,1,8,0:0:0:0:
420,134,57216,2,0,L|424:228,1,90,8|8,0:3|0:3,0:0:0:0:
187,199,57565,2,0,L|183:254,1,45,8|8,0:0|0:0,0:0:0:0:
228,260,57739,2,0,L|272:264,1,45,8|8,0:0|0:0,0:0:0:0:
106,307,57914,6,0,L|12:299,1,90,12|8,0:0|0:0,0:0:0:0:
384,306,58611,1,6,0:0:0:0:
424,291,58698,1,0,0:0:0:0:
428,249,58785,1,8,0:0:0:0:
391,228,58872,1,8,0:0:0:0:
229,203,58960,2,0,L|180:196,1,45,10|8,0:0|0:0,0:0:0:0:
368,176,59135,2,0,L|425:184,1,45,8|8,0:0|0:0,0:0:0:0:
211,137,59309,6,0,L|110:128,1,90,6|2,0:0|0:0,0:0:0:0:
279,166,59658,2,0,L|282:275,1,90,10|2,0:0|0:0,0:0:0:0:
119,248,60007,2,0,L|304:265,1,180,10|10,0:3|0:0,0:0:0:0:
390,280,60530,1,2,0:0:0:0:
144,217,60705,6,0,L|139:114,1,90,10|2,0:3|0:0,0:0:0:0:
304,136,61053,2,0,L|308:43,1,90,10|2,0:0|0:0,0:0:0:0:
138,146,61402,2,0,P|87:77|157:41,1,180,10|10,0:3|0:0,0:0:0:0:
235,42,61925,1,2,0:0:0:0:
476,92,62100,6,0,L|290:105,1,180,10|8,0:3|0:0,0:0:0:0:
282,173,62623,1,2,0:0:0:0:
440,264,62798,2,0,P|493:215|429:149,1,180,10|10,0:3|0:0,0:0:0:0:
16,112,63495,6,0,L|223:132,1,180,10|10,0:3|0:0,0:0:0:0:
288,140,64018,1,0,0:0:0:0:
116,294,64193,2,0,P|64:245|125:177,1,180,10|8,0:3|0:0,0:0:0:0:
217,174,64716,1,2,0:0:0:0:
460,184,64891,6,0,L|464:290,1,90,10|2,0:3|0:0,0:0:0:0:
371,274,65239,1,10,0:0:0:0:
206,290,65414,2,0,L|106:297,2,90,2|10|2,0:0|0:3|0:0,0:0:0:0:
369,247,65937,2,0,L|376:149,1,90,10|0,0:0|0:0,0:0:0:0:
133,198,66286,6,0,L|127:96,1,90,10|2,0:3|0:0,0:0:0:0:
278,97,66635,1,10,0:0:0:0:
115,70,66809,2,0,L|18:68,1,90,2|8,0:0|0:3,0:0:0:0:
189,290,67158,2,0,L|196:189,1,90,2|8,0:0|0:0,0:0:0:0:
103,184,67507,1,2,0:0:0:0:
349,184,67681,6,0,L|449:178,1,90,10|2,0:3|0:0,0:0:0:0:
274,144,68030,2,0,L|269:49,1,90,10|10,0:0|0:3,0:0:0:0:
359,42,68379,1,10,0:3:0:0:
116,50,68553,2,0,L|16:41,1,90,10|10,0:3|0:0,0:0:0:0:
301,336,68902,6,0,P|350:307|288:210,1,180,6|8,0:0|0:3,0:0:0:0:
215,200,69425,1,8,0:0:0:0:
456,114,69600,1,6,0:0:0:0:
365,124,69774,2,0,P|307:157|387:219,1,180,2|10,0:0|0:0,0:0:0:0:
452,236,70298,1,0,0:0:0:0:
208,142,70472,6,0,L|203:46,1,90,10|2,0:3|0:0,0:0:0:0:
362,52,70821,2,0,L|465:42,1,90,10|0,0:0|0:0,0:0:0:0:
282,183,71170,2,0,P|218:231|281:283,1,180,10|10,0:3|0:0,0:0:0:0:
369,289,71693,1,2,0:0:0:0:
92,139,71867,6,0,L|86:242,1,90,10|2,0:3|0:0,0:0:0:0:
244,245,72216,2,0,L|146:251,1,90,10|2,0:0|0:0,0:0:0:0:
306,199,72565,2,0,P|360:237|270:301,1,180,10|10,0:3|0:0,0:0:0:0:
215,302,73088,1,2,0:0:0:0:
453,55,73263,6,0,L|454:155,1,90,10|2,0:3|0:0,0:0:0:0:
299,143,73611,2,0,L|205:155,1,90,10|2,0:0|0:0,0:0:0:0:
453,200,73960,2,0,L|457:293,1,90,10|2,0:3|0:0,0:0:0:0:
314,275,74309,2,0,L|438:291,1,90,10|0,0:0|0:0,0:0:0:0:
135,334,74658,6,0,P|45:298|31:221,1,180,10|10,0:3|0:0,0:0:0:0:
290,259,75356,2,0,L|297:152,1,90,10|8,0:3|0:3,0:0:0:0:
136,264,75705,2,0,L|131:169,1,90,10|8,0:0|0:3,0:0:0:0:
388,277,76053,6,0,P|435:249|367:154,1,180,6|2,0:0|0:0,0:0:0:0:
301,143,76577,1,10,0:3:0:0:
465,123,76751,2,0,L|464:21,1,90,10|0,0:0|0:0,0:0:0:0:
362,27,77100,2,0,L|461:23,1,90,2|10,0:0|0:3,0:0:0:0:
194,39,77449,6,0,L|75:47,1,90,10|8,0:0|0:3,0:0:0:0:
271,79,77798,2,0,L|277:175,1,90,10|10,0:0|0:3,0:0:0:0:
36,138,78146,2,0,L|31:265,1,90,10|8,0:0|0:3,0:0:0:0:
194,261,78495,2,0,L|301:269,1,90,10|10,0:3|0:3,0:0:0:0:
47,263,78844,6,0,P|65:195|167:142,1,180,10|10,0:0|0:0,0:0:0:0:
247,140,79367,1,10,0:3:0:0:
86,117,79542,1,10,0:0:0:0:
50,92,79629,1,8,0:3:0:0:
51,49,79716,1,8,0:3:0:0:
87,26,79803,1,8,0:3:0:0:
248,31,79891,2,0,L|314:26,1,45,10|8,0:0|0:3,0:0:0:0:
131,27,80065,2,0,L|59:25,1,45,10|8,0:3|0:3,0:0:0:0:
311,310,80239,6,0,P|359:281|344:161,1,180,6|10,0:0|0:0,0:0:0:0:
307,156,80675,1,8,0:0:0:0:
260,163,80763,1,8,0:0:0:0:
215,167,80850,1,8,0:0:0:0:
393,114,80937,2,0,P|422:77|384:61,1,90,10|8,0:0|0:0,0:0:0:0:
305,21,81286,2,0,L|212:15,1,90,2|0,0:0|0:0,0:0:0:0:
465,133,81635,6,0,L|469:231,1,90,6|0,0:0|0:0,0:0:0:0:
315,130,81984,2,0,L|214:123,1,90,10|0,0:3|0:0,0:0:0:0:
380,184,82332,1,10,0:0:0:0:
216,181,82507,2,0,L|209:270,1,90,10|8,0:0|0:3,0:0:0:0:
456,287,82856,6,0,P|493:220|397:188,1,180,6|2,0:0|0:0,0:0:0:0:
263,172,83379,2,0,L|257:63,1,90,10|0,0:3|0:0,0:0:0:0:
413,136,83728,1,8,0:0:0:0:
449,119,83815,1,8,0:0:0:0:
450,64,83902,1,8,0:0:0:0:
412,53,83989,1,8,0:0:0:0:
246,253,84077,2,0,L|189:259,1,45,8|8,0:3|0:3,0:0:0:0:
246,253,84251,2,0,L|300:247,1,45,8|8,0:3|0:3,0:0:0:0:
446,299,84425,6,0,L|449:203,1,90,4|8,0:0|0:0,0:0:0:0:
402,203,84687,1,8,0:0:0:0:
357,198,84774,1,8,0:0:0:0:
312,194,84861,1,8,0:0:0:0:
128,152,84949,2,0,L|227:145,1,90,4|8,0:0|0:0,0:0:0:0:
264,131,85210,1,8,0:0:0:0:
284,87,85298,1,8,0:0:0:0:
261,45,85385,1,8,0:0:0:0:
79,52,85472,6,0,L|74:149,1,90,4|8,0:0|0:0,0:0:0:0:
73,200,85734,1,8,0:0:0:0:
122,206,85821,1,8,0:0:0:0:
166,211,85908,1,8,0:0:0:0:
324,217,85995,2,0,L|425:223,1,90,4|8,0:0|0:3,0:0:0:0:
415,274,86257,1,8,0:3:0:0:
256,275,86344,2,0,L|195:282,1,45,8|8,0:3|0:3,0:0:0:0:
402,318,86518,2,0,L|499:312,1,90,8|8,0:0|0:0,0:0:0:0:
80,330,87042,5,4,0:0:0:0:
256,192,87216,12,0,88611,0:0:0:0:
