osu file format v14

[General]
AudioFilename: audio.mp3
AudioLeadIn: 0
PreviewTime:58253
Countdown: 0
SampleSet: Soft
StackLeniency: 0.7
Mode: 2
LetterboxInBreaks: 0
WidescreenStoryboard: 1

[Editor]
Bookmarks: 7681,10472,12565,17449,20239,22856,25821,36984,42914,44309,45356,48146,50937,53728,56518,59309,62100,64891,68902,70472,73263,76053,78844,80239,81635,84425,87042
DistanceSpacing: 1
BeatDivisor: 4
GridSize: 16
TimelineZoom: 1

[Metadata]
Title:Omoide Shiritori (TV Size)
TitleUnicode:おもいでしりとり (TV Size)
Artist:DIALOGUE+
ArtistUnicode:DIALOGUE+
Creator:Greaper
Version:Platter
Source:ひげを剃る。そして女子高生を拾う。
Tags:I Shaved a High School Girl Then Brought -Joakh Home Anime Japanese pop jpop j-pop opening op higehiro Hige wo Soru Soshite Joshikousei Hirou idol group 荻原 沙優 Sayu Ogiwara 田淵智也
BeatmapID:2951787
BeatmapSetID:1434346

[Difficulty]
HPDrainRate:4
CircleSize:3.5
OverallDifficulty:8
ApproachRate:8
SliderMultiplier:1.6
SliderTickRate:2

[Events]
//Background and Video events
0,0,"bg.jpg",0,0
//Break Periods
//Storyboard Layer 0 (Background)
//Storyboard Layer 1 (Fail)
//Storyboard Layer 2 (Pass)
//Storyboard Layer 3 (Foreground)
//Storyboard Layer 4 (Overlay)
//Storyboard Sound Samples

[TimingPoints]
705,348.837209302326,4,2,11,60,1,0
7681,-100,4,2,11,70,0,0
13263,-100,4,2,11,40,0,0
13611,-100,4,2,11,60,0,0
13960,-100,4,2,11,20,0,0
14484,-100,4,2,11,60,0,0
20239,-100,4,2,11,70,0,0
22681,-100,4,2,11,60,0,0
25821,-100,4,2,11,50,0,0
36984,-100,4,2,11,60,0,0
56518,-100,4,2,11,70,0,0
57914,-100,4,2,11,80,0,0
58263,-100,4,2,11,60,0,0
59309,-100,4,2,11,80,0,1
75356,-100,4,2,11,75,0,0
81635,-100,4,2,11,60,0,0
84425,-100,4,2,11,70,0,0
87216,-100,4,2,11,60,0,0
87565,-100,4,2,11,50,0,0
87914,-100,4,2,11,35,0,0
88263,-100,4,2,11,20,0,0
88611,-100,4,2,11,5,0,0

[Colours]
Combo1 : 159,211,107
Combo2 : 243,209,75
Combo3 : 73,125,245
Combo4 : 227,91,91

[HitObjects]
365,315,705,6,0,P|402:279|349:188,1,160,2|0,0:0|0:0,0:0:0:0:
199,172,1402,2,0,L|369:157,1,160,2|0,0:0|0:0,0:0:0:0:
85,38,2100,6,0,L|79:148,1,80,2|2,0:0|0:0,0:0:0:0:
161,38,2449,2,0,L|165:117,1,80,2|2,0:0|0:0,0:0:0:0:
261,122,2798,2,0,L|452:135,1,160,2|2,0:0|0:0,0:0:0:0:
425,209,3321,1,0,0:0:0:0:
319,291,3495,6,0,L|316:197,1,80,2|2,0:0|0:0,0:0:0:0:
399,335,3844,2,0,L|406:230,1,80,2|2,0:0|0:0,0:0:0:0:
306,335,4193,2,0,L|474:349,1,160,2|2,0:0|0:0,0:0:0:0:
467,273,4716,1,0,0:0:0:0:
314,255,4891,6,0,P|270:230|337:97,1,240,2|0,0:0|0:0,0:0:0:0:
415,94,5588,1,2,0:0:0:0:
248,87,5937,1,2,0:0:0:0:
415,156,6286,5,2,0:0:0:0:
418,203,6373,1,8,0:0:0:0:
421,250,6460,1,8,0:0:0:0:
339,252,6635,2,0,L|165:265,1,160,10|8,0:3|0:0,0:0:0:0:
262,208,7158,1,8,0:0:0:0:
256,122,7332,1,8,0:3:0:0:
178,87,7507,1,8,0:3:0:0:
418,165,7681,6,0,P|459:97|376:46,1,160,4|2,0:0|0:0,0:0:0:0:
332,39,8205,1,2,0:0:0:0:
180,229,8379,2,0,P|132:165|190:111,1,160,4|2,0:0|0:0,0:0:0:0:
256,110,8902,1,2,0:0:0:0:
409,118,9077,6,0,L|414:225,1,80,10|8,0:0|0:3,0:0:0:0:
331,209,9425,2,0,L|322:302,1,80,2|10,0:0|0:3,0:0:0:0:
424,323,9774,2,0,L|344:315,1,80,10|8,0:0|0:3,0:0:0:0:
264,303,10123,1,8,0:3:0:0:
223,292,10210,1,8,0:3:0:0:
182,283,10297,1,8,0:3:0:0:
423,61,10472,6,0,L|428:162,1,80,4|8,0:0|0:3,0:0:0:0:
347,83,10821,2,0,L|345:174,1,80,10|10,0:3|0:3,0:0:0:0:
248,161,11170,2,0,L|133:150,1,80,10|8,0:3|0:3,0:0:0:0:
257,207,11518,2,0,L|354:219,1,80,10|2,0:3|0:0,0:0:0:0:
183,340,11867,6,0,P|131:317|204:198,1,240,10|8,0:0|0:3,0:0:0:0:
448,201,12565,6,0,L|452:112,1,80,10|10,0:0|0:0,0:0:0:0:
256,192,13263,12,0,14135,0:0:0:0:
159,233,14484,6,0,L|155:172,1,40,8|8,0:0|0:0,0:0:0:0:
224,168,14658,2,0,P|271:232|222:286,1,160,10|10,0:3|0:3,0:0:0:0:
66,170,15356,2,0,L|63:75,1,80,10|10,0:0|0:0,0:0:0:0:
336,90,15879,6,0,L|502:109,2,160,6|2|2,0:0|0:0|0:0,0:0:0:0:
189,96,16751,2,0,P|191:157|325:264,1,240,8|8,0:3|0:3,0:0:0:0:
77,158,17449,6,0,P|34:179|74:260,1,160,6|10,0:0|0:3,0:0:0:0:
345,254,18146,2,0,L|351:346,1,80,10|10,0:0|0:0,0:0:0:0:
163,333,18670,6,0,L|333:346,1,160,10|2,0:0|0:0,0:0:0:0:
227,268,19193,2,0,L|225:179,1,80,10|2,0:3|0:0,0:0:0:0:
386,101,19542,2,0,P|445:131|486:296,1,240,8|8,0:0|0:3,0:0:0:0:
235,266,20239,5,4,0:0:0:0:
152,259,20414,1,8,0:0:0:0:
150,219,20501,1,8,0:0:0:0:
148,179,20588,1,8,0:0:0:0:
310,181,20763,1,4,0:0:0:0:
390,179,20937,1,8,0:0:0:0:
390,139,21024,1,8,0:0:0:0:
390,99,21111,1,8,0:0:0:0:
229,85,21286,5,4,0:0:0:0:
311,91,21460,1,8,0:0:0:0:
313,51,21547,1,8,0:0:0:0:
315,11,21634,1,8,0:0:0:0:
155,18,21809,1,4,0:0:0:0:
241,149,21984,1,8,0:3:0:0:
243,188,22071,1,8,0:3:0:0:
245,228,22158,1,8,0:3:0:0:
408,238,22332,2,0,L|504:247,1,80,10|10,0:0|0:0,0:0:0:0:
54,260,22856,6,0,P|27:198|23:91,1,160,4|8,0:0|0:3,0:0:0:0:
106,153,23379,2,0,L|112:54,1,80,8|0,0:0|0:0,0:0:0:0:
195,131,23728,2,0,L|200:26,1,80,8|0,0:3|0:0,0:0:0:0:
279,103,24077,2,0,L|282:8,1,80,8|0,0:0|0:0,0:0:0:0:
128,97,24425,6,0,P|140:173|215:212,1,160,6|0,0:0|0:0,0:0:0:0:
127,280,24949,2,0,L|125:228,1,40,2|2,0:0|0:0,0:0:0:0:
178,329,25123,2,0,L|-9:325,1,160,2|2,0:0|0:0,0:0:0:0:
496,192,25821,6,0,P|493:135|391:86,1,160,4|2,0:0|0:0,0:0:0:0:
331,77,26344,1,2,0:0:0:0:
249,42,26518,2,0,L|413:31,1,160,2|0,0:0|0:0,0:0:0:0:
409,141,27042,1,10,0:3:0:0:
309,131,27216,6,0,L|400:139,1,80,10|2,0:3|0:0,0:0:0:0:
472,203,27565,2,0,L|277:190,1,160,2|2,0:0|0:0,0:0:0:0:
315,263,28088,1,0,0:0:0:0:
394,278,28263,1,0,0:0:0:0:
99,330,28611,6,0,L|104:138,1,160,10|2,0:3|0:0,0:0:0:0:
288,304,29309,2,0,L|293:118,1,160,2|2,0:0|0:0,0:0:0:0:
210,135,29832,1,8,0:3:0:0:
110,81,30007,6,0,L|269:88,2,160,10|2|2,0:3|0:0|0:0,0:0:0:0:
105,159,30879,1,0,0:0:0:0:
181,189,31053,1,0,0:0:0:0:
461,191,31402,6,0,P|497:136|433:78,1,160,2|2,0:0|0:0,0:0:0:0:
360,71,31925,1,2,0:0:0:0:
274,68,32100,2,0,L|273:237,1,160,2|0,0:0|0:0,0:0:0:0:
353,235,32623,1,2,0:0:0:0:
192,263,32798,6,0,L|27:247,1,160,2|2,0:0|0:0,0:0:0:0:
38,181,33321,1,2,0:0:0:0:
125,182,33495,2,0,L|128:5,1,160,2|0,0:0|0:0,0:0:0:0:
45,20,34018,1,2,0:0:0:0:
203,40,34193,6,0,L|400:29,1,160,10|2,0:3|0:0,0:0:0:0:
179,112,34891,2,0,L|177:279,1,160,2|2,0:0|0:0,0:0:0:0:
256,280,35414,1,0,0:0:0:0:
359,36,35588,5,2,0:0:0:0:
179,114,36111,2,0,L|176:32,1,80,0|10,0:0|0:3,0:0:0:0:
255,66,36460,1,8,0:0:0:0:
255,105,36547,1,8,0:0:0:0:
255,145,36634,1,8,0:0:0:0:
175,163,36809,1,8,0:0:0:0:
415,288,36984,6,0,P|457:251|400:173,1,160,6|8,0:0|0:0,0:0:0:0:
334,166,37507,1,2,0:0:0:0:
428,122,37681,2,0,L|429:27,1,80,10|8,0:3|0:3,0:0:0:0:
148,66,38205,6,0,L|146:167,1,80,2|2,0:0|0:0,0:0:0:0:
228,162,38553,1,8,0:3:0:0:
316,235,38728,2,0,L|122:217,1,160,10|10,0:0|0:3,0:0:0:0:
322,145,39425,2,0,L|324:46,1,80,8|2,0:0|0:0,0:0:0:0:
161,271,39774,6,0,L|329:281,1,160,2|10,0:0|0:0,0:0:0:0:
143,243,40472,2,0,P|69:201|79:133,1,160,10|10,0:3|0:0,0:0:0:0:
353,140,41170,6,0,L|444:147,2,80,10|8|10,0:3|0:3|0:0,0:0:0:0:
193,166,41867,2,0,L|187:280,1,80,10|8,0:3|0:3,0:0:0:0:
271,263,42216,1,10,0:0:0:0:
16,256,42565,6,0,L|18:157,1,80,10|8,0:3|0:3,0:0:0:0:
267,173,42914,2,0,L|435:161,1,160,4|10,0:0|0:3,0:0:0:0:
423,95,43437,1,10,0:3:0:0:
343,80,43611,1,10,0:0:0:0:
87,125,43960,6,0,L|85:44,1,80,10|8,0:3|0:3,0:0:0:0:
328,135,44309,1,4,0:0:0:0:
410,131,44484,2,0,L|508:127,2,80,2|10|10,0:0|0:3|0:3,0:0:0:0:
316,125,45007,2,0,L|217:124,1,80,10|0,0:0|0:0,0:0:0:0:
479,200,45356,6,0,L|484:281,1,80,6|0,0:0|0:0,0:0:0:0:
395,206,45705,2,0,L|395:296,1,80,10|0,0:0|0:0,0:0:0:0:
237,308,46053,2,0,L|418:318,1,160,10|10,0:3|0:0,0:0:0:0:
475,325,46577,1,8,0:3:0:0:
315,259,46751,6,0,P|265:212|314:150,1,160,6|2,0:0|0:0,0:0:0:0:
392,148,47274,1,2,0:0:0:0:
305,11,47449,1,10,0:0:0:0:
308,73,47623,2,0,L|489:84,1,160,8|10,0:0|0:3,0:0:0:0:
225,298,48146,6,0,L|230:198,1,80,10|2,0:0|0:0,0:0:0:0:
309,202,48495,1,2,0:0:0:0:
139,157,48844,2,0,L|132:56,1,80,10|0,0:0|0:0,0:0:0:0:
52,140,49193,2,0,L|46:38,1,80,2|0,0:0|0:0,0:0:0:0:
214,200,49542,6,0,L|220:296,1,80,10|8,0:3|0:0,0:0:0:0:
136,205,49891,2,0,L|140:289,1,80,2|8,0:0|0:3,0:0:0:0:
240,302,50239,2,0,L|44:332,1,160,10|2,0:0|0:0,0:0:0:0:
69,247,50763,1,10,0:3:0:0:
314,159,50937,6,0,L|316:261,1,80,4|2,0:0|0:0,0:0:0:0:
233,250,51286,1,2,0:0:0:0:
47,252,51635,2,0,P|18:176|81:138,1,160,10|10,0:0|0:3,0:0:0:0:
342,117,52332,6,0,L|346:33,1,80,10|8,0:3|0:0,0:0:0:0:
264,41,52681,2,0,L|175:32,1,80,2|8,0:0|0:3,0:0:0:0:
288,148,53030,2,0,L|100:129,1,160,10|10,0:0|0:3,0:0:0:0:
210,183,53553,1,10,0:3:0:0:
456,291,53728,5,6,0:0:0:0:
444,218,55821,2,0,L|439:125,2,80,8|10|10,0:0|0:3|0:3,0:0:0:0:
25,95,56518,5,14,0:0:0:0:
24,173,56692,1,8,0:3:0:0:
74,233,56866,1,8,0:3:0:0:
152,245,57041,1,8,0:0:0:0:
47,259,57216,2,0,L|39:354,1,80,8|8,0:3|0:3,0:0:0:0:
122,339,57565,1,8,0:0:0:0:
162,341,57652,1,8,0:0:0:0:
202,344,57739,1,8,0:0:0:0:
444,222,57914,6,0,L|448:121,1,80,12|8,0:0|0:0,0:0:0:0:
129,228,58611,2,0,P|56:194|124:77,1,240,6|8,0:0|0:0,0:0:0:0:
356,106,59309,6,0,L|451:114,1,80,6|2,0:0|0:0,0:0:0:0:
336,157,59658,2,0,L|333:266,1,80,10|2,0:0|0:0,0:0:0:0:
496,240,60007,2,0,L|311:257,1,160,10|10,0:3|0:0,0:0:0:0:
256,264,60530,1,2,0:0:0:0:
420,195,60705,6,0,L|425:92,1,80,10|2,0:3|0:0,0:0:0:0:
337,129,61053,2,0,L|333:36,1,80,10|2,0:0|0:0,0:0:0:0:
170,44,61402,2,0,L|-6:23,1,160,10|10,0:3|0:0,0:0:0:0:
86,103,61925,1,2,0:0:0:0:
331,174,62100,6,0,P|383:212|314:256,1,160,10|8,0:3|0:0,0:0:0:0:
245,257,62623,1,2,0:0:0:0:
78,284,62798,2,0,L|260:305,1,160,10|10,0:3|0:0,0:0:0:0:
496,112,63495,6,0,L|306:125,1,160,10|10,0:3|0:0,0:0:0:0:
169,174,64193,2,0,L|336:192,1,160,10|8,0:3|0:0,0:0:0:0:
410,200,64716,1,2,0:0:0:0:
166,245,64891,6,0,L|162:351,1,80,10|2,0:3|0:0,0:0:0:0:
248,333,65239,1,10,0:0:0:0:
149,339,65414,2,0,L|49:329,2,80,2|10|2,0:0|0:3|0:0,0:0:0:0:
232,291,65937,2,0,L|238:189,1,80,10|0,0:0|0:0,0:0:0:0:
405,199,66286,6,0,L|411:97,1,80,10|2,0:3|0:0,0:0:0:0:
326,109,66635,1,10,0:0:0:0:
220,70,66809,2,0,L|389:70,1,160,2|2,0:0|0:0,0:0:0:0:
461,69,67332,1,8,0:0:0:0:
386,14,67507,1,2,0:0:0:0:
226,298,67681,6,0,L|223:216,1,80,10|2,0:3|0:0,0:0:0:0:
388,214,68030,2,0,L|393:119,1,80,10|10,0:0|0:3,0:0:0:0:
303,112,68379,1,10,0:3:0:0:
143,108,68553,2,0,L|49:103,1,80,10|10,0:3|0:0,0:0:0:0:
306,326,68902,6,0,P|352:283|285:236,1,160,6|8,0:0|0:3,0:0:0:0:
209,233,69425,1,8,0:0:0:0:
47,188,69600,1,6,0:0:0:0:
129,177,69774,2,0,P|132:119|43:87,1,160,2|10,0:0|0:0,0:0:0:0:
486,202,70472,6,0,L|491:106,1,80,10|2,0:3|0:0,0:0:0:0:
405,122,70821,2,0,L|402:33,1,80,10|0,0:0|0:0,0:0:0:0:
237,196,71170,2,0,L|409:207,1,160,10|10,0:3|0:0,0:0:0:0:
397,285,71693,1,2,0:0:0:0:
234,318,71867,6,0,L|225:220,1,80,10|2,0:3|0:0,0:0:0:0:
311,227,72216,2,0,L|317:133,1,80,10|2,0:0|0:0,0:0:0:0:
149,92,72565,2,0,P|92:133|165:165,1,160,10|10,0:3|0:0,0:0:0:0:
225,168,73088,1,2,0:0:0:0:
467,123,73263,6,0,L|466:223,1,80,10|2,0:3|0:0,0:0:0:0:
384,200,73611,2,0,L|383:287,1,80,10|2,0:0|0:0,0:0:0:0:
224,183,73960,2,0,L|220:276,1,80,10|2,0:3|0:0,0:0:0:0:
302,198,74309,2,0,L|298:296,1,80,10|0,0:0|0:0,0:0:0:0:
139,329,74658,6,0,L|327:309,1,160,10|10,0:3|0:0,0:0:0:0:
24,268,75356,2,0,L|17:161,1,80,10|8,0:3|0:3,0:0:0:0:
97,177,75705,2,0,L|96:81,1,80,10|8,0:0|0:3,0:0:0:0:
334,200,76053,6,0,L|504:194,1,160,6|2,0:0|0:0,0:0:0:0:
483,128,76577,1,10,0:3:0:0:
386,131,76751,2,0,P|339:82|406:32,1,160,10|2,0:0|0:0,0:0:0:0:
473,32,77274,1,10,0:3:0:0:
306,41,77449,6,0,L|297:133,1,80,10|8,0:0|0:3,0:0:0:0:
379,121,77798,2,0,L|373:217,1,80,10|10,0:0|0:3,0:0:0:0:
211,227,78146,2,0,L|105:233,2,80,10|8|10,0:0|0:3|0:3,0:0:0:0:
302,220,78670,1,10,0:3:0:0:
61,188,78844,6,0,P|17:126|76:83,1,160,10|10,0:0|0:0,0:0:0:0:
151,89,79367,1,10,0:3:0:0:
311,77,79542,2,0,P|374:103|306:225,1,240,10|10,0:0|0:3,0:0:0:0:
72,285,80239,6,0,P|70:244|158:169,1,160,6|10,0:0|0:0,0:0:0:0:
192,168,80675,1,8,0:0:0:0:
233,163,80763,1,8,0:0:0:0:
273,163,80850,1,8,0:0:0:0:
211,125,80937,2,0,L|206:27,1,80,10|8,0:0|0:0,0:0:0:0:
292,37,81286,2,0,L|385:31,1,80,2|0,0:0|0:0,0:0:0:0:
118,46,81635,6,0,L|114:144,1,80,6|0,0:0|0:0,0:0:0:0:
205,134,81984,2,0,L|209:224,1,80,10|0,0:3|0:0,0:0:0:0:
46,221,82332,2,0,L|43:311,1,80,10|10,0:0|0:0,0:0:0:0:
337,306,82856,6,0,P|383:243|312:199,1,160,6|2,0:0|0:0,0:0:0:0:
248,280,83379,2,0,L|246:173,1,80,10|0,0:3|0:0,0:0:0:0:
416,246,83728,2,0,P|476:227|397:122,1,240,8|8,0:0|0:3,0:0:0:0:
167,191,84425,5,4,0:0:0:0:
84,184,84600,1,8,0:0:0:0:
82,144,84687,1,8,0:0:0:0:
80,104,84774,1,8,0:0:0:0:
241,284,84949,1,4,0:0:0:0:
321,282,85123,1,8,0:0:0:0:
321,242,85210,1,8,0:0:0:0:
321,202,85298,1,8,0:0:0:0:
161,135,85472,5,4,0:0:0:0:
243,141,85646,1,8,0:0:0:0:
245,101,85733,1,8,0:0:0:0:
247,61,85820,1,8,0:0:0:0:
412,137,85995,1,4,0:0:0:0:
330,143,86169,1,8,0:3:0:0:
328,103,86256,1,8,0:3:0:0:
326,63,86343,1,8,0:3:0:0:
165,191,86518,2,0,L|53:203,1,80,8|8,0:0|0:0,0:0:0:0:
496,208,87042,5,4,0:0:0:0:
256,192,87216,12,0,88611,0:0:0:0:
