osu file format v14

[General]
AudioFilename: audio.mp3
AudioLeadIn: 0
PreviewTime: 58253
Countdown: 0
SampleSet: Soft
StackLeniency: 0.7
Mode: 2
LetterboxInBreaks: 0
WidescreenStoryboard: 0

[Editor]
DistanceSpacing: 1
BeatDivisor: 4
GridSize: 16
TimelineZoom: 2.3

[Metadata]
Title:Omoide Shiritori (TV Size)
TitleUnicode:おもいでしりとり (TV Size)
Artist:DIALOGUE+
ArtistUnicode:DIALOGUE+
Creator:Greaper
Version:Overdose
Source:ひげを剃る。そして女子高生を拾う。
Tags:I Shaved a High School Girl Then Brought -Joakh Home Anime Japanese pop jpop j-pop opening op higehiro Hige wo Soru Soshite Joshikousei Hirou idol group 荻原 沙優 Sayu Ogiwara 田淵智也
BeatmapID:2951786
BeatmapSetID:1434346

[Difficulty]
HPDrainRate:6
CircleSize:4.2
OverallDifficulty:9.3
ApproachRate:9.3
SliderMultiplier:1.9
SliderTickRate:2

[Events]
//Background and Video events
0,0,"bg.jpg",0,0
//Break Periods
//Storyboard Layer 0 (Background)
//Storyboard Layer 1 (Fail)
//Storyboard Layer 2 (Pass)
//Storyboard Layer 3 (Foreground)
//Storyboard Layer 4 (Overlay)
//Storyboard Sound Samples

[TimingPoints]
705,348.837209302326,4,2,11,60,1,0
6373,-100,4,2,11,50,0,0
6460,-100,4,2,11,60,0,0
7681,-100,4,2,11,70,0,0
13263,-100,4,2,11,40,0,0
13611,-100,4,2,11,60,0,0
13960,-100,4,2,11,20,0,0
14484,-100,4,2,11,60,0,0
20239,-100,4,2,11,70,0,0
22681,-100,4,2,11,60,0,0
25821,-100,4,2,11,50,0,0
36984,-100,4,2,11,60,0,0
56518,-100,4,2,11,70,0,0
57914,-100,4,2,11,80,0,0
58263,-100,4,2,11,60,0,0
59309,-100,4,2,11,80,0,1
75356,-100,4,2,11,75,0,0
81635,-100,4,2,11,60,0,0
84425,-100,4,2,11,70,0,0
87216,-100,4,2,11,60,0,0
87565,-100,4,2,11,50,0,0
87914,-100,4,2,11,35,0,0
88263,-100,4,2,11,20,0,0
88611,-100,4,2,11,5,0,0

[Colours]
Combo1 : 159,211,107
Combo2 : 243,209,75
Combo3 : 73,125,245
Combo4 : 227,91,91

[HitObjects]
126,309,705,5,2,0:0:0:0:
207,265,879,1,0,0:0:0:0:
233,176,1053,1,0,0:0:0:0:
188,96,1228,1,0,0:0:0:0:
98,72,1402,1,2,0:0:0:0:
192,69,1576,1,0,0:0:0:0:
287,66,1750,1,0,0:0:0:0:
382,63,1925,1,0,0:0:0:0:
191,141,2100,6,0,L|185:251,1,95,2|2,0:0|0:0,0:0:0:0:
351,233,2449,2,0,L|354:338,1,95,2|2,0:0|0:0,0:0:0:0:
173,328,2798,2,0,P|119:305|180:219,1,190,2|2,0:0|0:0,0:0:0:0:
267,210,3321,1,0,0:0:0:0:
86,197,3495,6,0,L|83:103,1,95,2|2,0:0|0:0,0:0:0:0:
247,95,3844,2,0,L|344:87,1,95,2|2,0:0|0:0,0:0:0:0:
161,31,4193,2,0,P|100:80|149:172,1,190,2|2,0:0|0:0,0:0:0:0:
236,176,4716,1,0,0:0:0:0:
419,270,4891,6,0,P|467:247|378:83,1,285,2|0,0:0|0:0,0:0:0:0:
242,78,5588,2,0,L|450:65,1,190,2|2,0:0|0:0,0:0:0:0:
182,98,6286,5,2,0:0:0:0:
179,145,6373,1,8,0:0:0:0:
176,192,6460,1,8,0:0:0:0:
349,167,6635,2,0,L|457:187,1,95,10|0,0:3|0:0,0:0:0:0:
207,271,6984,2,0,L|307:285,1,95,8|8,0:0|0:0,0:0:0:0:
466,240,7332,1,8,0:3:0:0:
305,287,7507,1,8,0:3:0:0:
35,305,7681,6,0,L|237:317,1,190,4|2,0:0|0:0,0:0:0:0:
322,320,8205,1,2,0:0:0:0:
82,237,8379,2,0,P|24:175|92:119,1,190,4|2,0:0|0:0,0:0:0:0:
185,92,8902,1,2,0:0:0:0:
426,95,9077,6,0,L|431:202,1,95,10|8,0:0|0:3,0:0:0:0:
275,206,9425,1,2,0:0:0:0:
442,230,9600,1,10,0:3:0:0:
195,246,9774,2,0,L|93:236,1,95,10|8,0:0|0:3,0:0:0:0:
271,165,10123,2,0,L|211:156,1,47.5,8|8,0:3|0:3,0:0:0:0:
152,139,10298,2,0,L|148:84,1,47.5,8|8,0:3|0:3,0:0:0:0:
329,54,10472,6,0,L|444:61,1,95,4|8,0:0|0:3,0:0:0:0:
426,116,10734,1,0,0:0:0:0:
378,157,10821,1,10,0:3:0:0:
226,170,10995,1,10,0:3:0:0:
389,201,11170,2,0,L|492:211,1,95,10|8,0:3|0:3,0:0:0:0:
246,260,11518,2,0,L|144:246,1,95,10|2,0:3|0:0,0:0:0:0:
431,156,11867,5,10,0:0:0:0:
429,109,11954,1,8,0:0:0:0:
402,70,12041,1,8,0:0:0:0:
359,53,12129,1,8,0:0:0:0:
188,52,12216,2,0,L|254:46,1,47.5,8|8,0:0|0:3,0:0:0:0:
382,27,12391,2,0,L|441:22,1,47.5,8|8,0:3|0:3,0:0:0:0:
215,101,12565,1,10,0:0:0:0:
450,109,12739,5,10,0:0:0:0:
256,192,13263,12,0,14135,0:0:0:0:
369,139,14484,6,0,L|373:78,1,47.5,8|8,0:0|0:0,0:0:0:0:
206,75,14658,2,0,L|-6:97,1,190,10|10,0:3|0:3,0:0:0:0:
424,284,15356,1,10,0:0:0:0:
264,292,15530,2,0,L|259:179,1,95,10|8,0:0|0:3,0:0:0:0:
496,160,15879,6,0,L|276:150,1,190,6|2,0:0|0:0,0:0:0:0:
302,86,16402,1,10,0:3:0:0:
463,56,16577,1,2,0:0:0:0:
179,128,16751,1,8,0:3:0:0:
147,94,16838,1,8,0:3:0:0:
152,49,16925,1,8,0:3:0:0:
191,24,17012,1,8,0:3:0:0:
358,27,17100,2,0,L|424:35,1,47.5,8|8,0:3|0:3,0:0:0:0:
238,26,17274,2,0,L|166:23,1,47.5,8|8,0:3|0:3,0:0:0:0:
384,124,17449,6,0,P|450:136|480:263,1,190,6|10,0:0|0:3,0:0:0:0:
81,221,18146,1,10,0:0:0:0:
237,224,18321,2,0,L|345:235,1,95,10|8,0:0|0:3,0:0:0:0:
42,314,18670,6,0,L|35:197,1,95,10|8,0:0|0:3,0:0:0:0:
192,199,19018,1,2,0:0:0:0:
33,175,19193,1,10,0:3:0:0:
284,156,19367,2,0,L|279:51,1,95,2|8,0:0|0:0,0:0:0:0:
231,55,19629,1,8,0:0:0:0:
311,39,19716,2,0,L|370:42,1,47.5,8|8,0:0|0:0,0:0:0:0:
187,171,19891,2,0,L|234:180,1,47.5,8|8,0:3|0:3,0:0:0:0:
376,202,20065,2,0,L|431:211,1,47.5,8|8,0:3|0:3,0:0:0:0:
184,261,20239,5,4,0:0:0:0:
316,237,20414,2,0,L|318:186,1,47.5,8|8,0:0|0:0,0:0:0:0:
165,168,20588,2,0,L|161:110,1,47.5,8|8,0:0|0:0,0:0:0:0:
373,120,20763,1,4,0:0:0:0:
242,76,20937,2,0,L|190:70,1,47.5,8|8,0:0|0:0,0:0:0:0:
343,46,21111,2,0,L|395:49,1,47.5,8|8,0:0|0:0,0:0:0:0:
166,51,21286,5,4,0:0:0:0:
294,79,21460,2,0,L|293:142,1,47.5,8|8,0:0|0:0,0:0:0:0:
121,195,21635,2,0,L|175:198,1,47.5,8|8,0:0|0:0,0:0:0:0:
406,184,21809,2,0,L|459:190,1,47.5,4|8,0:0|0:3,0:0:0:0:
283,178,21984,2,0,L|279:237,1,47.5,8|8,0:3|0:3,0:0:0:0:
358,243,22158,2,0,L|404:254,1,47.5,8|8,0:3|0:3,0:0:0:0:
193,309,22332,1,10,0:0:0:0:
473,213,22507,2,0,L|478:317,1,95,10|0,0:0|0:0,0:0:0:0:
134,258,22856,6,0,P|70:215|142:153,1,190,4|8,0:0|0:3,0:0:0:0:
301,158,23379,2,0,L|317:57,1,95,8|0,0:0|0:0,0:0:0:0:
155,259,23728,2,0,L|250:183,1,95,8|0,0:3|0:0,0:0:0:0:
69,318,24077,2,0,L|182:300,1,95,8|0,0:0|0:0,0:0:0:0:
415,297,24425,6,0,P|462:272|404:179,1,190,6|0,0:0|0:0,0:0:0:0:
227,180,24949,2,0,L|221:235,1,47.5,2|2,0:0|0:0,0:0:0:0:
306,239,25123,2,0,L|505:226,1,190,2|2,0:0|0:0,0:0:0:0:
86,265,25821,6,0,P|37:235|101:149,1,190,4|2,0:0|0:0,0:0:0:0:
192,142,26344,1,2,0:0:0:0:
364,277,26518,2,0,P|358:220|233:177,1,190,2|0,0:0|0:0,0:0:0:0:
151,184,27042,1,10,0:3:0:0:
344,139,27216,6,0,L|349:34,1,95,10|2,0:3|0:0,0:0:0:0:
186,53,27565,2,0,L|189:156,1,95,2|0,0:0|0:0,0:0:0:0:
371,45,27914,1,2,0:0:0:0:
449,90,28088,1,0,0:0:0:0:
447,181,28262,1,0,0:0:0:0:
366,223,28437,1,2,0:0:0:0:
171,229,28611,6,0,L|374:254,1,190,10|2,0:3|0:0,0:0:0:0:
97,179,29309,2,0,P|51:161|106:64,1,190,2|2,0:0|0:0,0:0:0:0:
192,76,29832,1,8,0:3:0:0:
380,91,30007,6,0,P|425:181|366:232,1,190,10|2,0:3|0:0,0:0:0:0:
112,168,30705,2,0,L|108:271,1,95,2|0,0:0|0:0,0:0:0:0:
208,279,31053,1,0,0:0:0:0:
43,290,31228,1,2,0:0:0:0:
226,310,31402,6,0,P|282:265|207:169,1,190,2|2,0:0|0:0,0:0:0:0:
140,159,31925,1,2,0:0:0:0:
301,137,32100,2,0,L|495:131,1,190,2|0,0:0|0:0,0:0:0:0:
492,60,32623,1,2,0:0:0:0:
299,301,32798,6,0,P|256:276|320:181,1,190,2|2,0:0|0:0,0:0:0:0:
404,184,33321,1,2,0:0:0:0:
245,148,33495,1,2,0:0:0:0:
241,242,33669,1,0,0:0:0:0:
237,337,33843,1,0,0:0:0:0:
388,354,34018,1,2,0:0:0:0:
211,352,34193,6,0,L|14:341,1,190,10|2,0:3|0:0,0:0:0:0:
274,295,34891,2,0,L|66:283,1,190,2|2,0:0|0:0,0:0:0:0:
79,200,35414,1,0,0:0:0:0:
320,221,35588,6,0,P|407:188|310:78,1,285,2|0,0:0|0:0,0:0:0:0:
156,84,36286,1,10,0:3:0:0:
308,108,36460,2,0,L|312:165,1,47.5,8|8,0:0|0:0,0:0:0:0:
141,166,36635,2,0,L|40:182,1,95,8|8,0:0|0:0,0:0:0:0:
312,331,36984,6,0,P|368:304|297:216,1,190,6|8,0:0|0:0,0:0:0:0:
157,203,37507,1,2,0:0:0:0:
322,164,37681,2,0,L|320:57,1,95,10|8,0:3|0:3,0:0:0:0:
225,61,38030,1,2,0:0:0:0:
459,48,38205,5,2,0:0:0:0:
321,109,38379,1,2,0:0:0:0:
460,109,38553,1,8,0:3:0:0:
126,175,38728,2,0,L|19:184,1,95,10|0,0:0|0:0,0:0:0:0:
194,202,39077,2,0,L|294:210,1,95,10|8,0:3|0:3,0:0:0:0:
37,283,39425,1,8,0:0:0:0:
37,283,39600,1,2,0:0:0:0:
297,305,39774,6,0,L|299:184,1,95,2|0,0:0|0:0,0:0:0:0:
137,203,40123,2,0,L|131:99,1,95,10|0,0:0|0:0,0:0:0:0:
303,101,40472,2,0,L|436:98,1,95,10|2,0:3|0:0,0:0:0:0:
238,57,40821,2,0,L|137:47,1,95,10|0,0:0|0:0,0:0:0:0:
427,138,41170,6,0,L|434:239,1,95,10|8,0:3|0:3,0:0:0:0:
264,163,41518,2,0,L|361:175,1,95,10|0,0:0|0:0,0:0:0:0:
192,218,41867,2,0,L|185:326,1,95,10|8,0:3|0:3,0:0:0:0:
351,323,42216,1,10,0:0:0:0:
177,348,42391,1,10,0:3:0:0:
431,302,42565,6,0,L|431:197,1,95,10|8,0:3|0:3,0:0:0:0:
147,194,42914,2,0,L|46:184,1,95,4|2,0:0|0:0,0:0:0:0:
224,160,43263,2,0,L|228:266,1,95,10|10,0:3|0:3,0:0:0:0:
56,223,43611,2,0,L|48:325,1,95,10|0,0:0|0:0,0:0:0:0:
308,319,43960,6,0,L|416:329,1,95,10|8,0:3|0:3,0:0:0:0:
147,239,44309,1,4,0:0:0:0:
271,233,44484,1,2,0:0:0:0:
147,197,44658,2,0,L|146:102,1,95,10|10,0:3|0:3,0:0:0:0:
314,105,45007,2,0,L|425:98,1,95,10|0,0:0|0:0,0:0:0:0:
150,54,45356,6,0,L|43:46,1,95,6|0,0:0|0:0,0:0:0:0:
218,89,45705,2,0,L|324:98,1,95,10|0,0:0|0:0,0:0:0:0:
48,103,46053,2,0,L|42:209,1,95,10|8,0:3|0:3,0:0:0:0:
200,199,46402,1,10,0:0:0:0:
37,243,46577,1,8,0:3:0:0:
326,268,46751,6,0,P|381:236|308:156,1,190,6|2,0:0|0:0,0:0:0:0:
229,158,47274,1,2,0:0:0:0:
402,315,47449,1,10,0:0:0:0:
156,306,47623,2,0,L|358:320,1,190,8|10,0:0|0:3,0:0:0:0:
70,241,48146,6,0,L|65:141,1,95,10|2,0:0|0:0,0:0:0:0:
235,146,48495,2,0,L|134:125,1,95,2|8,0:0|0:3,0:0:0:0:
378,74,48844,2,0,L|385:184,1,95,10|0,0:0|0:0,0:0:0:0:
218,183,49193,2,0,L|211:293,1,95,2|0,0:0|0:0,0:0:0:0:
459,289,49542,5,10,0:3:0:0:
308,301,49716,1,8,0:0:0:0:
467,258,49891,2,0,L|469:152,1,95,2|8,0:0|0:3,0:0:0:0:
225,157,50239,2,0,L|452:147,1,190,10|2,0:0|0:0,0:0:0:0:
252,93,50763,1,10,0:3:0:0:
490,88,50937,6,0,L|492:190,1,95,4|2,0:0|0:0,0:0:0:0:
329,185,51286,2,0,L|436:193,1,95,2|8,0:0|0:3,0:0:0:0:
185,224,51635,2,0,P|187:169|314:113,1,190,10|10,0:0|0:3,0:0:0:0:
387,114,52158,1,8,0:3:0:0:
128,122,52332,6,0,L|19:113,1,95,10|8,0:3|0:0,0:0:0:0:
195,171,52681,2,0,L|197:271,1,95,2|8,0:0|0:3,0:0:0:0:
434,186,53030,2,0,L|442:290,1,95,10|0,0:0|0:0,0:0:0:0:
284,282,53379,1,10,0:3:0:0:
447,314,53553,1,10,0:3:0:0:
179,316,53728,5,6,0:0:0:0:
340,321,55821,2,0,L|346:216,1,95,8|10,0:0|0:3,0:0:0:0:
177,153,56170,2,0,L|80:148,1,95,10|8,0:3|0:3,0:0:0:0:
363,127,56518,5,14,0:0:0:0:
204,125,56693,1,8,0:3:0:0:
363,127,56867,1,8,0:3:0:0:
204,125,57042,1,8,0:0:0:0:
458,119,57216,1,8,0:3:0:0:
202,79,57391,1,8,0:3:0:0:
496,32,57565,2,0,L|442:28,1,47.5,8|8,0:0|0:0,0:0:0:0:
281,26,57739,2,0,L|212:21,1,47.5,8|8,0:0|0:0,0:0:0:0:
429,74,57914,5,12,0:0:0:0:
99,80,58088,1,8,0:0:0:0:
223,95,58263,2,0,P|269:134|229:195,1,142.5,2|0,0:0|0:0,0:0:0:0:
46,257,58611,2,0,L|35:319,1,47.5,6|0,0:0|0:0,0:0:0:0:
206,275,58786,2,0,L|208:324,1,47.5,8|8,0:0|0:0,0:0:0:0:
17,189,58960,2,0,L|79:188,1,47.5,10|8,0:0|0:0,0:0:0:0:
272,180,59135,2,0,L|336:177,1,47.5,8|8,0:0|0:0,0:0:0:0:
57,127,59309,5,6,0:0:0:0:
201,123,59484,1,2,0:0:0:0:
40,85,59658,1,10,0:0:0:0:
204,73,59832,1,2,0:0:0:0:
442,84,60007,2,0,L|447:192,1,95,10|0,0:3|0:0,0:0:0:0:
285,191,60356,1,10,0:0:0:0:
453,211,60530,1,2,0:0:0:0:
196,238,60705,6,0,L|87:230,1,95,10|2,0:3|0:0,0:0:0:0:
259,201,61053,1,10,0:0:0:0:
97,186,61228,1,2,0:0:0:0:
346,163,61402,2,0,L|348:56,1,95,10|0,0:3|0:0,0:0:0:0:
182,60,61751,2,0,L|71:55,1,95,10|2,0:0|0:0,0:0:0:0:
378,39,62100,6,0,P|433:72|368:152,1,190,10|8,0:3|0:0,0:0:0:0:
206,155,62623,1,2,0:0:0:0:
452,187,62798,2,0,L|456:286,1,95,10|0,0:3|0:0,0:0:0:0:
296,208,63146,2,0,L|300:307,1,95,10|0,0:0|0:0,0:0:0:0:
41,217,63495,6,0,L|248:237,1,190,10|10,0:3|0:0,0:0:0:0:
237,150,64018,1,0,0:0:0:0:
78,155,64193,2,0,P|72:116|184:33,1,190,10|8,0:3|0:0,0:0:0:0:
22,24,64716,1,2,0:0:0:0:
294,27,64891,6,0,L|400:36,1,95,10|2,0:3|0:0,0:0:0:0:
221,72,65239,1,10,0:0:0:0:
396,100,65414,2,0,L|496:107,2,95,2|10|2,0:0|0:3|0:0,0:0:0:0:
227,137,65937,2,0,L|348:148,1,95,10|0,0:0|0:0,0:0:0:0:
86,179,66286,5,10,0:3:0:0:
238,194,66460,1,2,0:0:0:0:
85,217,66635,1,10,0:0:0:0:
323,241,66809,2,0,L|327:341,1,95,2|8,0:0|0:3,0:0:0:0:
165,258,67158,2,0,L|158:157,1,95,2|8,0:0|0:0,0:0:0:0:
331,150,67507,1,2,0:0:0:0:
70,123,67681,6,0,L|63:19,1,95,10|2,0:3|0:0,0:0:0:0:
343,33,68030,1,10,0:0:0:0:
184,29,68205,1,10,0:3:0:0:
439,104,68379,1,10,0:3:0:0:
279,105,68553,1,10,0:3:0:0:
439,104,68728,1,10,0:0:0:0:
150,226,68902,6,0,P|101:197|163:100,1,190,6|8,0:0|0:3,0:0:0:0:
311,105,69425,1,8,0:0:0:0:
51,94,69600,1,6,0:0:0:0:
209,151,69774,2,0,L|212:259,1,95,2|8,0:0|0:3,0:0:0:0:
46,194,70123,2,0,L|43:302,1,95,10|0,0:0|0:0,0:0:0:0:
320,301,70472,5,10,0:3:0:0:
160,292,70646,1,2,0:0:0:0:
326,262,70821,2,0,L|330:164,1,95,10|0,0:0|0:0,0:0:0:0:
91,145,71170,2,0,L|86:37,1,95,10|0,0:3|0:0,0:0:0:0:
254,46,71518,1,10,0:0:0:0:
92,21,71693,1,2,0:0:0:0:
357,135,71867,5,10,0:3:0:0:
194,151,72042,1,2,0:0:0:0:
357,135,72216,1,10,0:0:0:0:
194,151,72391,1,2,0:0:0:0:
448,140,72565,2,0,P|492:178|401:243,1,190,10|10,0:3|0:0,0:0:0:0:
251,255,73088,1,2,0:0:0:0:
496,32,73263,5,10,0:3:0:0:
333,35,73437,1,2,0:0:0:0:
496,32,73611,1,10,0:0:0:0:
333,35,73786,1,2,0:0:0:0:
69,42,73960,1,10,0:3:0:0:
224,54,74135,1,2,0:0:0:0:
66,87,74309,2,0,L|60:185,1,95,10|0,0:0|0:0,0:0:0:0:
338,197,74658,5,10,0:3:0:0:
192,215,74832,1,2,0:0:0:0:
346,224,75007,2,0,L|352:327,1,95,10|0,0:0|0:0,0:0:0:0:
112,315,75356,2,0,L|14:311,1,95,10|8,0:3|0:3,0:0:0:0:
177,267,75705,1,10,0:0:0:0:
20,250,75879,1,8,0:3:0:0:
291,281,76053,6,0,P|338:253|270:158,1,190,6|2,0:0|0:0,0:0:0:0:
122,137,76577,1,10,0:3:0:0:
285,104,76751,2,0,L|286:2,1,95,10|0,0:0|0:0,0:0:0:0:
116,37,77100,2,0,L|17:33,1,95,2|10,0:0|0:3,0:0:0:0:
277,41,77449,6,0,L|283:152,1,95,10|8,0:0|0:3,0:0:0:0:
132,150,77798,1,10,0:0:0:0:
284,162,77972,1,10,0:3:0:0:
46,163,78146,2,0,L|40:264,1,95,10|8,0:0|0:3,0:0:0:0:
193,268,78495,2,0,L|86:276,1,95,10|10,0:3|0:3,0:0:0:0:
348,265,78844,6,0,L|350:162,1,95,10|0,0:0|0:0,0:0:0:0:
197,161,79193,2,0,L|190:220,1,47.5,10|8,0:0|0:3,0:0:0:0:
273,209,79367,2,0,L|277:270,1,47.5,10|8,0:3|0:3,0:0:0:0:
109,71,79542,2,0,L|30:67,1,47.5,10|8,0:0|0:3,0:0:0:0:
228,70,79716,2,0,L|286:72,1,47.5,8|8,0:3|0:3,0:0:0:0:
79,167,79891,2,0,L|130:173,1,47.5,10|8,0:0|0:3,0:0:0:0:
318,196,80065,2,0,L|387:204,1,47.5,10|8,0:3|0:3,0:0:0:0:
152,314,80239,6,0,P|143:276|254:190,1,190,6|10,0:0|0:0,0:0:0:0:
292,194,80675,1,8,0:0:0:0:
467,152,80763,2,0,L|406:147,1,47.5,8|8,0:0|0:0,0:0:0:0:
207,138,80937,1,10,0:0:0:0:
487,92,81111,1,8,0:0:0:0:
342,98,81286,2,0,L|189:107,1,142.5,2|0,0:0|0:0,0:0:0:0:
387,137,81635,6,0,L|391:235,1,95,6|0,0:0|0:0,0:0:0:0:
225,231,81984,2,0,L|221:126,1,95,10|0,0:3|0:0,0:0:0:0:
469,126,82332,1,10,0:0:0:0:
318,113,82507,2,0,L|417:106,1,95,10|8,0:0|0:3,0:0:0:0:
149,102,82856,6,0,P|157:157|266:219,1,190,6|2,0:0|0:0,0:0:0:0:
437,245,83379,2,0,L|440:348,1,95,10|0,0:3|0:0,0:0:0:0:
202,342,83728,1,8,0:0:0:0:
160,326,83815,1,8,0:0:0:0:
157,281,83902,1,8,0:0:0:0:
197,261,83989,1,8,0:0:0:0:
391,249,84077,2,0,L|338:247,1,47.5,8|8,0:3|0:3,0:0:0:0:
181,208,84251,2,0,L|127:202,1,47.5,8|8,0:3|0:3,0:0:0:0:
389,181,84425,5,4,0:0:0:0:
239,160,84600,2,0,L|233:97,1,47.5,8|8,0:0|0:0,0:0:0:0:
396,112,84774,2,0,L|396:50,1,47.5,8|8,0:0|0:0,0:0:0:0:
179,64,84949,1,4,0:0:0:0:
319,48,85123,2,0,L|376:52,1,47.5,8|8,0:0|0:0,0:0:0:0:
197,30,85298,2,0,L|144:25,1,47.5,8|8,0:0|0:0,0:0:0:0:
383,192,85472,5,4,0:0:0:0:
256,203,85646,2,0,L|252:261,1,47.5,8|8,0:0|0:0,0:0:0:0:
424,271,85821,2,0,L|483:280,1,47.5,8|8,0:0|0:0,0:0:0:0:
277,305,85995,1,4,0:0:0:0:
141,295,86170,2,0,L|132:240,1,47.5,8|8,0:3|0:3,0:0:0:0:
305,223,86344,2,0,L|307:170,1,47.5,8|8,0:3|0:3,0:0:0:0:
115,153,86518,1,8,0:0:0:0:
355,149,86693,2,0,L|358:41,1,95,8|0,0:0|0:0,0:0:0:0:
86,44,87042,5,4,0:0:0:0:
256,192,87216,12,0,88611,0:0:0:0:
