osu file format v14

[General]
AudioFilename: audio.mp3
AudioLeadIn: 0
PreviewTime:58253
Countdown: 0
SampleSet: Soft
StackLeniency: 0.7
Mode: 2
LetterboxInBreaks: 0
WidescreenStoryboard: 1

[Editor]
DistanceSpacing: 1.5
BeatDivisor: 4
GridSize: 32
TimelineZoom: 2.1

[Metadata]
Title:Omoide Shiritori (TV Size)
TitleUnicode:おもいでしりとり (TV Size)
Artist:DIALOGUE+
ArtistUnicode:DIALOGUE+
Creator:Greaper
Version:Joakh's Overdose
Source:ひげを剃る。そして女子高生を拾う。
Tags:I Shaved a High School Girl Then Brought -Joakh Home Anime Japanese pop jpop j-pop opening op higehiro Hige wo Soru Soshite Joshikousei Hirou idol group 荻原 沙優 Sayu Ogiwara 田淵智也
BeatmapID:2951785
BeatmapSetID:1434346

[Difficulty]
HPDrainRate:6
CircleSize:4
OverallDifficulty:9.1
ApproachRate:9.1
SliderMultiplier:1.8
SliderTickRate:2

[Events]
//Background and Video events
0,0,"bg2.jpg",0,0
//Break Periods
//Storyboard Layer 0 (Background)
//Storyboard Layer 1 (Fail)
//Storyboard Layer 2 (Pass)
//Storyboard Layer 3 (Foreground)
//Storyboard Layer 4 (Overlay)
//Storyboard Sound Samples

[TimingPoints]
705,348.837209302326,4,2,11,60,1,0
7681,-100,4,2,11,70,0,0
13263,-100,4,2,11,40,0,0
13611,-100,4,2,11,60,0,0
13960,-100,4,2,11,20,0,0
14484,-100,4,2,11,60,0,0
20239,-100,4,2,11,70,0,0
22681,-100,4,2,11,60,0,0
25821,-100,4,2,11,50,0,0
36896,-100,4,2,11,50,0,0
36984,-100,4,2,11,60,0,0
56518,-100,4,2,11,70,0,0
57914,-100,4,2,11,80,0,0
58263,-100,4,2,11,60,0,0
59309,-90.9090909090909,4,2,11,80,0,1
70385,-90.9090909090909,4,2,11,80,0,1
70472,-90.9090909090909,4,2,11,80,0,1
75268,-90.9090909090909,4,2,11,80,0,1
75356,-100,4,2,11,75,0,0
81548,-100,4,2,11,75,0,0
81635,-100,4,2,11,60,0,0
84425,-100,4,2,11,70,0,0
86955,-100,4,2,11,70,0,0
87042,-100,4,2,11,70,0,0
87216,-100,4,2,11,60,0,0
87565,-100,4,2,11,50,0,0
87914,-100,4,2,11,35,0,0
88263,-100,4,2,11,20,0,0
88611,-100,4,2,11,5,0,0

[Colours]
Combo1 : 252,63,91
Combo2 : 252,205,171
Combo3 : 172,121,104
Combo4 : 208,193,208

[HitObjects]
157,150,705,5,2,0:0:0:0:
86,201,879,1,0,0:0:0:0:
85,288,1053,1,0,0:0:0:0:
153,342,1228,1,0,0:0:0:0:
242,336,1402,2,0,P|259:295|229:239,1,90,2|0,0:0|0:0,0:0:0:0:
136,260,1751,2,0,P|125:218|134:174,1,90
315,145,2100,6,0,L|416:143,1,90,2|2,0:0|0:0,0:0:0:0:
279,219,2449,2,0,L|387:214,1,90,2|2,0:0|0:0,0:0:0:0:
227,152,2798,2,0,P|147:182|144:267,1,180,2|2,0:0|0:0,0:0:0:0:
284,270,3321,1,0,0:0:0:0:
439,198,3495,6,0,L|344:196,1,90,2|2,0:0|0:0,0:0:0:0:
232,202,3844,2,0,P|220:158|238:111,1,90,2|2,0:0|0:0,0:0:0:0:
358,120,4193,2,0,P|278:82|189:87,1,180,2|2,0:0|0:0,0:0:0:0:
65,110,4716,1,0,0:0:0:0:
246,156,4891,6,0,P|308:203|246:250,1,180,2|0,0:0|0:0,0:0:0:0:
110,255,5414,1,0,0:0:0:0:
245,251,5588,2,0,L|444:238,1,180,2|2,0:0|0:0,0:0:0:0:
180,140,6286,6,0,L|121:140,2,45,2|8|8,0:0|0:0|0:0,0:0:0:0:
305,129,6635,2,0,L|305:226,1,90,10|0,0:3|0:0,0:0:0:0:
184,216,6984,2,0,P|164:255|196:303,1,90,8|8,0:0|0:0,0:0:0:0:
308,290,7332,1,8,0:3:0:0:
181,284,7507,1,8,0:3:0:0:
422,176,7681,6,0,P|333:164|244:169,1,180,4|2,0:0|0:0,0:0:0:0:
99,182,8205,1,2,0:0:0:0:
333,205,8379,2,0,P|341:287|262:312,1,180,4|2,0:0|0:0,0:0:0:0:
117,312,8902,1,2,0:0:0:0:
374,295,9077,6,0,P|388:253|376:211,1,90,10|8,0:0|0:3,0:0:0:0:
233,220,9425,2,0,L|134:214,1,90,2|10,0:0|0:3,0:0:0:0:
280,178,9774,2,0,P|284:134|278:90,1,90,10|8,0:0|0:3,0:0:0:0:
143,107,10123,1,8,0:3:0:0:
277,91,10298,1,8,0:3:0:0:
35,165,10472,6,0,P|25:208|33:252,1,90,4|8,0:0|0:3,0:0:0:0:
169,252,10821,1,10,0:3:0:0:
34,253,10995,1,10,0:3:0:0:
299,182,11170,2,0,L|396:177,1,90,10|8,0:3|0:3,0:0:0:0:
256,274,11518,1,10,0:3:0:0:
390,259,11693,1,2,0:0:0:0:
142,257,11867,5,10,0:0:0:0:
84,242,11955,1,8,0:0:0:0:
98,185,12042,1,8,0:0:0:0:
154,170,12129,1,8,0:0:0:0:
318,186,12216,1,8,0:0:0:0:
378,168,12303,1,8,0:3:0:0:
364,105,12391,1,8,0:3:0:0:
302,92,12478,1,8,0:3:0:0:
130,84,12565,1,10,0:0:0:0:
362,65,12739,5,10,0:0:0:0:
256,192,13263,12,0,14135,0:0:0:0:
360,238,14484,6,0,L|315:235,1,45,8|8,0:0|0:0,0:0:0:0:
157,230,14658,2,0,P|97:179|162:136,1,180,10|10,0:3|0:3,0:0:0:0:
417,132,15356,1,10,0:0:0:0:
155,178,15530,2,0,P|144:134|154:84,1,90,10|8,0:0|0:3,0:0:0:0:
395,208,15879,6,0,P|452:260|388:304,1,180,6|2,0:0|0:0,0:0:0:0:
241,313,16402,2,0,P|227:270|239:228,1,90,10|2,0:3|0:0,0:0:0:0:
374,222,16751,2,0,P|379:178|374:133,1,90,8|8,0:3|0:3,0:0:0:0:
239,148,17100,1,8,0:3:0:0:
297,144,17187,1,8,0:3:0:0:
355,140,17274,1,8,0:3:0:0:
116,158,17449,6,0,P|55:207|122:245,1,180,6|10,0:0|0:3,0:0:0:0:
368,241,18146,1,10,0:0:0:0:
124,238,18321,2,0,P|115:281|127:324,1,90,10|8,0:0|0:3,0:0:0:0:
361,328,18670,2,0,P|272:322|182:324,1,180,10|2,0:0|0:0,0:0:0:0:
309,287,19193,2,0,P|328:248|309:209,1,90,10|2,0:3|0:0,0:0:0:0:
174,212,19542,2,0,L|65:213,1,90,8|8,0:0|0:0,0:0:0:0:
146,213,19803,1,8,0:0:0:0:
300,206,19891,1,8,0:3:0:0:
360,189,19978,1,8,0:3:0:0:
355,127,20065,1,8,0:3:0:0:
292,116,20152,1,8,0:3:0:0:
133,123,20239,6,0,L|35:123,1,90,4|8,0:0|0:0,0:0:0:0:
102,121,20501,1,8,0:0:0:0:
255,103,20588,2,0,L|299:101,1,45,8|8,0:0|0:0,0:0:0:0:
153,170,20763,2,0,L|54:172,1,90,4|8,0:0|0:0,0:0:0:0:
69,281,21024,1,8,0:0:0:0:
107,318,21111,1,8,0:0:0:0:
160,320,21199,1,8,0:0:0:0:
329,286,21286,6,0,P|337:243|300:204,1,90,4|8,0:0|0:0,0:0:0:0:
252,204,21547,1,8,0:0:0:0:
201,232,21634,1,8,0:0:0:0:
189,289,21722,1,8,0:0:0:0:
335,315,21809,6,0,L|434:313,1,90,4|8,0:0|0:3,0:0:0:0:
419,204,22070,1,8,0:3:0:0:
381,167,22157,1,8,0:3:0:0:
328,165,22245,1,8,0:3:0:0:
119,175,22332,2,0,L|29:176,1,90,10|10,0:0|0:0,0:0:0:0:
443,107,22856,6,0,P|482:179|409:213,1,180,4|8,0:0|0:3,0:0:0:0:
274,212,23379,2,0,P|263:256|273:301,1,90,8|0,0:0|0:0,0:0:0:0:
407,312,23728,2,0,P|410:268|402:224,1,90,8|0,0:3|0:0,0:0:0:0:
267,235,24077,1,8,0:0:0:0:
401,226,24251,1,0,0:0:0:0:
152,174,24425,6,0,P|76:260|184:299,1,270,6|2,0:0|0:0,0:0:0:0:
251,287,25036,1,2,0:0:0:0:
186,288,25123,2,0,P|103:272|107:190,1,180,2|2,0:0|0:0,0:0:0:0:
337,156,25821,6,0,P|400:203|341:254,1,180,4|2,0:0|0:0,0:0:0:0:
212,255,26344,1,2,0:0:0:0:
165,186,26518,1,2,0:0:0:0:
213,116,26692,1,0,0:0:0:0:
295,137,26867,1,0,0:0:0:0:
168,136,27042,1,10,0:3:0:0:
402,258,27216,6,0,L|312:257,1,90,10|2,0:3|0:0,0:0:0:0:
176,257,27565,2,0,P|168:302|176:346,1,90,2|0,0:0|0:0,0:0:0:0:
311,350,27914,1,2,0:0:0:0:
393,296,28088,1,0,0:0:0:0:
338,213,28262,1,0,0:0:0:0:
202,211,28437,1,2,0:0:0:0:
435,159,28611,6,0,P|444:115|427:74,1,90,10|0,0:3|0:0,0:0:0:0:
291,80,28960,2,0,L|191:78,1,90,2|0,0:0|0:0,0:0:0:0:
343,178,29309,2,0,P|352:221|341:264,1,90,2|0,0:0|0:0,0:0:0:0:
207,271,29658,2,0,L|296:267,1,90,2|8,0:0|0:3,0:0:0:0:
62,169,30007,6,0,P|55:213|61:257,1,90,10|0,0:3|0:0,0:0:0:0:
205,108,30356,2,0,L|86:90,1,90,2|0,0:0|0:0,0:0:0:0:
286,96,30705,1,2,0:0:0:0:
278,179,30879,1,0,0:0:0:0:
196,198,31053,1,0,0:0:0:0:
61,201,31228,1,2,0:0:0:0:
295,298,31402,5,2,0:0:0:0:
375,268,31576,1,0,0:0:0:0:
391,183,31750,1,2,0:0:0:0:
265,176,31925,1,2,0:0:0:0:
397,147,32100,1,2,0:0:0:0:
473,179,32274,1,0,0:0:0:0:
456,260,32448,1,0,0:0:0:0:
321,276,32623,1,2,0:0:0:0:
82,284,32798,5,2,0:0:0:0:
74,198,32972,1,0,0:0:0:0:
137,138,33146,1,2,0:0:0:0:
272,145,33321,1,2,0:0:0:0:
133,177,33495,2,0,P|116:218|129:262,1,90,2|0,0:0|0:0,0:0:0:0:
263,261,33844,1,0,0:0:0:0:
128,255,34018,1,2,0:0:0:0:
363,150,34193,5,10,0:3:0:0:
447,167,34367,1,0,0:0:0:0:
483,246,34541,1,2,0:0:0:0:
440,321,34716,1,0,0:0:0:0:
295,336,34891,2,0,L|199:332,1,90,2|0,0:0|0:0,0:0:0:0:
328,255,35239,2,0,L|238:249,1,90,2|0,0:0|0:0,0:0:0:0:
395,116,35588,6,0,P|484:188|385:246,1,270,2|0,0:0|0:0,0:0:0:0:
212,253,36286,2,0,L|122:245,1,90,10|8,0:3|0:0,0:0:0:0:
180,252,36548,1,8,0:0:0:0:
375,227,36635,2,0,P|417:182|373:140,1,135,8|0,0:0|0:0,0:0:0:0:
143,174,36984,6,0,P|79:219|141:267,1,180,6|8,0:0|0:0,0:0:0:0:
283,265,37507,1,2,0:0:0:0:
139,276,37681,2,0,L|49:277,2,90,10|8|2,0:3|0:3|0:0,0:0:0:0:
284,273,38205,1,2,0:0:0:0:
50,201,38379,6,0,P|34:159|45:116,1,90,2|8,0:0|0:3,0:0:0:0:
192,99,38728,2,0,L|295:100,1,90,10|0,0:0|0:0,0:0:0:0:
137,184,39077,2,0,P|128:227|138:271,1,90,10|8,0:3|0:3,0:0:0:0:
290,272,39425,1,8,0:0:0:0:
136,260,39600,1,2,0:0:0:0:
389,165,39774,6,0,P|396:209|388:254,1,90,2|0,0:0|0:0,0:0:0:0:
244,267,40123,2,0,P|237:312|247:355,1,90,10|0,0:0|0:0,0:0:0:0:
103,365,40472,2,0,L|192:364,1,90,10|2,0:3|0:0,0:0:0:0:
436,289,40821,2,0,L|346:287,1,90,10|0,0:0|0:0,0:0:0:0:
193,286,41170,6,0,L|89:280,1,90,10|8,0:3|0:3,0:0:0:0:
337,249,41518,2,0,P|398:197|338:144,1,180,10|10,0:0|0:3,0:0:0:0:
184,153,42042,1,8,0:3:0:0:
428,76,42216,2,0,L|337:76,1,90,10|10,0:0|0:3,0:0:0:0:
103,100,42565,6,0,P|92:143|100:187,1,90,10|8,0:3|0:3,0:0:0:0:
281,189,42914,2,0,P|347:237|304:306,1,180,4|10,0:0|0:3,0:0:0:0:
150,319,43437,1,10,0:3:0:0:
332,295,43611,2,0,P|339:251|323:210,1,90,10|0,0:0|0:0,0:0:0:0:
86,175,43960,6,0,P|74:217|84:261,1,90,10|8,0:3|0:3,0:0:0:0:
264,252,44309,2,0,P|252:168|169:154,1,180,4|10,0:0|0:3,0:0:0:0:
321,133,44832,1,10,0:3:0:0:
141,154,45007,2,0,P|128:196|146:236,1,90,10|0,0:0|0:0,0:0:0:0:
381,229,45356,6,0,L|480:238,1,90,6|0,0:0|0:0,0:0:0:0:
318,336,45705,2,0,L|229:342,1,90,10|0,0:0|0:0,0:0:0:0:
372,111,46053,2,0,L|273:105,1,90,10|8,0:3|0:3,0:0:0:0:
136,301,46402,2,0,L|241:280,1,90,10|8,0:0|0:3,0:0:0:0:
463,200,46751,6,0,P|453:283|371:301,1,180,6|2,0:0|0:0,0:0:0:0:
226,298,47274,1,2,0:0:0:0:
370,291,47449,1,10,0:0:0:0:
130,206,47623,2,0,P|73:261|136:308,1,180,8|10,0:0|0:3,0:0:0:0:
376,309,48146,5,10,0:0:0:0:
445,258,48320,1,2,0:0:0:0:
423,176,48494,1,2,0:0:0:0:
339,167,48669,1,8,0:3:0:0:
159,181,48844,2,0,P|148:225|156:269,1,90,10|0,0:0|0:0,0:0:0:0:
300,273,49193,2,0,L|407:274,1,90,2|0,0:0|0:0,0:0:0:0:
153,115,49542,6,0,L|41:112,1,90,10|8,0:3|0:0,0:0:0:0:
202,173,49891,2,0,P|214:215|205:258,1,90,2|8,0:0|0:3,0:0:0:0:
61,267,50239,2,0,L|159:262,1,90,10|0,0:0|0:0,0:0:0:0:
304,255,50588,1,2,0:0:0:0:
150,262,50763,1,10,0:3:0:0:
385,145,50937,6,0,P|447:194|387:246,1,180,4|2,0:0|0:0,0:0:0:0:
243,259,51460,1,8,0:3:0:0:
387,252,51635,2,0,P|402:293|388:335,1,90,10|0,0:0|0:0,0:0:0:0:
244,348,51984,1,10,0:3:0:0:
378,344,52158,1,8,0:3:0:0:
138,278,52332,6,0,P|130:233|135:189,1,90,10|8,0:3|0:0,0:0:0:0:
279,188,52681,2,0,P|284:144|280:99,1,90,2|8,0:0|0:3,0:0:0:0:
136,109,53030,2,0,P|49:154|79:242,1,180,10|10,0:0|0:3,0:0:0:0:
217,236,53553,1,10,0:3:0:0:
463,230,53728,5,6,0:0:0:0:
207,175,55821,2,0,L|204:269,1,90,8|10,0:0|0:3,0:0:0:0:
349,263,56170,2,0,L|445:260,1,90,10|8,0:3|0:3,0:0:0:0:
200,271,56518,5,14,0:0:0:0:
65,275,56693,1,8,0:3:0:0:
209,190,56867,1,8,0:3:0:0:
73,188,57042,1,8,0:0:0:0:
307,108,57216,1,8,0:3:0:0:
162,111,57391,1,8,0:3:0:0:
308,62,57565,2,0,L|352:58,1,45,8|8,0:0|0:0,0:0:0:0:
128,160,57739,2,0,L|84:159,1,45,8|8,0:0|0:0,0:0:0:0:
257,240,57914,1,12,0:0:0:0:
488,238,58088,1,8,0:0:0:0:
352,239,58263,6,0,L|229:224,1,90,2|0,0:0|0:0,0:0:0:0:
404,175,58611,2,0,P|423:135|406:95,1,90,6|8,0:0|0:0,0:0:0:0:
338,95,58873,1,8,0:0:0:0:
157,97,58960,2,0,L|112:94,1,45,10|8,0:0|0:0,0:0:0:0:
310,199,59135,2,0,L|355:199,1,45,8|8,0:0|0:0,0:0:0:0:
143,211,59309,6,0,P|129:257|144:304,1,99.0000030212403,6|2,0:0|0:0,0:0:0:0:
293,309,59658,2,0,L|391:306,1,99.0000030212403,10|2,0:0|0:0,0:0:0:0:
139,137,60007,2,0,P|53:171|63:263,1,198.000006042481,10|10,0:3|0:0,0:0:0:0:
222,271,60530,1,2,0:0:0:0:
476,196,60705,6,0,L|366:191,1,99.0000030212403,10|2,0:3|0:0,0:0:0:0:
228,191,61053,1,10,0:0:0:0:
376,194,61228,1,2,0:0:0:0:
126,211,61402,2,0,P|58:266|125:322,1,198.000006042481,10|10,0:3|0:0,0:0:0:0:
275,313,61925,1,2,0:0:0:0:
27,171,62100,6,0,P|126:158|224:160,1,198.000006042481,10|8,0:3|0:0,0:0:0:0:
372,169,62623,1,2,0:0:0:0:
222,177,62798,2,0,P|208:223|220:271,1,99.0000030212403,10|0,0:3|0:0,0:0:0:0:
368,272,63146,2,0,P|374:320|363:369,1,99.0000030212403,10|0,0:0|0:0,0:0:0:0:
113,279,63495,6,0,L|225:269,1,99.0000030212403,10|0,0:3|0:0,0:0:0:0:
360,266,63844,2,0,P|377:220|359:176,1,99.0000030212403,10|0,0:0|0:0,0:0:0:0:
209,162,64193,2,0,P|199:115|214:68,1,99.0000030212403,10|0,0:3|0:0,0:0:0:0:
363,70,64542,2,0,L|490:69,1,99.0000030212403,8|2,0:0|0:0,0:0:0:0:
190,212,64891,6,0,L|70:227,2,99.0000030212403,10|2|10,0:3|0:0|0:0,0:0:0:0:
348,204,65414,1,2,0:0:0:0:
100,166,65588,2,0,P|89:117|98:69,1,99.0000030212403,10|2,0:3|0:0,0:0:0:0:
257,70,65937,1,10,0:0:0:0:
99,77,66111,1,0,0:0:0:0:
361,179,66286,6,0,L|261:178,1,99.0000030212403,10|2,0:3|0:0,0:0:0:0:
409,229,66635,2,0,P|422:275|409:322,1,99.0000030212403,10|2,0:0|0:0,0:0:0:0:
162,335,66984,2,0,L|53:331,1,99.0000030212403,8|2,0:3|0:0,0:0:0:0:
220,262,67332,1,8,0:0:0:0:
61,248,67507,1,2,0:0:0:0:
318,166,67681,5,10,0:3:0:0:
169,162,67856,1,2,0:0:0:0:
406,233,68030,2,0,P|416:280|403:328,1,99.0000030212403,10|10,0:0|0:3,0:0:0:0:
153,351,68379,1,10,0:3:0:0:
291,344,68553,1,10,0:3:0:0:
429,335,68728,1,10,0:0:0:0:
185,257,68902,6,0,P|185:165|275:144,1,198.000006042481,6|8,0:0|0:3,0:0:0:0:
424,143,69425,1,8,0:0:0:0:
177,134,69600,2,0,P|273:112|371:119,1,198.000006042481,6|8,0:0|0:3,0:0:0:0:
198,192,70123,2,0,P|135:224|144:293,1,148.50000453186,10|0,0:0|0:0,0:0:0:0:
311,304,70472,5,10,0:3:0:0:
459,306,70646,1,2,0:0:0:0:
302,280,70821,1,10,0:0:0:0:
450,282,70995,1,0,0:0:0:0:
207,209,71170,2,0,P|300:177|398:184,1,198.000006042481,10|10,0:3|0:0,0:0:0:0:
400,45,71693,1,2,0:0:0:0:
152,53,71867,6,0,P|146:101|159:149,1,99.0000030212403,10|2,0:3|0:0,0:0:0:0:
318,151,72216,1,10,0:0:0:0:
159,161,72391,1,2,0:0:0:0:
400,335,72565,2,0,P|304:311|205:318,1,198.000006042481,10|10,0:3|0:0,0:0:0:0:
57,335,73088,1,2,0:0:0:0:
304,260,73263,6,0,P|318:214|304:167,1,99.0000030212403,10|2,0:3|0:0,0:0:0:0:
146,179,73611,1,10,0:0:0:0:
304,167,73786,1,2,0:0:0:0:
66,91,73960,2,0,L|170:87,1,99.0000030212403,10|2,0:3|0:0,0:0:0:0:
323,78,74309,1,10,0:0:0:0:
164,91,74484,1,0,0:0:0:0:
406,168,74658,2,0,P|423:213|404:264,1,99.0000030212403,10|2,0:3|0:0,0:0:0:0:
228,275,75007,2,0,P|163:252|165:182,1,148.50000453186,10|0,0:0|0:0,0:0:0:0:
349,172,75356,6,0,L|470:167,1,90,10|8,0:3|0:3,0:0:0:0:
294,118,75705,1,10,0:0:0:0:
437,107,75879,1,8,0:3:0:0:
199,325,76053,2,0,P|130:279|164:203,1,180,6|2,0:0|0:0,0:0:0:0:
318,203,76577,1,10,0:3:0:0:
80,136,76751,2,0,P|166:114|278:122,1,180,10|2,0:0|0:0,0:0:0:0:
410,118,77274,1,10,0:3:0:0:
162,178,77449,6,0,P|154:221|163:265,1,90,10|8,0:0|0:3,0:0:0:0:
316,276,77798,1,10,0:0:0:0:
163,288,77972,1,10,0:3:0:0:
397,154,78146,2,0,L|296:142,1,90,10|8,0:0|0:3,0:0:0:0:
163,135,78495,1,10,0:3:0:0:
307,132,78670,1,10,0:3:0:0:
73,184,78844,6,0,P|60:227|75:268,1,90,10|0,0:0|0:0,0:0:0:0:
230,262,79193,2,0,L|233:206,1,45,10|8,0:0|0:3,0:0:0:0:
156,217,79367,2,0,L|156:154,1,45,10|8,0:3|0:3,0:0:0:0:
342,281,79542,1,10,0:0:0:0:
399,265,79629,1,8,0:3:0:0:
385,208,79716,1,8,0:3:0:0:
329,192,79803,1,8,0:3:0:0:
156,153,79891,2,0,L|112:155,1,45,10|8,0:0|0:3,0:0:0:0:
337,56,80065,2,0,L|382:57,1,45,10|8,0:3|0:3,0:0:0:0:
184,149,80239,6,0,P|103:170|104:263,1,180,6|10,0:0|0:0,0:0:0:0:
161,258,80675,1,8,0:0:0:0:
378,257,80763,2,0,L|423:257,1,45,8|8,0:0|0:0,0:0:0:0:
266,336,80937,1,10,0:0:0:0:
27,336,81111,1,8,0:0:0:0:
186,328,81286,2,0,L|320:320,1,135,2|0,0:0|0:0,0:0:0:0:
100,211,81635,6,0,P|88:167|101:121,1,90,6|0,0:0|0:0,0:0:0:0:
243,124,81984,2,0,L|139:120,1,90,10|0,0:3|0:0,0:0:0:0:
389,259,82332,2,0,L|496:268,2,90,10|10|8,0:0|0:0|0:3,0:0:0:0:
150,240,82856,6,0,P|232:205|320:214,1,180,6|2,0:0|0:0,0:0:0:0:
173,179,83379,2,0,P|155:138|173:95,1,90,10|0,0:3|0:0,0:0:0:0:
324,101,83728,2,0,L|428:100,1,90,8|8,0:0|0:0,0:0:0:0:
355,99,83989,1,8,0:0:0:0:
193,96,84077,1,8,0:3:0:0:
150,106,84164,1,8,0:3:0:0:
130,145,84251,1,8,0:3:0:0:
145,186,84338,1,8,0:3:0:0:
331,205,84425,6,0,L|449:207,1,90,4|8,0:0|0:0,0:0:0:0:
366,205,84687,1,8,0:0:0:0:
210,210,84774,2,0,L|160:210,1,45,8|8,0:0|0:0,0:0:0:0:
340,341,84949,2,0,P|357:297|337:255,1,90,4|8,0:0|0:0,0:0:0:0:
278,263,85210,1,8,0:0:0:0:
111,263,85298,2,0,L|44:264,1,45,8|8,0:0|0:0,0:0:0:0:
284,181,85472,6,0,L|389:180,1,90,4|8,0:0|0:0,0:0:0:0:
319,182,85734,1,8,0:0:0:0:
168,185,85821,2,0,L|167:116,1,45,8|8,0:0|0:0,0:0:0:0:
333,107,85995,2,0,L|436:107,1,90,4|8,0:0|0:3,0:0:0:0:
368,104,86257,1,8,0:3:0:0:
159,87,86344,2,0,L|210:88,1,45,8|8,0:3|0:3,0:0:0:0:
379,86,86518,5,8,0:0:0:0:
145,94,86693,2,0,P|100:141|118:203,1,135,8|0,0:0|0:0,0:0:0:0:
363,216,87042,5,4,0:0:0:0:
256,192,87216,12,0,88611,0:0:0:0:
