osu file format v14

[General]
AudioFilename: audio.mp3
AudioLeadIn: 0
PreviewTime:58253
Countdown: 0
SampleSet: Soft
StackLeniency: 0.7
Mode: 2
LetterboxInBreaks: 0
WidescreenStoryboard: 1

[Editor]
DistanceSpacing: 1.1
BeatDivisor: 2
GridSize: 16
TimelineZoom: 0.6999999

[Metadata]
Title:Omoide Shiritori (TV Size)
TitleUnicode:おもいでしりとり (TV Size)
Artist:DIALOGUE+
ArtistUnicode:DIALOGUE+
Creator:Greaper
Version:Cup
Source:ひげを剃る。そして女子高生を拾う。
Tags:I Shaved a High School Girl Then Brought -Joakh Home Anime Japanese pop jpop j-pop opening op higehiro Hige wo Soru Soshite Joshikousei Hirou idol group 荻原 沙優 Sayu Ogiwara 田淵智也
BeatmapID:2951784
BeatmapSetID:1434346

[Difficulty]
HPDrainRate:2
CircleSize:2.5
OverallDifficulty:6
ApproachRate:6
SliderMultiplier:1.2
SliderTickRate:1

[Events]
//Background and Video events
0,0,"bg.jpg",0,0
//Break Periods
//Storyboard Layer 0 (Background)
//Storyboard Layer 1 (Fail)
//Storyboard Layer 2 (Pass)
//Storyboard Layer 3 (Foreground)
//Storyboard Layer 4 (Overlay)
//Storyboard Sound Samples

[TimingPoints]
705,348.837209302326,4,2,11,60,1,0
7681,-100,4,2,11,70,0,0
13263,-100,4,2,11,40,0,0
13611,-100,4,2,11,60,0,0
13960,-100,4,2,11,20,0,0
14484,-100,4,2,11,60,0,0
20239,-100,4,2,11,70,0,0
22681,-100,4,2,11,60,0,0
25821,-100,4,2,11,50,0,0
36984,-100,4,2,11,60,0,0
56518,-100,4,2,11,70,0,0
57914,-100,4,2,11,80,0,0
58263,-100,4,2,11,60,0,0
59309,-100,4,2,11,80,0,1
75356,-100,4,2,11,75,0,0
81635,-100,4,2,11,60,0,0
84425,-100,4,2,11,70,0,0
87216,-100,4,2,11,60,0,0
87565,-100,4,2,11,50,0,0
87914,-100,4,2,11,35,0,0
88263,-100,4,2,11,20,0,0
88611,-100,4,2,11,5,0,0

[Colours]
Combo1 : 159,211,107
Combo2 : 243,209,75
Combo3 : 73,125,245
Combo4 : 227,91,91

[HitObjects]
187,298,705,6,0,L|185:142,1,120,2|0,0:0|0:0,0:0:0:0:
307,197,1402,2,0,L|312:59,1,120,2|0,0:0|0:0,0:0:0:0:
180,80,2100,6,0,L|48:72,1,120,2|2,0:0|0:0,0:0:0:0:
176,118,2798,2,0,P|189:162|161:231,1,120,2|2,0:0|0:0,0:0:0:0:
105,236,3321,1,0,0:0:0:0:
178,248,3495,6,0,L|298:262,1,120,2|2,0:0|0:0,0:0:0:0:
303,190,4018,1,2,0:0:0:0:
239,172,4193,2,0,L|237:51,1,120,2|2,0:0|0:0,0:0:0:0:
358,327,4891,6,0,P|414:271|344:217,1,180,2|0,0:0|0:0,0:0:0:0:
295,212,5588,1,2,0:0:0:0:
175,205,5937,1,2,0:0:0:0:
334,160,6286,6,0,L|500:147,2,120,2|10|8,0:0|0:3|0:0,0:0:0:0:
213,151,7332,2,0,L|210:70,1,60,8|8,0:3|0:3,0:0:0:0:
298,61,7681,6,0,L|426:56,1,120,4|2,0:0|0:0,0:0:0:0:
293,324,8379,2,0,L|289:191,1,120,4|2,0:0|0:0,0:0:0:0:
351,199,8902,1,2,0:0:0:0:
276,108,9077,6,0,L|152:101,1,120,10|2,0:0|0:0,0:0:0:0:
42,103,9774,2,0,P|14:156|61:217,1,120,10|8,0:0|0:3,0:0:0:0:
97,214,10298,1,8,0:3:0:0:
179,316,10472,6,0,L|187:166,1,120,4|10,0:0|0:3,0:0:0:0:
124,183,10995,1,10,0:3:0:0:
62,167,11170,1,10,0:3:0:0:
184,151,11518,2,0,L|188:72,1,60,10|2,0:3|0:0,0:0:0:0:
114,59,11867,6,0,L|262:48,1,120,10|8,0:0|0:0,0:0:0:0:
357,104,12565,6,0,L|356:192,1,60,10|10,0:0|0:0,0:0:0:0:
256,192,13263,12,0,14135,0:0:0:0:
156,322,14658,6,0,L|152:182,1,120,10|10,0:3|0:3,0:0:0:0:
270,205,15356,2,0,L|274:123,1,60,10|10,0:0|0:0,0:0:0:0:
137,96,15879,6,0,L|15:87,1,120,6|2,0:0|0:0,0:0:0:0:
137,126,16577,2,0,L|139:316,1,180,2|8,0:0|0:3,0:0:0:0:
283,262,17449,6,0,L|412:281,1,120,6|10,0:0|0:3,0:0:0:0:
272,132,18146,2,0,L|269:237,1,60,10|10,0:0|0:0,0:0:0:0:
421,98,18670,6,0,L|280:88,1,120,10|2,0:0|0:0,0:0:0:0:
295,160,19193,1,10,0:3:0:0:
355,171,19367,1,2,0:0:0:0:
424,171,19542,2,0,L|424:21,1,120,8|8,0:0|0:3,0:0:0:0:
269,288,20239,6,0,P|210:225|281:139,1,180,4|4,0:0|0:0,0:0:0:0:
420,153,21286,2,0,L|226:148,1,180,4|4,0:0|0:0,0:0:0:0:
429,222,22332,2,0,L|432:304,1,60,10|10,0:0|0:0,0:0:0:0:
271,310,22856,6,0,L|73:286,1,180,4|8,0:0|0:0,0:0:0:0:
214,131,23728,2,0,L|221:274,1,120,8|8,0:3|0:0,0:0:0:0:
94,213,24425,6,0,P|48:120|113:90,1,180,6|2,0:0|0:0,0:0:0:0:
154,203,25123,2,0,L|157:77,1,120,2|2,0:0|0:0,0:0:0:0:
294,85,25821,6,0,L|414:100,1,120,4|2,0:0|0:0,0:0:0:0:
415,163,26344,1,2,0:0:0:0:
353,169,26518,2,0,P|321:229|362:263,1,120,2|0,0:0|0:0,0:0:0:0:
412,294,27042,1,10,0:3:0:0:
346,331,27216,6,0,L|195:316,1,120,10|2,0:3|0:0,0:0:0:0:
346,261,27914,2,0,P|399:223|331:146,1,180,2|2,0:0|0:0,0:0:0:0:
269,174,28611,6,0,L|261:23,1,120,10|2,0:3|0:0,0:0:0:0:
386,317,29309,2,0,L|390:152,1,120,2|2,0:0|0:0,0:0:0:0:
231,236,30007,6,0,L|86:229,2,120,10|2|2,0:3|0:0|0:0,0:0:0:0:
346,250,31053,1,0,0:0:0:0:
191,156,31402,6,0,L|187:3,1,120,2|2,0:0|0:0,0:0:0:0:
252,33,31925,1,2,0:0:0:0:
313,24,32100,1,2,0:0:0:0:
437,39,32449,2,0,L|441:111,1,60,0|2,0:0|0:0,0:0:0:0:
363,123,32798,6,0,L|207:138,1,120,2|2,0:0|0:0,0:0:0:0:
246,206,33321,1,2,0:0:0:0:
307,230,33495,1,2,0:0:0:0:
118,213,34018,1,2,0:0:0:0:
41,254,34193,6,0,L|35:125,1,120,10|2,0:3|0:0,0:0:0:0:
152,104,34891,2,0,L|11:100,1,120,2|2,0:0|0:0,0:0:0:0:
30,35,35414,1,0,0:0:0:0:
108,32,35588,5,2,0:0:0:0:
286,46,36111,1,0,0:0:0:0:
346,49,36286,2,0,L|345:182,1,120,10|8,0:3|0:0,0:0:0:0:
201,258,36984,6,0,L|54:254,1,120,6|8,0:0|0:0,0:0:0:0:
76,178,37507,1,2,0:0:0:0:
77,98,37681,1,10,0:3:0:0:
278,99,38205,6,0,L|285:200,1,60,2|2,0:0|0:0,0:0:0:0:
158,173,38728,1,10,0:0:0:0:
285,196,39077,2,0,L|412:202,1,120,10|8,0:3|0:0,0:0:0:0:
263,347,39774,6,0,P|235:279|264:251,1,120,2|10,0:0|0:0,0:0:0:0:
380,238,40472,2,0,L|380:102,1,120,10|10,0:3|0:0,0:0:0:0:
232,86,41170,6,0,L|383:72,1,120,10|10,0:3|0:0,0:0:0:0:
470,80,41867,2,0,P|494:132|451:180,1,120,10|10,0:3|0:0,0:0:0:0:
397,192,42391,1,10,0:3:0:0:
321,200,42565,5,10,0:3:0:0:
447,347,42914,2,0,L|451:226,1,120,4|10,0:0|0:3,0:0:0:0:
390,324,43437,1,10,0:3:0:0:
329,316,43611,1,10,0:0:0:0:
188,303,43960,5,10,0:3:0:0:
309,250,44309,2,0,L|306:118,1,120,4|10,0:0|0:3,0:0:0:0:
245,123,44832,1,10,0:3:0:0:
184,123,45007,1,10,0:0:0:0:
32,127,45356,6,0,L|26:249,1,120,6|10,0:0|0:0,0:0:0:0:
152,281,46053,2,0,L|153:130,1,120,10|10,0:3|0:0,0:0:0:0:
92,157,46577,1,8,0:3:0:0:
177,116,46751,6,0,L|352:102,1,120,6|2,0:0|0:0,0:0:0:0:
420,110,47449,2,0,L|423:183,1,60,10|8,0:0|0:0,0:0:0:0:
214,273,48146,6,0,L|209:173,1,60,10|2,0:0|0:0,0:0:0:0:
282,192,48495,1,2,0:0:0:0:
161,176,48844,2,0,L|156:43,1,120,10|2,0:0|0:0,0:0:0:0:
280,57,49542,6,0,P|308:106|255:157,1,120,10|2,0:3|0:0,0:0:0:0:
155,234,50239,2,0,L|273:256,1,120,10|2,0:0|0:0,0:0:0:0:
331,265,50763,1,10,0:3:0:0:
248,315,50937,6,0,L|120:320,1,120,4|2,0:0|0:0,0:0:0:0:
249,237,51635,2,0,L|258:101,1,120,10|10,0:0|0:3,0:0:0:0:
103,211,52332,6,0,L|94:92,1,120,10|2,0:3|0:0,0:0:0:0:
217,64,53030,2,0,L|344:59,1,120,10|10,0:0|0:3,0:0:0:0:
340,136,53553,1,10,0:3:0:0:
249,170,53728,5,6,0:0:0:0:
468,276,55821,2,0,L|469:130,1,120,8|10,0:0|0:3,0:0:0:0:
310,102,56518,6,0,P|175:145|338:313,1,480,14|12,0:0|0:0,0:0:0:0:
395,285,58088,5,8,0:0:0:0:
206,243,58611,2,0,L|200:107,1,120,6|10,0:0|0:0,0:0:0:0:
367,96,59309,6,0,L|501:92,2,120,6|10|10,0:0|0:0|0:3,0:0:0:0:
239,99,60356,1,10,0:0:0:0:
392,336,60705,6,0,L|399:197,1,120,10|10,0:3|0:0,0:0:0:0:
339,207,61228,1,2,0:0:0:0:
278,192,61402,1,10,0:3:0:0:
154,276,61751,2,0,L|156:187,1,60,10|2,0:0|0:0,0:0:0:0:
239,99,62100,6,0,L|365:107,1,120,10|8,0:3|0:0,0:0:0:0:
361,184,62623,1,2,0:0:0:0:
299,186,62798,2,0,L|295:311,1,120,10|10,0:3|0:0,0:0:0:0:
440,304,63495,6,0,L|444:148,1,120,10|10,0:3|0:0,0:0:0:0:
319,155,64193,2,0,L|190:137,1,120,10|8,0:3|0:0,0:0:0:0:
197,74,64716,1,2,0:0:0:0:
277,208,64891,6,0,L|284:356,1,120,10|10,0:3|0:0,0:0:0:0:
222,337,65414,1,2,0:0:0:0:
160,341,65588,2,0,L|27:344,1,120,10|10,0:3|0:0,0:0:0:0:
187,249,66286,6,0,L|191:169,1,60,10|2,0:3|0:0,0:0:0:0:
128,161,66635,1,10,0:0:0:0:
66,143,66809,2,0,L|58:296,1,120,2|2,0:0|0:0,0:0:0:0:
182,270,67507,1,2,0:0:0:0:
266,265,67681,6,0,L|273:131,1,120,10|10,0:3|0:0,0:0:0:0:
212,137,68205,1,10,0:3:0:0:
152,131,68379,1,10,0:3:0:0:
273,84,68728,1,10,0:0:0:0:
361,79,68902,6,0,L|376:219,1,120,6|8,0:0|0:3,0:0:0:0:
254,206,69600,2,0,L|251:275,1,60,6|2,0:0|0:0,0:0:0:0:
380,278,70123,1,10,0:0:0:0:
232,298,70472,6,0,L|98:288,1,120,10|10,0:3|0:0,0:0:0:0:
239,106,71170,2,0,L|249:251,1,120,10|10,0:3|0:0,0:0:0:0:
185,240,71693,1,2,0:0:0:0:
105,241,71867,6,0,L|246:241,1,120,10|10,0:3|0:0,0:0:0:0:
346,223,72565,2,0,L|347:74,1,120,10|10,0:3|0:0,0:0:0:0:
285,99,73088,1,2,0:0:0:0:
370,59,73263,6,0,L|495:55,1,120,10|10,0:3|0:0,0:0:0:0:
430,110,73786,1,2,0:0:0:0:
368,125,73960,2,0,L|361:265,1,120,10|10,0:3|0:0,0:0:0:0:
496,272,74658,6,0,L|362:279,1,120,10|10,0:3|0:0,0:0:0:0:
254,272,75356,2,0,L|248:119,1,120,10|10,0:3|0:0,0:0:0:0:
310,136,75879,1,8,0:3:0:0:
225,105,76053,6,0,L|96:99,1,120,6|2,0:0|0:0,0:0:0:0:
99,168,76577,1,10,0:3:0:0:
157,195,76751,1,10,0:0:0:0:
285,224,77100,2,0,L|288:296,1,60,2|10,0:0|0:3,0:0:0:0:
204,308,77449,6,0,L|202:180,1,120,10|10,0:0|0:0,0:0:0:0:
205,125,77972,1,10,0:3:0:0:
267,105,78146,1,10,0:0:0:0:
396,163,78495,2,0,L|402:241,1,60,10|10,0:3|0:3,0:0:0:0:
319,254,78844,6,0,L|457:257,1,120,10|10,0:0|0:0,0:0:0:0:
443,330,79367,1,10,0:3:0:0:
382,368,79542,1,10,0:0:0:0:
259,319,79891,2,0,L|258:241,1,60,10|10,0:0|0:3,0:0:0:0:
337,217,80239,6,0,L|343:76,1,120,6|10,0:0|0:0,0:0:0:0:
222,90,80937,2,0,L|218:170,1,60,10|8,0:0|0:0,0:0:0:0:
289,172,81286,1,2,0:0:0:0:
137,182,81635,6,0,L|-12:190,1,120,6|10,0:0|0:3,0:0:0:0:
141,273,82332,2,0,L|207:275,1,60,10|10,0:0|0:0,0:0:0:0:
42,146,82856,6,0,P|42:88|156:24,1,180,6|10,0:0|0:3,0:0:0:0:
253,90,83728,2,0,L|258:216,1,120,8|8,0:0|0:3,0:0:0:0:
115,208,84425,6,0,L|308:221,1,180,4|4,0:0|0:0,0:0:0:0:
113,159,85472,2,0,P|65:95|119:22,1,180,4|4,0:0|0:0,0:0:0:0:
297,28,86518,2,0,L|301:105,1,60,8|8,0:0|0:0,0:0:0:0:
140,181,87042,5,4,0:0:0:0:
256,192,87391,12,0,88611,0:0:0:0:
