osu file format v14

[General]
AudioFilename: audio.mp3
AudioLeadIn: 0
PreviewTime: 58176
Countdown: 0
SampleSet: Soft
StackLeniency: 0.7
Mode: 0
LetterboxInBreaks: 0
WidescreenStoryboard: 1

[Editor]
Bookmarks: 78408
DistanceSpacing: 1.3
BeatDivisor: 4
GridSize: 32
TimelineZoom: 2.1

[Metadata]
Title:Omoide Shiritori (TV Size)
TitleUnicode:おもいでしりとり (TV Size)
Artist:DIALOGUE+
ArtistUnicode:DIALOGUE+
Creator:Dored
Version:kotachi's Extra.
Source:ひげを剃る。そして女子高生を拾う。
Tags:Hige wo Soru Soshite Joshikousei wo Hirou I Shaved Then I Brought a High School Girl Home Higehiro Project No 9 Japanese Anime Jpop J-pop Pop Opening OP Irohas MugiwaraSekai Garden Rage Quit Misure Iceluin joker- Eir _kotachi_ -Brethia StrengeMistake
BeatmapID:3104675
BeatmapSetID:1515089

[Difficulty]
HPDrainRate:5.8
CircleSize:3.8
OverallDifficulty:8.8
ApproachRate:9.3
SliderMultiplier:1.76
SliderTickRate:1

[Events]
//Background and Video events
0,0,"BG.png",0,0
Video,0,"video.mp4"
//Break Periods
//Storyboard Layer 0 (Background)
//Storyboard Layer 1 (Fail)
//Storyboard Layer 2 (Pass)
//Storyboard Layer 3 (Foreground)
//Storyboard Layer 4 (Overlay)
//Storyboard Sound Samples

[TimingPoints]
-690,348.837209302326,4,2,1,40,1,0
2100,-200,4,2,1,40,0,0
6286,-133.333333333333,4,2,1,40,0,0
6461,-133.333333333333,4,2,1,55,0,0
7682,-111.111111111111,4,2,1,65,0,0
9077,-111.111111111111,4,2,1,75,0,0
10472,-100,4,2,1,75,0,0
14135,-333.333333333333,4,2,1,40,0,0
14397,-333.333333333333,4,2,1,5,0,0
14484,-333.333333333333,4,2,1,75,0,0
14658,-100,4,2,1,75,0,0
24426,-100,4,2,1,65,0,0
24949,-100,4,2,1,30,0,0
25123,-200,4,2,1,30,0,0
25821,-133.333333333333,4,2,2,45,0,0
36286,-111.111111111111,4,2,1,55,0,0
36984,-100,4,2,1,60,0,0
37594,-100,4,2,1,5,0,0
37682,-100,4,2,1,60,0,0
45705,-100,4,2,1,75,0,0
46751,-133.333333333333,4,2,1,75,0,0
47623,-100,4,2,1,75,0,0
47972,-100,4,2,1,55,0,0
48147,-111.111111111111,4,2,1,55,0,0
53728,-111.111111111111,4,2,1,40,0,0
54077,-200,4,2,1,40,0,0
55821,-200,4,2,1,55,0,0
56519,-200,4,2,1,70,0,0
57565,-100,4,2,1,70,0,0
59310,-90.9090909090909,4,2,1,80,0,0
68903,-83.3333333333333,4,2,1,80,0,0
70472,-90.9090909090909,4,2,1,80,0,0
76054,-111.111111111111,4,2,1,80,0,0
80240,-90.9090909090909,4,2,1,80,0,0
81112,-333.333333333333,4,2,1,80,0,0
81635,-100,4,2,1,75,0,0
87129,-100,4,2,1,60,0,0
88612,-100,4,2,1,20,0,0

[Colours]
Combo1 : 252,249,114
Combo2 : 241,184,141
Combo3 : 208,180,235
Combo4 : 155,189,240

[HitObjects]
256,303,530,6,0,L|291:296,3,29.3333333333333,0|0|0|2,0:0|0:0|0:0|0:0,0:0:0:0:
173,274,879,1,0,0:0:0:0:
140,192,1054,1,2,0:0:0:0:
173,110,1228,1,0,0:0:0:0:
256,79,1403,5,2,0:0:0:0:
260,100,1577,1,0,0:0:0:0:
260,122,1751,1,2,0:0:0:0:
254,143,1926,1,0,0:0:0:0:
86,116,2100,6,0,P|87:94|93:67,1,44,2|2,0:0|0:0,0:0:0:0:
185,29,2449,2,0,P|184:51|178:78,1,44,2|2,0:0|0:0,0:0:0:0:
103,211,2798,2,0,P|141:191|184:193,1,88,2|2,0:0|0:0,0:0:0:0:
239,331,3321,5,2,0:0:0:0:
239,331,3496,2,0,P|213:329|185:323,1,44,2|2,0:0|0:0,0:0:0:0:
337,310,3844,1,2,0:0:0:0:
337,310,4019,1,2,0:0:0:0:
288,156,4193,2,0,P|273:199|280:248,1,88,2|2,0:0|0:0,0:0:0:0:
416,192,4716,5,2,0:0:0:0:
379,92,4891,1,2,0:0:0:0:
385,105,5240,1,0,0:0:0:0:
288,156,5414,1,2,0:0:0:0:
220,69,5589,2,0,L|160:76,1,44,2|0,0:0|0:0,0:0:0:0:
385,105,5937,2,0,L|445:98,1,44,2|0,0:0|0:0,0:0:0:0:
274,272,6286,6,0,P|275:258|276:239,2,33.0000012588501,2|0|8,0:0|0:0|0:0,0:0:0:0:
203,155,6635,1,4,0:3:0:0:
360,216,6810,1,0,0:0:0:0:
178,277,6984,6,0,L|152:284,1,16.5000006294251,10|0,0:0|0:0,0:0:0:0:
288,156,7158,1,8,0:0:0:0:
249,360,7333,1,8,0:3:0:0:
93,226,7507,1,4,0:3:0:0:
401,142,7682,6,0,P|388:220|380:299,1,158.399995166016,6|2,3:2|0:0,0:0:0:0:
380,299,8205,1,2,0:0:0:0:
212,181,8379,2,0,P|249:168|287:155,1,79.1999975830079,6|0,3:2|0:0,0:0:0:0:
178,277,8728,1,2,0:0:0:0:
136,120,8903,1,2,0:0:0:0:
300,283,9077,5,10,0:0:0:0:
89,207,9251,1,0,3:0:0:0:
328,82,9426,1,10,0:0:0:0:
103,219,9600,1,2,3:2:0:0:
225,33,9775,5,10,0:0:0:0:
352,212,9949,1,4,0:3:0:0:
400,0,10123,1,2,3:2:0:0:
246,152,10298,1,2,3:2:0:0:
446,110,10472,6,0,P|402:102|359:91,1,88,6|0,3:2|0:0,0:0:0:0:
225,33,10821,1,2,0:0:0:0:
352,212,10996,1,2,0:0:0:0:
360,91,11170,5,2,3:2:0:0:
246,280,11344,1,0,3:0:0:0:
446,110,11519,5,4,0:3:0:0:
472,330,11693,1,2,0:0:0:0:
246,152,11868,6,0,L|252:196,1,44,6|0,3:2|0:0,0:0:0:0:
361,346,12042,2,0,L|367:302,1,44,8|8,0:0|0:0,0:0:0:0:
497,174,12216,1,10,0:0:0:0:
458,154,12303,1,8,0:0:0:0:
414,154,12390,1,0,3:0:0:0:
376,175,12477,1,0,3:0:0:0:
352,212,12564,5,10,0:0:0:0:
503,40,12740,1,8,0:0:0:0:
128,96,14135,6,0,L|123:54,1,39.5999987915039,2|0,0:0|0:0,0:0:0:0:
177,175,14484,5,10,0:0:0:0:
175,189,14571,1,8,0:0:0:0:
174,202,14658,2,0,P|131:193|87:186,1,88,6|0,3:2|0:0,0:0:0:0:
232,322,15007,2,0,P|188:328|145:337,1,88,2|0,3:2|0:0,0:0:0:0:
329,187,15356,1,10,0:0:0:0:
309,368,15530,1,10,0:0:0:0:
334,174,15705,1,0,3:0:0:0:
458,308,15879,6,0,P|415:297|371:291,1,88,10|0,0:0|3:0,0:0:0:0:
232,322,16228,1,2,0:0:0:0:
410,212,16403,1,2,3:2:0:0:
238,95,16577,1,2,0:0:0:0:
371,291,16751,5,8,0:0:0:0:
371,291,16839,1,0,0:0:0:0:
371,291,16926,2,0,L|362:353,1,44,8|8,0:0|0:0,0:0:0:0:
237,232,17100,1,0,3:0:0:0:
237,232,17188,1,0,3:0:0:0:
237,232,17275,2,0,L|246:170,1,44,0|0,3:0|3:0,0:0:0:0:
337,52,17449,6,0,P|344:98|354:151,1,88,6|0,3:2|0:0,0:0:0:0:
251,318,17798,2,0,P|244:273|236:230,1,88,2|0,3:2|0:0,0:0:0:0:
137,135,18147,1,10,0:0:0:0:
319,214,18321,1,8,0:0:0:0:
129,130,18496,1,0,3:0:0:0:
337,51,18670,6,0,P|380:55|416:79,1,88,10|0,0:0|3:0,0:0:0:0:
403,271,19019,1,2,0:0:0:0:
268,137,19193,1,2,3:2:0:0:
460,169,19368,1,2,0:0:0:0:
334,342,19542,6,0,L|326:298,1,44,8|0,0:0|0:0,0:0:0:0:
351,137,19716,2,0,L|358:180,1,44,8|8,0:0|0:0,0:0:0:0:
246,280,19891,1,0,3:0:0:0:
246,280,19978,1,0,3:0:0:0:
246,280,20065,2,0,P|225:279|203:275,1,44,0|0,3:0|3:0,0:0:0:0:
115,219,20240,5,6,3:2:0:0:
264,136,20414,1,8,0:0:0:0:
264,136,20501,1,8,0:0:0:0:
264,136,20589,2,0,L|254:86,1,44,0|0,3:0|3:0,0:0:0:0:
143,62,20763,6,0,P|142:83|148:104,1,44,6|0,3:2|0:0,0:0:0:0:
336,47,20937,1,8,0:0:0:0:
336,47,21024,1,8,0:0:0:0:
336,47,21111,2,0,L|379:38,1,44,0|0,3:0|3:0,0:0:0:0:
259,199,21286,6,0,L|264:150,1,44,6|0,3:2|0:0,0:0:0:0:
394,263,21461,1,8,0:0:0:0:
394,263,21548,1,8,0:0:0:0:
394,263,21636,2,0,P|369:266|344:280,1,44,0|0,3:0|3:0,0:0:0:0:
259,368,21810,6,0,L|251:316,1,44,6|0,3:2|0:0,0:0:0:0:
143,283,21984,1,8,0:0:0:0:
143,283,22071,1,8,0:0:0:0:
143,283,22158,2,0,P|123:291|95:293,1,44,0|0,3:0|3:0,0:0:0:0:
260,122,22333,5,10,0:0:0:0:
174,367,22507,1,10,0:0:0:0:
171,376,22856,6,0,P|161:280|149:191,1,176,6|0,3:2|3:0,0:0:0:0:
104,72,23379,1,8,0:0:0:0:
263,155,23554,5,0,3:0:0:0:
263,155,23641,1,0,3:0:0:0:
263,155,23728,1,0,3:0:0:0:
61,221,23903,1,0,0:0:0:0:
193,30,24077,2,0,P|189:74|185:127,1,88,8|0,0:0|0:0,0:0:0:0:
251,323,24426,5,6,3:2:0:0:
267,346,24949,5,2,0:0:0:0:
267,346,25036,1,2,0:0:0:0:
267,346,25123,2,0,L|172:335,1,88,2|2,0:0|0:0,0:0:0:0:
155,324,25821,6,0,B|237:309|211:344|291:328,1,132.000005035401,6|10,3:2|0:0,0:0:0:0:
371,276,26344,1,2,0:0:0:0:
277,178,26519,2,0,P|286:216|294:257,1,66.0000025177003,10|0,0:0|0:0,0:0:0:0:
291,242,26868,1,8,0:0:0:0:
334,95,27042,5,2,3:2:0:0:
334,95,27216,2,0,P|295:89|262:84,1,66.0000025177003,2|2,3:2|0:0,0:0:0:0:
131,128,27565,2,0,P|170:134|203:139,1,66.0000025177003,10|0,0:0|0:0,0:0:0:0:
101,29,27914,2,0,P|40:46|31:107,1,132.000005035401,10|8,0:0|0:0,0:0:0:0:
201,203,28437,5,2,3:2:0:0:
201,203,28612,2,0,P|199:168|195:135,1,66.0000025177003,2|0,3:2|0:0,0:0:0:0:
119,254,28961,2,0,P|121:289|125:322,1,66.0000025177003,10|0,0:0|0:0,0:0:0:0:
266,212,29310,2,0,P|232:206|198:202,1,66.0000025177003,10|0,0:0|0:0,0:0:0:0:
276,303,29658,1,10,0:0:0:0:
350,190,29833,5,0,3:0:0:0:
350,190,30008,2,0,P|346:157|343:124,1,66.0000025177003,2|0,3:2|0:0,0:0:0:0:
453,73,30356,2,0,P|449:105|446:138,1,66.0000025177003,10|0,0:0|0:0,0:0:0:0:
262,88,30705,2,0,P|304:40|369:38,1,132.000005035401,10|8,0:0|0:0,0:0:0:0:
343,124,31228,1,2,0:0:0:0:
178,94,31403,6,0,P|144:88|110:84,1,66.0000025177003,2|0,3:2|0:0,0:0:0:0:
228,169,31751,1,10,0:0:0:0:
262,88,31926,1,2,0:0:0:0:
223,185,32100,2,0,P|229:250|236:316,1,132.000005035401,10|8,0:0|0:0,0:0:0:0:
385,224,32623,5,2,3:2:0:0:
385,224,32798,2,0,P|349:222|315:217,1,66.0000025177003,2|0,3:2|0:0,0:0:0:0:
236,316,33147,2,0,P|268:311|301:309,1,66.0000025177003,10|2,0:0|0:0,0:0:0:0:
151,228,33496,2,0,P|112:278|145:348,1,132.000005035401,10|8,0:0|0:0,0:0:0:0:
223,185,34019,5,10,0:0:0:0:
223,185,34193,2,0,P|156:179|91:170,2,132.000005035401,2|10|10,3:2|0:0|0:0,0:0:0:0:
362,118,35065,1,0,0:0:0:0:
271,68,35240,2,0,P|277:105|283:135,1,66.0000025177003,10|0,0:0|0:0,0:0:0:0:
311,311,35589,5,2,0:0:0:0:
311,311,36286,2,0,P|348:296|401:296,1,79.1999975830079,2|0,3:2|3:0,0:0:0:0:
394,294,36548,1,0,3:0:0:0:
401,295,36635,2,0,L|404:246,1,39.5999987915039,8|0,3:0|0:0,0:0:0:0:
322,150,36810,2,0,L|325:190,1,39.5999987915039,4|0,3:0|0:0,0:0:0:0:
429,45,36984,5,6,3:2:0:0:
429,45,37333,2,0,B|350:30|376:73|300:59,1,132,8|0,0:0|0:0,0:0:0:0:
293,58,37682,1,2,3:2:0:0:
415,171,37856,2,0,P|461:157|501:147,1,88,0|0,3:0|0:0,0:0:0:0:
311,311,38205,5,10,0:0:0:0:
322,150,38379,2,0,P|333:196|344:236,1,88,2|2,0:0|3:2,0:0:0:0:
244,375,38728,2,0,P|233:329|222:289,1,88,10|0,0:0|0:0,0:0:0:0:
139,177,39077,1,2,3:2:0:0:
261,215,39251,1,0,3:0:0:0:
101,259,39426,2,0,P|79:303|86:348,1,88,8|2,0:0|0:0,0:0:0:0:
219,127,39775,6,0,P|134:141|45:150,2,176,2|10|2,3:2|0:0|3:2,0:0:0:0:
365,70,40647,1,0,3:0:0:0:
343,235,40821,2,0,P|345:191|349:147,1,88,10|0,0:0|0:0,0:0:0:0:
419,278,41170,5,2,3:2:0:0:
419,278,41344,1,0,3:0:0:0:
261,215,41519,2,0,P|258:258|253:302,1,88,10|0,0:0|0:0,0:0:0:0:
175,115,41868,2,0,P|217:124|261:131,1,88,2|0,3:2|3:0,0:0:0:0:
115,179,42216,1,10,0:0:0:0:
244,42,42391,1,2,0:0:0:0:
244,42,42478,1,2,0:0:0:0:
244,42,42565,5,2,3:2:0:0:
121,3,42740,1,0,3:0:0:0:
261,131,42914,2,0,P|306:121|361:113,1,88,12|2,0:0|0:0,0:0:0:0:
115,179,43263,5,2,3:2:0:0:
244,42,43437,1,2,3:2:0:0:
268,229,43612,2,0,P|275:287|280:322,1,88,14|0,0:0|0:0,0:0:0:0:
379,199,43961,5,2,3:2:0:0:
379,199,44135,1,0,3:0:0:0:
185,292,44310,2,0,P|139:285|83:280,1,88,12|2,0:0|0:0,0:0:0:0:
261,131,44658,5,2,3:2:0:0:
279,316,44833,1,2,3:2:0:0:
261,131,45007,2,0,P|306:121|361:113,1,88,14|0,0:0|0:0,0:0:0:0:
145,29,45356,6,0,P|156:116|166:203,2,176,6|10|2,3:2|0:0|3:2,0:0:0:0:
236,50,46228,1,0,3:0:0:0:
51,1,46403,2,0,P|43:43|60:83,1,88,10|0,0:0|3:0,0:0:0:0:
166,203,46751,6,0,B|97:189|113:233|38:223,1,132.000005035401,6|2,3:2|0:0,0:0:0:0:
178,118,47275,1,2,0:0:0:0:
253,310,47449,5,10,0:0:0:0:
253,310,47623,2,0,P|256:258|266:125,1,176,0|2,3:0|3:2,0:0:0:0:
348,50,48147,5,6,3:2:0:0:
348,50,48321,1,2,0:0:0:0:
178,118,48496,2,0,P|139:111|99:106,1,79.1999975830079,2|0,0:0|3:0,0:0:0:0:
259,224,48844,2,0,P|297:230|337:235,1,79.1999975830079,10|0,0:0|0:0,0:0:0:0:
150,311,49193,2,0,L|155:232,1,79.1999975830079,2|2,0:0|0:0,0:0:0:0:
155,232,49455,1,2,0:0:0:0:
155,232,49542,5,2,3:2:0:0:
178,118,49716,1,8,0:0:0:0:
66,224,49891,2,0,P|28:216|0:189,1,79.1999975830079,2|0,0:0|3:0,0:0:0:0:
89,27,50240,2,0,P|96:80|100:114,1,79.1999975830079,10|0,0:0|0:0,0:0:0:0:
261,191,50589,1,2,0:0:0:0:
279,87,50763,1,2,3:2:0:0:
178,118,50937,5,6,3:2:0:0:
372,166,51112,1,2,0:0:0:0:
372,166,51286,2,0,P|419:175|451:182,1,79.1999975830079,2|2,0:0|3:2,0:0:0:0:
449,181,51548,1,2,0:0:0:0:
449,181,51635,2,0,P|453:141|459:102,1,79.1999975830079,10|0,0:0|0:0,0:0:0:0:
325,262,51984,2,0,P|330:301|334:340,1,79.1999975830079,2|0,0:0|3:0,0:0:0:0:
183,160,52333,6,0,P|187:120|192:81,1,79.1999975830079,2|8,3:2|0:0,0:0:0:0:
180,277,52682,2,0,P|141:271|94:265,1,79.1999975830079,2|0,0:0|3:0,0:0:0:0:
284,136,53030,2,0,P|323:130|370:124,1,79.1999975830079,10|0,0:0|0:0,0:0:0:0:
346,257,53379,5,2,3:2:0:0:
183,160,53554,1,2,3:2:0:0:
372,37,53728,5,6,0:0:0:0:
372,37,54077,2,0,P|365:87|362:134,2,88,2|2|2,0:0|0:0|0:0,0:0:0:0:
473,249,55123,6,0,B|404:226|415:275|342:256,1,132,2|2,0:0|0:0,0:0:0:0:
227,167,55821,5,10,0:0:0:0:
258,309,55996,1,8,0:3:0:0:
358,160,56170,5,2,3:2:0:0:
345,256,56345,1,4,0:3:0:0:
252,62,56519,5,6,3:2:0:0:
434,219,56693,1,2,3:2:0:0:
376,6,56868,1,2,3:2:0:0:
227,167,57042,1,2,3:2:0:0:
130,30,57216,5,8,3:0:0:0:
358,160,57391,1,2,3:2:0:0:
130,302,57565,1,2,3:2:0:0:
130,302,57653,1,0,3:0:0:0:
130,302,57740,2,0,P|133:279|136:255,1,44,2|0,3:2|3:0,0:0:0:0:
252,62,57914,5,10,0:0:0:0:
7,142,58089,1,10,0:0:0:0:
7,142,58612,6,0,P|9:163|12:185,1,44,10|0,0:0|0:0,0:0:0:0:
135,258,58786,1,8,0:0:0:0:
176,271,58873,1,8,0:0:0:0:
218,262,58960,1,2,3:2:0:0:
250,232,59047,1,0,3:0:0:0:
263,191,59135,2,0,P|259:171|257:147,1,44,0|0,3:0|3:0,0:0:0:0:
252,62,59310,5,6,3:2:0:0:
384,234,59484,1,2,0:0:0:0:
180,120,59658,1,10,0:0:0:0:
391,17,59833,1,2,0:0:0:0:
250,232,60007,2,0,P|155:217|59:206,1,193.600005908203,2|10,3:2|0:0,0:0:0:0:
362,116,60530,5,2,0:0:0:0:
338,309,60705,2,0,P|342:261|350:209,1,96.8000029541017,2|2,3:2|0:0,0:0:0:0:
252,62,61054,1,10,0:0:0:0:
446,148,61228,1,2,0:0:0:0:
250,232,61403,2,0,P|204:248|158:264,1,96.8000029541017,2|0,3:2|0:0,0:0:0:0:
362,116,61751,1,10,0:0:0:0:
159,44,61926,5,2,0:0:0:0:
250,232,62100,2,0,P|256:135|265:39,1,193.600005908203,2|8,3:2|0:0,0:0:0:0:
82,184,62623,1,2,0:0:0:0:
82,184,62798,2,0,P|127:168|175:160,1,96.8000029541017,2|0,3:2|0:0,0:0:0:0:
343,208,63147,2,0,P|297:223|249:231,1,96.8000029541017,10|0,0:0|0:0,0:0:0:0:
394,20,63496,6,0,P|385:67|379:115,1,96.8000029541017,2|0,3:2|0:0,0:0:0:0:
482,286,63844,2,0,P|487:238|469:193,1,96.8000029541017,10|0,0:0|0:0,0:0:0:0:
249,231,64193,2,0,P|276:316|368:295,1,193.600005908203,2|8,3:2|0:0,0:0:0:0:
378,115,64716,5,2,0:0:0:0:
249,231,64891,1,6,3:2:0:0:
219,50,65065,1,2,0:0:0:0:
343,208,65240,1,10,0:0:0:0:
131,322,65414,5,2,0:0:0:0:
156,161,65589,1,2,3:2:0:0:
249,231,65763,1,2,0:0:0:0:
190,41,65937,1,10,0:0:0:0:
57,194,66112,1,2,0:0:0:0:
279,135,66286,1,2,3:2:0:0:
108,9,66461,1,2,0:0:0:0:
249,231,66635,1,10,0:0:0:0:
389,64,66810,6,0,P|342:60|287:49,1,96.8000029541017,2|0,0:0|3:0,0:0:0:0:
166,208,67158,1,2,0:0:0:0:
357,153,67333,1,8,0:0:0:0:
216,56,67507,1,2,0:0:0:0:
376,251,67682,1,6,3:2:0:0:
376,251,67856,1,2,3:2:0:0:
467,21,68030,5,10,0:0:0:0:
272,239,68205,1,2,3:2:0:0:
508,96,68379,5,10,0:0:0:0:
205,154,68554,1,2,3:2:0:0:
508,184,68728,5,10,0:0:0:0:
180,36,68903,2,0,P|92:84|85:193,1,211.199993554688,6|0,3:2|3:0,0:0:0:0:
389,64,69426,1,8,0:0:0:0:
259,355,69600,6,0,P|250:258|237:142,1,211.199993554688,6|0,3:2|3:0,0:0:0:0:
376,251,70123,1,8,0:0:0:0:
376,251,70298,1,0,3:0:0:0:
145,338,70472,5,6,3:2:0:0:
237,144,70647,1,2,0:0:0:0:
259,355,70821,1,10,0:0:0:0:
87,236,70996,1,0,0:0:0:0:
294,238,71170,2,0,P|248:253|203:273,1,96.8000029541017,2|0,3:2|0:0,0:0:0:0:
43,367,71519,1,10,0:0:0:0:
10,186,71693,5,2,0:0:0:0:
10,186,71868,1,2,3:2:0:0:
203,272,72042,1,2,0:0:0:0:
208,67,72216,1,10,0:0:0:0:
87,236,72391,1,2,0:0:0:0:
293,102,72565,2,0,P|297:54|280:9,1,96.8000029541017,2|2,3:2|0:0,0:0:0:0:
275,4,72827,1,2,0:0:0:0:
269,0,72914,1,10,0:0:0:0:
215,160,73089,5,2,0:0:0:0:
423,89,73263,1,2,3:2:0:0:
266,302,73437,1,2,0:0:0:0:
181,51,73612,1,10,0:0:0:0:
364,197,73786,5,2,0:0:0:0:
168,256,73961,1,2,3:2:0:0:
423,89,74135,1,2,0:0:0:0:
321,373,74310,1,10,0:0:0:0:
295,54,74484,5,2,0:0:0:0:
437,251,74658,1,2,3:2:0:0:
475,8,74833,1,2,0:0:0:0:
364,197,75007,2,0,P|349:242|356:290,1,96.8000029541017,10|0,0:0|0:0,0:0:0:0:
447,346,75356,5,2,3:2:0:0:
473,154,75530,1,0,0:0:0:0:
306,352,75705,5,10,0:0:0:0:
271,212,75879,1,0,3:0:0:0:
88,287,76054,6,0,B|179:258|156:321|242:295,1,158.399995166016,6|2,3:2|0:0,0:0:0:0:
150,192,76577,1,2,3:2:0:0:
99,365,76751,6,0,P|93:325|87:286,1,79.1999975830079,10|0,0:0|0:0,0:0:0:0:
138,113,77100,2,0,P|143:152|149:191,1,79.1999975830079,2|2,0:0|3:2,0:0:0:0:
50,68,77449,5,10,0:0:0:0:
271,212,77623,1,0,3:0:0:0:
342,24,77798,5,10,0:0:0:0:
149,191,77972,1,0,3:0:0:0:
368,277,78147,5,10,0:0:0:0:
227,40,78321,1,4,0:3:0:0:
186,309,78496,1,2,3:2:0:0:
368,136,78670,1,2,3:2:0:0:
289,373,78844,6,0,P|283:333|277:294,1,79.1999975830079,6|0,3:2|0:0,0:0:0:0:
142,231,79193,2,0,P|148:191|155:153,1,79.1999975830079,2|2,3:2|0:0,0:0:0:0:
390,46,79542,5,2,3:2:0:0:
351,52,79629,1,8,0:3:0:0:
312,59,79716,1,4,0:3:0:0:
273,66,79803,1,8,0:3:0:0:
234,73,79891,2,0,L|241:122,1,39.5999987915039,10|8,0:2|0:0,0:0:0:0:
351,259,80065,2,0,L|357:220,1,39.5999987915039,10|8,0:0|0:0,0:0:0:0:
497,115,80240,6,0,P|454:123|395:132,1,96.8000029541017,6|0,3:2|0:0,0:0:0:0:
173,227,80589,1,10,0:0:0:0:
217,236,80676,1,8,0:0:0:0:
262,244,80763,1,8,0:3:0:0:
306,252,80850,1,8,0:3:0:0:
351,259,80937,1,8,0:0:0:0:
191,340,81112,6,0,L|131:358,1,52.7999983886719,8|2,0:0|0:0,0:0:0:0:
70,295,81548,5,2,0:0:0:0:
70,295,81635,2,0,P|76:251|81:207,1,88,6|0,3:2|0:0,0:0:0:0:
234,73,81984,2,0,P|239:116|245:160,1,88,2|0,3:2|0:0,0:0:0:0:
136,31,82333,1,10,0:0:0:0:
339,72,82507,1,10,0:0:0:0:
123,22,82682,1,0,3:0:0:0:
232,247,82856,6,0,P|237:205|245:160,1,88,10|0,0:0|3:0,0:0:0:0:
339,72,83205,1,2,0:0:0:0:
145,131,83379,2,0,P|103:141|57:152,1,88,2|2,3:2|0:0,0:0:0:0:
16,343,83728,5,8,0:0:0:0:
43,307,83815,1,8,0:0:0:0:
82,288,83902,1,8,0:0:0:0:
126,291,83989,1,8,0:0:0:0:
164,311,84076,1,0,3:0:0:0:
201,331,84164,1,0,3:0:0:0:
245,334,84251,1,0,3:0:0:0:
284,315,84338,1,0,3:0:0:0:
310,280,84426,6,0,P|305:258|303:236,1,44,6|0,3:2|0:0,0:0:0:0:
373,119,84600,1,8,0:0:0:0:
365,122,84687,1,8,0:0:0:0:
357,126,84775,2,0,P|337:135|316:143,1,44,0|0,3:0|3:0,0:0:0:0:
141,205,84949,6,0,P|161:212|181:221,1,44,6|0,3:2|0:0,0:0:0:0:
209,94,85123,1,8,0:0:0:0:
206,86,85210,1,8,0:0:0:0:
203,78,85298,2,0,P|197:56|192:34,1,44,0|0,3:0|3:0,0:0:0:0:
334,23,85472,6,0,P|316:37|300:52,1,44,6|0,3:2|0:0,0:0:0:0:
121,114,85647,1,8,0:0:0:0:
113,111,85734,1,8,0:0:0:0:
105,110,85822,2,0,P|83:105|61:99,1,44,0|0,3:0|3:0,0:0:0:0:
176,265,85996,6,0,P|178:243|181:221,1,44,6|0,3:2|0:0,0:0:0:0:
316,142,86170,2,0,P|319:163|321:185,1,44,8|8,0:0|0:0,0:0:0:0:
164,273,86344,2,0,P|166:251|169:229,1,44,0|0,3:0|3:0,0:0:0:0:
203,78,86519,5,10,0:0:0:0:
270,347,86693,1,10,0:0:0:0:
269,359,87042,5,6,3:2:0:0:
256,192,87129,12,0,88612,0:0:0:0:
