osu file format v14

[General]
AudioFilename: audio.mp3
AudioLeadIn: 0
PreviewTime: 58176
Countdown: 0
SampleSet: Soft
StackLeniency: 0.7
Mode: 0
LetterboxInBreaks: 0
WidescreenStoryboard: 1

[Editor]
Bookmarks: 29310
DistanceSpacing: 1
BeatDivisor: 2
GridSize: 32
TimelineZoom: 1.4

[Metadata]
Title:Omoide Shiritori (TV Size)
TitleUnicode:おもいでしりとり (TV Size)
Artist:DIALOGUE+
ArtistUnicode:DIALOGUE+
Creator:Dored
Version:Strenge's Easy.
Source:ひげを剃る。そして女子高生を拾う。
Tags:Hige wo Soru Soshite Joshikousei wo Hirou I Shaved Then I Brought a High School Girl Home Higehiro Project No 9 Japanese Anime Jpop J-pop Pop Opening OP Irohas MugiwaraSekai Garden Rage Quit Misure Iceluin joker- Eir _kotachi_ -Brethia StrengeMistake
BeatmapID:3105943
BeatmapSetID:1515089

[Difficulty]
HPDrainRate:2
CircleSize:2.5
OverallDifficulty:3
ApproachRate:3.5
SliderMultiplier:0.899999999999999
SliderTickRate:1

[Events]
//Background and Video events
0,0,"BG.png",0,0
Video,0,"video.mp4"
//Break Periods
2,53928,55139
//Storyboard Layer 0 (Background)
//Storyboard Layer 1 (Fail)
//Storyboard Layer 2 (Pass)
//Storyboard Layer 3 (Foreground)
//Storyboard Layer 4 (Overlay)
//Storyboard Sound Samples

[TimingPoints]
-690,348.837209302326,4,2,1,40,1,0
6461,-100,4,2,1,55,0,0
7682,-100,4,2,1,65,0,0
9077,-100,4,2,1,75,0,0
24426,-100,4,2,1,65,0,0
25821,-100,4,2,2,45,0,0
36984,-100,4,2,1,60,0,0
47972,-100,4,2,1,55,0,0
53728,-100,4,2,1,40,0,0
56519,-100,4,2,1,70,0,0
59310,-100,4,2,1,80,0,0
81635,-100,4,2,1,75,0,0
87042,-100,4,2,1,60,0,0
88612,-100,4,2,1,20,0,0

[Colours]
Combo1 : 252,249,114
Combo2 : 241,184,141
Combo3 : 208,180,235
Combo4 : 155,189,240

[HitObjects]
193,103,2100,6,0,P|111:68|26:89,1,180,2|2,0:0|0:0,0:0:0:0:
5,268,3496,2,0,P|86:302|171:281,1,180,2|2,0:0|0:0,0:0:0:0:
326,372,4891,1,2,0:0:0:0:
495,310,5589,1,2,0:0:0:0:
505,130,6286,2,0,L|512:29,2,89.9999999999999,2|4|10,0:0|0:3|0:0,0:0:0:0:
343,49,7682,5,6,3:2:0:0:
202,161,8379,1,6,3:2:0:0:
35,91,9077,2,0,L|42:-10,2,89.9999999999999,10|10|10,0:0|0:0|0:0,0:0:0:0:
5,268,10472,6,0,L|109:253,1,89.9999999999999,6|2,3:2|0:0,0:0:0:0:
170,303,11170,2,0,L|259:315,1,89.9999999999999,2|4,3:2|0:3,0:0:0:0:
256,192,11868,12,2,13263,0:0:0:0:
28,277,14658,6,0,P|66:254|111:250,1,89.9999999999999,6|2,3:2|3:2,0:0:0:0:
197,276,15356,2,0,L|193:327,1,45,10|10,0:0|0:0,0:0:0:0:
274,359,15879,2,0,P|340:359|400:330,1,135,10|2,0:0|3:2,0:0:0:0:
471,273,16751,1,8,0:0:0:0:
476,183,17100,1,0,3:0:0:0:
409,122,17449,6,0,B|384:107|384:107|299:117,1,89.9999999999999,6|2,3:2|3:2,0:0:0:0:
235,135,18147,2,0,L|168:129,1,45,10|8,0:0|0:0,0:0:0:0:
107,94,18670,2,0,P|77:132|68:238,1,135,10|2,0:0|3:2,0:0:0:0:
140,260,19542,1,8,0:0:0:0:
225,232,19891,1,0,3:0:0:0:
309,261,20240,6,0,P|370:286|435:272,1,135,6|6,3:2|3:2,0:0:0:0:
454,139,21286,2,0,P|392:113|327:127,1,135,6|6,3:2|3:2,0:0:0:0:
309,261,22333,2,0,L|302:319,1,45,10|10,0:0|0:0,0:0:0:0:
223,347,22856,6,0,L|89:324,1,135,6|8,3:2|0:0,0:0:0:0:
37,249,23728,1,0,3:0:0:0:
53,159,24077,1,8,0:0:0:0:
128,107,24426,1,6,3:2:0:0:
471,215,25821,6,0,B|378:252|388:162|294:199,1,180,6|10,3:2|0:0,0:0:0:0:
222,241,26868,1,8,0:0:0:0:
145,193,27216,2,0,L|44:205,2,89.9999999999999,2|10|10,3:2|0:0|0:0,0:0:0:0:
223,147,28263,1,8,0:0:0:0:
299,98,28612,6,0,P|286:55|291:10,1,89.9999999999999,2|10,3:2|0:0,0:0:0:0:
382,6,29310,2,0,P|394:48|389:93,1,89.9999999999999,10|10,0:0|0:0,0:0:0:0:
420,177,30007,2,0,L|509:189,2,89.9999999999999,2|10|10,3:2|0:0|0:0,0:0:0:0:
314,323,31403,6,0,L|124:344,1,180,2|10,3:2|0:0,0:0:0:0:
65,286,32449,1,8,0:0:0:0:
120,214,32798,2,0,L|298:194,1,180,2|10,3:2|0:0,0:0:0:0:
353,122,33844,1,8,0:0:0:0:
298,50,34193,6,0,P|259:27|215:28,1,89.9999999999999,2|10,3:2|0:0,0:0:0:0:
132,63,34891,2,0,P|109:101|110:145,1,89.9999999999999,10|10,0:0|0:0,0:0:0:0:
177,205,35589,1,2,0:0:0:0:
414,371,36984,6,0,P|424:327|427:282,1,89.9999999999999,6|8,3:2|0:0,0:0:0:0:
416,192,37682,2,0,L|432:43,2,135,2|10|10,3:2|0:0|0:0,0:0:0:0:
329,215,39077,1,2,3:2:0:0:
256,161,39426,1,8,0:0:0:0:
169,184,39775,6,0,P|158:232|160:272,1,89.9999999999999,2|10,3:2|0:0,0:0:0:0:
220,339,40472,2,0,L|318:329,1,89.9999999999999,2|10,3:2|0:0,0:0:0:0:
389,287,41170,2,0,L|478:296,2,89.9999999999999,2|10|2,3:2|0:0|3:2,0:0:0:0:
344,208,42216,1,10,0:0:0:0:
409,146,42565,6,0,P|412:96|403:46,1,89.9999999999999,2|12,3:2|0:0,0:0:0:0:
322,22,43263,1,2,3:2:0:0:
252,78,43612,1,14,0:0:0:0:
168,43,43961,2,0,P|131:27|81:31,1,89.9999999999999,2|12,3:2|0:0,0:0:0:0:
4,75,44658,1,2,3:2:0:0:
1,164,45007,1,14,0:0:0:0:
60,232,45356,6,0,L|51:323,1,89.9999999999999,6|10,3:2|0:0,0:0:0:0:
127,371,46054,2,0,P|171:372|215:361,1,89.9999999999999,2|10,3:2|0:0,0:0:0:0:
293,316,46751,1,6,3:2:0:0:
464,369,47449,2,0,L|461:313,1,45,10|0,0:0|3:0,0:0:0:0:
512,196,48147,6,0,P|456:149|369:201,1,180,6|10,3:2|0:0,0:0:0:0:
284,218,49193,1,2,0:0:0:0:
234,142,49542,2,0,P|245:70|158:21,1,180,2|10,3:2|0:0,0:0:0:0:
85,66,50589,1,2,0:0:0:0:
9,115,50937,6,0,L|-2:298,1,180,6|10,3:2|0:0,0:0:0:0:
66,353,51984,1,2,0:0:0:0:
141,304,52333,2,0,L|152:121,1,180,2|10,3:2|0:0,0:0:0:0:
226,75,53379,1,2,3:2:0:0:
293,133,53728,1,6,0:0:0:0:
26,236,56519,6,0,P|70:227|114:228,1,89.9999999999999,6|2,3:2|3:2,0:0:0:0:
187,281,57216,1,8,3:0:0:0:
276,292,57565,1,2,3:2:0:0:
352,244,57914,2,0,L|362:190,1,45,10|10,0:0|0:0,0:0:0:0:
86,41,59310,5,6,3:2:0:0:
41,119,59658,1,10,0:0:0:0:
99,187,60007,2,0,P|90:231|93:275,1,89.9999999999999,2|10,3:2|0:0,0:0:0:0:
167,326,60705,1,2,3:2:0:0:
252,296,61054,1,10,0:0:0:0:
324,348,61403,2,0,P|368:351|412:342,1,89.9999999999999,2|10,3:2|0:0,0:0:0:0:
480,283,62100,6,0,P|489:223|492:156,1,89.9999999999999,2|8,3:2|0:0,0:0:0:0:
497,103,62798,1,2,3:2:0:0:
423,51,63147,1,10,0:0:0:0:
346,98,63496,2,0,P|337:144|337:194,2,89.9999999999999,2|10|2,3:2|0:0|3:2,0:0:0:0:
264,59,64542,1,8,0:0:0:0:
185,102,64891,6,0,P|140:95|97:107,1,89.9999999999999,6|10,3:2|0:0,0:0:0:0:
23,157,65589,1,2,3:2:0:0:
14,246,65937,1,10,0:0:0:0:
61,322,66286,2,0,P|104:334|148:328,1,89.9999999999999,2|10,3:2|0:0,0:0:0:0:
228,368,66984,1,0,3:0:0:0:
312,336,67333,1,8,0:0:0:0:
396,367,67682,6,0,P|422:331|430:287,1,89.9999999999999,6|10,3:2|0:0,0:0:0:0:
400,201,68379,2,0,L|247:181,1,135,10|6,0:0|3:2,0:0:0:0:
208,114,69251,1,0,3:0:0:0:
278,57,69600,2,0,L|431:77,1,135,6|8,3:2|0:0,0:0:0:0:
470,142,70472,5,6,3:2:0:0:
459,231,70821,1,10,0:0:0:0:
399,298,71170,2,0,P|357:280|313:282,1,89.9999999999999,2|10,3:2|0:0,0:0:0:0:
237,330,71868,1,2,3:2:0:0:
148,314,72216,1,10,0:0:0:0:
92,242,72565,2,0,P|92:187|114:144,1,89.9999999999999,2|10,3:2|0:0,0:0:0:0:
175,98,73263,5,2,3:2:0:0:
259,131,73612,1,10,0:0:0:0:
331,77,73961,2,0,P|375:70|419:88,1,89.9999999999999,2|10,3:2|0:0,0:0:0:0:
469,158,74658,2,0,L|456:276,1,89.9999999999999,2|10,3:2|0:0,0:0:0:0:
383,297,75356,1,2,3:2:0:0:
302,256,75705,1,10,0:0:0:0:
228,308,76054,6,0,P|142:323|78:264,1,180,6|10,3:2|0:0,0:0:0:0:
101,86,77449,2,0,P|56:89|13:103,2,89.9999999999999,10|10|10,0:0|0:0|0:0,0:0:0:0:
272,142,78844,6,0,P|316:138|359:124,2,89.9999999999999,6|2|2,3:2|3:2|3:2,0:0:0:0:
186,113,79891,1,10,0:2:0:0:
121,176,80240,2,0,L|112:283,1,89.9999999999999,6|10,3:2|0:0,0:0:0:0:
170,335,80937,1,8,0:0:0:0:
259,342,81286,1,2,0:0:0:0:
327,283,81635,6,0,P|371:278|414:294,1,89.9999999999999,6|2,3:2|3:2,0:0:0:0:
490,246,82333,2,0,L|498:189,1,45,10|10,0:0|0:0,0:0:0:0:
473,114,82856,2,0,P|412:85|346:93,1,135,10|2,0:0|3:2,0:0:0:0:
266,133,83728,1,8,0:0:0:0:
189,85,84077,1,0,3:0:0:0:
108,125,84426,6,0,L|88:287,1,135,6|6,3:2|3:2,0:0:0:0:
183,358,85472,2,0,L|345:378,1,135,6|6,3:2|3:2,0:0:0:0:
416,283,86519,2,0,L|426:209,1,45,10|10,0:0|0:0,0:0:0:0:
361,172,87042,1,6,3:2:0:0:
256,192,87216,12,0,88612,0:0:0:0:
