osu file format v14

[General]
AudioFilename: audio.mp3
AudioLeadIn: 0
PreviewTime: 58176
Countdown: 0
SampleSet: Soft
StackLeniency: 0.3
Mode: 0
LetterboxInBreaks: 0
WidescreenStoryboard: 0

[Editor]
DistanceSpacing: 1.3
BeatDivisor: 4
GridSize: 32
TimelineZoom: 1

[Metadata]
Title:Omoide Shiritori (TV Size)
TitleUnicode:おもいでしりとり (TV Size)
Artist:DIALOGUE+
ArtistUnicode:DIALOGUE+
Creator:Dored
Version:New Beginning.
Source:ひげを剃る。そして女子高生を拾う。
Tags:Hige wo Soru Soshite Joshikousei wo Hirou I Shaved Then I Brought a High School Girl Home Higehiro Project No 9 Japanese Anime Jpop J-pop Pop Opening OP Irohas MugiwaraSekai Garden Rage Quit Misure Iceluin joker- Eir _kotachi_ -Brethia StrengeMistake
BeatmapID:3102108
BeatmapSetID:1515089

[Difficulty]
HPDrainRate:6
CircleSize:4
OverallDifficulty:9
ApproachRate:9.3
SliderMultiplier:1.8
SliderTickRate:1

[Events]
//Background and Video events
0,0,"BG.png",0,0
Video,0,"video.mp4"
//Break Periods
//Storyboard Layer 0 (Background)
//Storyboard Layer 1 (Fail)
//Storyboard Layer 2 (Pass)
//Storyboard Layer 3 (Foreground)
//Storyboard Layer 4 (Overlay)
//Storyboard Sound Samples

[TimingPoints]
-690,348.837209302326,4,2,1,40,1,0
705,-125,4,2,1,40,0,0
4455,-125,4,2,1,5,0,0
4542,-125,4,2,1,40,0,0
6461,-125,4,2,1,55,0,0
7682,-111.111111111111,4,2,1,65,0,0
7943,-111.111111111111,4,2,1,5,0,0
8030,-111.111111111111,4,2,1,65,0,0
8641,-111.111111111111,4,2,1,5,0,0
8728,-111.111111111111,4,2,1,65,0,0
9077,-111.111111111111,4,2,1,75,0,0
10734,-111.111111111111,4,2,1,5,0,0
10821,-111.111111111111,4,2,1,75,0,0
14135,-111.111111111111,4,2,1,40,0,0
14484,-99.9999999999999,4,2,1,75,0,0
14920,-99.9999999999999,4,2,1,5,0,0
15007,-99.9999999999999,4,2,1,75,0,0
17711,-99.9999999999999,4,2,1,5,0,0
17798,-99.9999999999999,4,2,1,75,0,0
24426,-99.9999999999999,4,2,1,65,0,0
24949,-99.9999999999999,4,2,1,30,0,0
25821,-125,4,2,2,45,0,0
36286,-125,4,2,1,55,0,0
36984,-111.111111111111,4,2,1,60,0,0
37246,-111.111111111111,4,2,1,5,0,0
37333,-111.111111111111,4,2,1,60,0,0
38990,-111.111111111111,4,2,1,5,0,0
39077,-111.111111111111,4,2,1,60,0,0
40036,-111.111111111111,4,2,1,5,0,0
40123,-111.111111111111,4,2,1,60,0,0
40385,-111.111111111111,4,2,1,5,0,0
40472,-111.111111111111,4,2,1,60,0,0
41780,-111.111111111111,4,2,1,5,0,0
41868,-111.111111111111,4,2,1,60,0,0
42565,-99.9999999999999,4,2,1,60,0,0
45356,-111.111111111111,4,2,1,60,0,0
45618,-111.111111111111,4,2,1,5,0,0
45705,-111.111111111111,4,2,1,75,0,0
47972,-111.111111111111,4,2,1,55,0,0
53728,-125,4,2,1,40,0,0
55821,-111.111111111111,4,2,1,55,0,0
56519,-99.9999999999999,4,2,1,70,0,0
59310,-83.3333333333333,4,2,1,80,0,0
63757,-83.3333333333333,4,2,1,5,0,0
63844,-83.3333333333333,4,2,1,80,0,0
64106,-83.3333333333333,4,2,1,5,0,0
64193,-83.3333333333333,4,2,1,80,0,0
75356,-90.9090909090909,4,2,1,80,0,0
75618,-90.9090909090909,4,2,1,5,0,0
75705,-90.9090909090909,4,2,1,80,0,0
76315,-90.9090909090909,4,2,1,5,0,0
76403,-90.9090909090909,4,2,1,80,0,0
77013,-90.9090909090909,4,2,1,5,0,0
77100,-90.9090909090909,4,2,1,80,0,0
78844,-83.3333333333333,4,2,1,80,0,0
79106,-83.3333333333333,4,2,1,5,0,0
79193,-83.3333333333333,4,2,1,80,0,0
81635,-100,4,2,1,75,0,0
81897,-100,4,2,1,5,0,0
81984,-100,4,2,1,75,0,0
87129,-100,4,2,1,60,0,0
88612,-100,4,2,1,20,0,0

[Colours]
Combo1 : 252,249,114
Combo2 : 241,184,141
Combo3 : 208,180,235
Combo4 : 155,189,240

[HitObjects]
88,237,705,5,2,0:0:0:0:
176,223,879,1,0,0:0:0:0:
248,275,1054,1,2,0:0:0:0:
262,362,1228,1,0,0:0:0:0:
165,243,1403,5,2,0:0:0:0:
151,156,1577,1,0,0:0:0:0:
202,84,1751,1,2,0:0:0:0:
288,69,1926,1,0,0:0:0:0:
371,189,2100,6,0,P|365:153|358:118,1,72,2|2,0:0|0:0,0:0:0:0:
436,70,2449,2,0,P|441:105|448:140,1,72,2|2,0:0|0:0,0:0:0:0:
419,265,2798,2,0,P|364:221|295:232,1,144,2|2,0:0|0:0,0:0:0:0:
234,300,3321,1,2,0:0:0:0:
188,165,3496,6,0,P|223:159|258:152,1,72,2|2,0:0|0:0,0:0:0:0:
161,249,3844,2,0,P|125:254|90:261,1,72,2|2,0:0|0:0,0:0:0:0:
122,88,4193,2,0,P|175:79|228:69,1,108,2|0,0:0|0:0,0:0:0:0:
271,81,4542,2,0,P|264:116|258:151,1,72,2|2,0:0|0:0,0:0:0:0:
159,0,4891,5,2,0:0:0:0:
159,0,5414,1,2,0:0:0:0:
122,87,5589,2,0,P|86:81|51:74,1,72,2|0,0:0|0:0,0:0:0:0:
188,165,5937,2,0,P|223:158|258:152,1,72,2|0,0:0|0:0,0:0:0:0:
90,260,6286,5,2,0:0:0:0:
93,240,6373,1,2,0:0:0:0:
106,225,6461,1,8,0:0:0:0:
198,266,6635,2,0,P|204:301|210:336,1,72,4|0,0:3|0:0,0:0:0:0:
300,244,6984,1,10,0:0:0:0:
389,301,7159,1,8,0:0:0:0:
309,370,7333,5,8,0:3:0:0:
403,160,7507,1,4,0:3:0:0:
198,266,7682,2,0,P|138:272|89:238,1,121.499996292114,6|0,3:2|0:0,0:0:0:0:
67,200,8030,5,2,0:0:0:0:
300,244,8205,1,2,0:0:0:0:
185,25,8379,2,0,P|173:84|163:144,1,121.499996292114,6|0,3:2|0:0,0:0:0:0:
159,188,8728,5,2,0:0:0:0:
44,17,8903,1,2,0:0:0:0:
262,104,9077,5,10,0:0:0:0:
89,238,9251,1,0,3:0:0:0:
279,87,9426,5,10,0:0:0:0:
199,304,9600,1,2,3:2:0:0:
282,63,9775,6,0,P|290:102|297:142,1,80.9999975280763,10|4,0:0|0:3,0:0:0:0:
468,234,10123,1,2,3:2:0:0:
398,88,10298,1,2,3:2:0:0:
347,309,10472,6,0,P|297:275|238:281,1,121.499996292114,6|0,3:2|0:0,0:0:0:0:
199,304,10821,1,2,0:0:0:0:
297,142,10996,1,2,0:0:0:0:
89,238,11170,5,2,3:2:0:0:
276,359,11344,1,0,3:0:0:0:
173,143,11519,1,4,0:3:0:0:
40,340,11693,1,2,0:0:0:0:
238,280,11868,6,0,L|277:269,1,40.4999987640381,6|0,3:2|0:0,0:0:0:0:
410,227,12042,2,0,L|370:216,1,40.4999987640381,8|8,0:0|0:0,0:0:0:0:
297,142,12216,1,10,0:0:0:0:
273,114,12304,1,8,0:0:0:0:
263,78,12391,1,0,3:0:0:0:
269,41,12478,1,0,3:0:0:0:
290,10,12565,2,0,P|310:7|330:6,1,40.4999987640381,10|0,0:0|0:0,0:0:0:0:
502,134,12740,5,8,0:0:0:0:
502,134,14135,6,0,L|498:154,1,20.2499993820191,2|0,0:0|0:0,0:0:0:0:
425,247,14484,5,10,0:0:0:0:
419,236,14571,1,8,0:0:0:0:
410,227,14658,2,0,P|343:214|277:203,1,135,6|0,3:2|0:0,0:0:0:0:
213,152,15007,2,0,P|220:107|226:63,1,90,2|0,3:2|0:0,0:0:0:0:
324,13,15356,1,10,0:0:0:0:
101,111,15530,1,10,0:0:0:0:
277,203,15705,1,0,3:0:0:0:
139,19,15879,6,0,P|52:23|4:95,1,180,10|2,0:0|0:0,0:0:0:0:
54,260,16403,2,0,P|95:252|142:244,1,90,2|2,3:2|0:0,0:0:0:0:
101,111,16751,1,8,0:0:0:0:
263,179,16926,1,8,0:0:0:0:
271,190,17013,1,8,0:0:0:0:
277,203,17100,2,0,L|269:247,1,45,0|0,3:0|3:0,0:0:0:0:
92,384,17275,5,0,3:0:0:0:
106,382,17362,1,0,3:0:0:0:
118,376,17449,2,0,P|131:309|142:243,1,135,6|0,3:2|0:0,0:0:0:0:
174,165,17798,2,0,P|219:172|263:178,1,90,2|0,3:2|0:0,0:0:0:0:
365,138,18147,1,10,0:0:0:0:
226,325,18321,1,8,0:0:0:0:
440,270,18496,1,0,3:0:0:0:
288,73,18670,6,0,P|313:159|334:246,1,180,10|2,0:0|0:0,0:0:0:0:
496,163,19193,1,2,3:2:0:0:
366,349,19368,1,2,0:0:0:0:
263,178,19542,2,0,P|212:171|173:164,1,90,8|8,0:0|0:0,0:0:0:0:
117,116,19804,1,8,0:0:0:0:
127,106,19891,1,0,3:0:0:0:
27,267,20066,5,0,3:0:0:0:
23,253,20153,1,0,3:0:0:0:
19,239,20240,2,0,L|7:195,1,45,6|0,3:2|0:0,0:0:0:0:
127,343,20415,5,8,0:0:0:0:
131,329,20502,1,8,0:0:0:0:
135,315,20589,1,0,3:0:0:0:
139,301,20676,1,0,3:0:0:0:
143,287,20763,2,0,L|154:243,1,45,6|0,3:2|0:0,0:0:0:0:
235,78,20938,5,8,0:0:0:0:
239,92,21025,1,8,0:0:0:0:
243,106,21112,1,0,3:0:0:0:
247,120,21199,1,0,3:0:0:0:
251,134,21286,2,0,L|262:178,1,45,6|0,3:2|0:0,0:0:0:0:
406,224,21462,5,8,0:0:0:0:
402,238,21549,1,8,0:0:0:0:
398,252,21636,1,0,3:0:0:0:
394,266,21723,1,0,3:0:0:0:
390,280,21810,2,0,L|379:324,1,45,6|0,3:2|0:0,0:0:0:0:
236,292,21984,6,0,L|280:281,1,45,8|8,0:0|0:0,0:0:0:0:
406,224,22158,2,0,L|362:213,1,45,0|0,3:0|3:0,0:0:0:0:
261,177,22333,5,10,0:0:0:0:
484,328,22507,1,10,0:0:0:0:
484,328,22856,6,0,P|458:241|437:154,1,180,6|0,3:2|3:0,0:0:0:0:
354,28,23379,2,0,P|397:38|441:48,1,90,8|0,0:0|0:0,0:0:0:0:
261,177,23728,1,0,3:0:0:0:
441,48,23903,1,0,0:0:0:0:
261,177,24077,2,0,P|251:133|240:89,1,90,8|0,0:0|0:0,0:0:0:0:
390,280,24426,5,6,3:2:0:0:
390,280,24949,5,2,0:0:0:0:
360,291,25036,1,2,0:0:0:0:
341,317,25123,1,2,0:0:0:0:
417,367,25472,5,2,0:0:0:0:
303,215,25821,6,0,P|232:227|161:240,1,144,6|10,3:2|0:0,0:0:0:0:
113,321,26344,1,2,0:0:0:0:
105,162,26519,2,0,P|175:149|246:135,1,144,10|8,0:0|0:0,0:0:0:0:
303,215,27042,1,2,3:2:0:0:
274,44,27216,5,2,3:2:0:0:
354,96,27391,1,2,0:0:0:0:
274,44,27565,2,0,P|238:51|203:56,1,72,10|0,0:0|0:0,0:0:0:0:
354,96,27914,2,0,P|423:85|477:129,1,144,10|8,0:0|0:0,0:0:0:0:
303,215,28437,1,2,3:2:0:0:
401,169,28612,6,0,P|393:204|388:239,1,72,2|0,3:2|0:0,0:0:0:0:
235,240,28961,2,0,P|269:228|302:215,1,72,10|0,0:0|0:0,0:0:0:0:
378,347,29310,2,0,P|350:323|323:300,1,72,10|0,0:0|0:0,0:0:0:0:
302,214,29658,1,10,0:0:0:0:
227,346,29833,1,0,3:0:0:0:
63,272,30007,6,0,P|133:259|204:245,2,144,2|10|10,3:2|0:0|0:0,0:0:0:0:
134,175,30879,1,0,0:0:0:0:
32,117,31054,2,0,P|38:152|44:187,1,72,8|2,0:0|0:0,0:0:0:0:
131,13,31403,6,0,P|125:48|118:83,1,72,2|0,3:2|0:0,0:0:0:0:
134,175,31751,1,10,0:0:0:0:
38,34,31926,1,2,0:0:0:0:
206,121,32100,2,0,P|275:132|329:88,1,144,10|8,0:0|0:0,0:0:0:0:
365,4,32623,1,2,3:2:0:0:
452,174,32798,6,0,P|416:167|381:161,1,72,2|0,3:2|0:0,0:0:0:0:
329,87,33147,1,10,0:0:0:0:
372,252,33321,1,2,0:0:0:0:
509,113,33496,2,0,P|495:183|482:254,1,144,10|8,0:0|0:0,0:0:0:0:
426,329,34019,1,10,0:0:0:0:
301,266,34193,6,0,P|336:259|371:252,1,72,2|0,3:2|0:0,0:0:0:0:
211,245,34542,2,0,P|218:280|224:315,1,72,10|0,0:0|0:0,0:0:0:0:
231,154,34891,2,0,P|195:161|160:167,1,72,10|0,0:0|0:0,0:0:0:0:
322,175,35240,2,0,P|314:139|308:104,1,72,10|0,0:0|0:0,0:0:0:0:
256,29,35589,5,2,0:0:0:0:
256,29,36286,1,2,3:2:0:0:
182,79,36461,1,0,3:0:0:0:
172,85,36548,1,0,3:0:0:0:
162,91,36635,1,8,3:0:0:0:
111,16,36810,1,4,3:0:0:0:
44,192,36984,6,0,P|34:132|21:72,1,121.499996292114,6|0,3:2|0:0,0:0:0:0:
31,31,37333,2,0,P|70:24|110:15,1,80.9999975280763,8|2,0:0|0:0,0:0:0:0:
248,148,37682,1,2,3:2:0:0:
147,170,37856,2,0,P|153:130|162:91,1,80.9999975280763,0|0,3:0|0:0,0:0:0:0:
329,53,38205,1,10,0:0:0:0:
317,224,38379,5,2,0:0:0:0:
162,90,38554,1,2,3:2:0:0:
176,280,38728,2,0,P|116:267|56:257,1,121.499996292114,10|0,0:0|0:0,0:0:0:0:
15,249,39077,1,2,3:2:0:0:
170,383,39251,1,0,3:0:0:0:
237,207,39426,2,0,P|276:215|316:223,1,80.9999975280763,8|2,0:0|0:0,0:0:0:0:
480,273,39775,6,0,P|420:266|371:300,1,121.499996292114,2|0,3:2|0:0,0:0:0:0:
321,371,40123,2,0,P|287:321|293:262,1,121.499996292114,10|0,0:0|0:0,0:0:0:0:
316,223,40472,1,2,3:2:0:0:
442,351,40647,1,0,3:0:0:0:
502,183,40821,2,0,P|493:143|485:103,1,80.9999975280763,10|0,0:0|0:0,0:0:0:0:
311,65,41170,5,2,3:2:0:0:
414,234,41344,1,0,3:0:0:0:
478,66,41519,2,0,P|418:79|358:89,1,121.499996292114,10|0,0:0|0:0,0:0:0:0:
311,65,41868,2,0,P|350:57|390:48,1,80.9999975280763,2|0,3:2|3:0,0:0:0:0:
243,164,42216,2,0,P|203:155|163:146,1,80.9999975280763,10|2,0:0|0:0,0:0:0:0:
186,42,42565,5,2,3:2:0:0:
73,219,42740,1,0,3:0:0:0:
186,42,42914,2,0,P|142:52|98:61,1,90,12|2,0:0|0:0,0:0:0:0:
348,251,43263,5,2,3:2:0:0:
163,146,43437,1,2,3:2:0:0:
348,251,43612,2,0,P|356:206|367:163,1,90,14|0,0:0|0:0,0:0:0:0:
120,338,43961,5,2,3:2:0:0:
271,187,44135,1,0,3:0:0:0:
120,338,44310,2,0,P|164:347|207:357,1,90,12|2,0:0|0:0,0:0:0:0:
4,148,44658,5,2,3:2:0:0:
181,260,44833,1,2,3:2:0:0:
4,148,45007,2,0,P|15:191|23:235,1,90,14|0,0:0|0:0,0:0:0:0:
163,146,45356,6,0,P|212:112|271:119,1,121.499996292114,6|0,3:2|0:0,0:0:0:0:
300,153,45705,2,0,P|339:145|379:137,1,80.9999975280763,10|0,0:0|0:0,0:0:0:0:
469,166,46054,1,2,3:2:0:0:
512,251,46228,1,0,3:0:0:0:
482,341,46403,1,10,0:0:0:0:
397,384,46577,1,0,3:0:0:0:
280,298,46751,6,0,B|413:273|413:273|403:283|397:294,1,161.999995056153,6|2,3:2|0:0,0:0:0:0:
397,384,47275,1,2,0:0:0:0:
469,166,47449,1,10,0:0:0:0:
249,304,47623,1,0,3:0:0:0:
249,304,47972,1,2,3:2:0:0:
151,281,48147,6,0,P|157:320|165:360,1,80.9999975280763,6|2,3:2|0:0,0:0:0:0:
66,335,48496,2,0,P|59:295|51:255,1,80.9999975280763,2|0,0:0|3:0,0:0:0:0:
21,159,48844,2,0,P|98:172|158:122,1,161.999995056153,10|2,0:0|0:0,0:0:0:0:
191,28,49368,1,0,0:0:0:0:
222,195,49542,5,2,3:2:0:0:
158,121,49716,1,8,0:0:0:0:
333,86,49891,2,0,P|293:94|253:102,1,80.9999975280763,2|0,0:0|3:0,0:0:0:0:
222,195,50240,2,0,P|301:208|381:223,1,161.999995056153,10|2,0:0|0:0,0:0:0:0:
481,247,50763,1,2,3:2:0:0:
311,357,50937,5,6,3:2:0:0:
396,302,51112,2,0,P|389:262|381:222,1,80.9999975280763,2|2,0:0|0:0,0:0:0:0:
490,336,51461,1,0,3:0:0:0:
437,152,51635,2,0,P|377:202|299:189,1,161.999995056153,10|2,0:0|0:0,0:0:0:0:
254,102,52158,1,0,3:0:0:0:
212,234,52333,5,2,3:2:0:0:
254,102,52508,1,8,0:0:0:0:
132,219,52682,2,0,P|172:226|212:234,1,80.9999975280763,2|0,0:0|3:0,0:0:0:0:
27,124,53030,2,0,P|42:203|55:283,1,161.999995056153,10|2,0:0|3:2,0:0:0:0:
5,369,53554,1,2,3:2:0:0:
212,234,53728,5,6,0:0:0:0:
212,234,54077,2,0,P|168:289|179:358,2,144,2|2|2,0:0|0:0|0:0,0:0:0:0:
312,373,55123,5,2,0:0:0:0:
392,338,55298,2,0,P|321:324|251:311,1,144,2|2,0:0|0:0,0:0:0:0:
212,234,55821,5,10,0:0:0:0:
403,122,55996,1,8,0:3:0:0:
331,277,56170,1,2,3:2:0:0:
284,79,56344,1,4,0:3:0:0:
444,235,56519,5,6,3:2:0:0:
170,121,56693,1,2,3:2:0:0:
379,0,56868,1,2,3:2:0:0:
212,234,57042,1,2,3:2:0:0:
10,28,57216,5,8,3:0:0:0:
284,79,57391,1,2,3:2:0:0:
59,223,57565,2,0,L|47:179,1,45,2|0,3:2|3:0,0:0:0:0:
158,77,57740,2,0,L|169:120,1,45,2|0,3:2|3:0,0:0:0:0:
308,177,57914,5,10,0:0:0:0:
20,346,58089,1,10,0:0:0:0:
287,325,58612,5,10,0:0:0:0:
212,234,58786,1,8,0:0:0:0:
179,211,58873,1,8,0:0:0:0:
138,207,58961,1,2,3:2:0:0:
101,224,59047,1,0,3:0:0:0:
77,257,59135,2,0,L|88:300,1,45,0|0,3:0|3:0,0:0:0:0:
307,176,59310,5,6,3:2:0:0:
73,96,59484,1,2,0:0:0:0:
327,29,59658,1,10,0:0:0:0:
101,224,59833,1,2,0:0:0:0:
362,384,60007,2,0,P|336:279|307:176,1,215.999993408203,2|10,3:2|0:0,0:0:0:0:
206,92,60530,1,2,0:0:0:0:
441,175,60705,5,2,3:2:0:0:
232,304,60879,1,2,0:0:0:0:
495,364,61054,1,10,0:0:0:0:
307,176,61228,1,2,0:0:0:0:
512,0,61403,2,0,P|497:51|484:104,1,107.999996704102,2|0,3:2|0:0,0:0:0:0:
335,280,61751,2,0,P|322:227|306:175,1,107.999996704102,10|2,0:0|0:0,0:0:0:0:
127,37,62100,5,2,3:2:0:0:
101,63,62449,2,0,P|152:78|205:91,1,107.999996704102,8|2,0:0|0:0,0:0:0:0:
54,244,62798,1,2,3:2:0:0:
306,175,62972,1,0,0:0:0:0:
54,244,63147,2,0,P|69:295|82:348,1,107.999996704102,10|0,0:0|0:0,0:0:0:0:
362,341,63496,6,0,P|332:270|256:274,1,161.999995056153,2|0,3:2|0:0,0:0:0:0:
149,217,63844,2,0,P|227:197|305:175,1,161.999995056153,10|0,0:0|0:0,0:0:0:0:
384,88,64193,2,0,B|414:84|441:66|441:66|388:211,1,215.999993408203,2|8,3:2|0:0,0:0:0:0:
205,91,64716,1,2,0:0:0:0:
375,245,64891,5,6,3:2:0:0:
162,374,65065,1,2,0:0:0:0:
388,210,65240,1,10,0:0:0:0:
205,91,65414,5,2,0:0:0:0:
230,182,65589,1,2,3:2:0:0:
256,273,65763,1,2,0:0:0:0:
376,355,65937,5,10,0:0:0:0:
122,243,66112,1,2,0:0:0:0:
384,88,66286,1,2,3:2:0:0:
256,273,66461,1,2,0:0:0:0:
507,292,66635,1,10,0:0:0:0:
269,123,66810,6,0,P|218:138|165:151,1,107.999996704102,2|0,0:0|3:0,0:0:0:0:
22,383,67158,2,0,P|73:368|126:355,1,107.999996704102,2|8,0:0|0:0,0:0:0:0:
256,273,67507,1,2,0:0:0:0:
269,123,67682,5,6,3:2:0:0:
126,354,67856,1,2,3:2:0:0:
24,92,68030,5,10,0:0:0:0:
256,273,68205,1,2,3:2:0:0:
437,41,68379,1,10,0:0:0:0:
164,151,68554,1,2,3:2:0:0:
376,355,68728,1,10,0:0:0:0:
312,64,68903,6,0,P|282:167|256:272,1,215.999993408203,6|0,3:2|3:0,0:0:0:0:
164,151,69426,1,8,0:0:0:0:
372,248,69600,2,0,P|384:195|400:143,1,107.999996704102,6|2,3:2|0:0,0:0:0:0:
312,64,69949,1,0,3:0:0:0:
256,273,70123,2,0,P|204:257|151:244,1,107.999996704102,8|0,0:0|3:0,0:0:0:0:
34,214,70472,5,6,3:2:0:0:
282,167,70647,1,2,0:0:0:0:
135,46,70821,2,0,P|150:97|163:150,1,107.999996704102,10|0,0:0|0:0,0:0:0:0:
205,382,71170,2,0,P|269:302|370:320,1,215.999993408203,2|10,3:2|0:0,0:0:0:0:
468,245,71693,1,2,0:0:0:0:
256,273,71868,5,2,3:2:0:0:
484,367,72042,1,2,0:0:0:0:
314,138,72216,1,10,0:0:0:0:
512,66,72391,1,2,0:0:0:0:
370,320,72565,2,0,P|357:267|341:215,1,107.999996704102,2|2,3:2|0:0,0:0:0:0:
314,138,72827,1,2,0:0:0:0:
329,136,72914,1,10,0:0:0:0:
468,245,73089,1,2,0:0:0:0:
168,155,73263,5,2,3:2:0:0:
393,45,73437,1,2,0:0:0:0:
243,355,73612,1,10,0:0:0:0:
468,245,73786,1,2,0:0:0:0:
148,277,73961,5,2,3:2:0:0:
248,35,74135,1,2,0:0:0:0:
490,135,74310,1,10,0:0:0:0:
390,377,74484,1,2,0:0:0:0:
393,45,74658,5,2,3:2:0:0:
168,155,74833,1,2,0:0:0:0:
418,272,75007,2,0,P|403:323|390:376,1,107.999996704102,10|0,0:0|0:0,0:0:0:0:
333,166,75356,6,0,P|277:120|206:133,1,148.50000453186,2|0,3:2|0:0,0:0:0:0:
168,155,75705,1,10,0:0:0:0:
285,315,75879,1,0,3:0:0:0:
75,257,76054,6,0,P|148:245|221:231,1,148.50000453186,6|0,3:2|0:0,0:0:0:0:
256,204,76403,1,2,0:0:0:0:
104,368,76577,1,2,3:2:0:0:
168,155,76751,6,0,P|168:83|113:36,1,148.50000453186,10|0,0:0|0:0,0:0:0:0:
69,34,77100,1,2,0:0:0:0:
285,87,77275,1,2,3:2:0:0:
75,257,77449,5,10,0:0:0:0:
198,3,77623,1,0,3:0:0:0:
69,274,77798,5,10,0:0:0:0:
285,87,77972,1,0,3:0:0:0:
70,291,78147,6,0,P|118:298|167:308,1,99.0000030212403,10|4,0:0|0:3,0:0:0:0:
18,181,78496,1,2,3:2:0:0:
203,318,78670,1,2,3:2:0:0:
285,87,78844,6,0,P|362:75|423:125,1,161.999995056153,6|0,3:2|0:0,0:0:0:0:
443,201,79193,1,2,3:2:0:0:
482,38,79368,1,2,0:0:0:0:
337,170,79542,1,2,3:2:0:0:
302,185,79629,1,8,0:3:0:0:
263,183,79716,1,4,0:3:0:0:
227,168,79804,1,8,0:3:0:0:
202,140,79891,2,0,P|194:114|188:87,1,53.9999983520508,10|8,0:2|0:0,0:0:0:0:
271,34,80065,2,0,P|278:59|284:86,1,53.9999983520508,10|8,0:0|0:0,0:0:0:0:
170,250,80240,6,0,P|117:237|65:221,1,107.999996704102,6|0,3:2|0:0,0:0:0:0:
33,77,80589,1,10,0:0:0:0:
60,50,80676,1,8,0:0:0:0:
95,36,80763,1,8,0:3:0:0:
133,39,80850,1,8,0:3:0:0:
166,57,80937,5,8,0:0:0:0:
12,290,81112,1,8,0:0:0:0:
200,179,81635,6,0,P|212:245|223:311,1,135,6|0,3:2|0:0,0:0:0:0:
280,370,81984,2,0,P|325:363|369:357,1,90,2|0,3:2|0:0,0:0:0:0:
122,338,82333,1,10,0:0:0:0:
309,191,82507,1,10,0:0:0:0:
126,112,82682,1,0,3:0:0:0:
347,281,82856,6,0,P|404:215|386:131,1,180,10|2,0:0|0:0,0:0:0:0:
278,1,83379,2,0,P|271:45|264:90,1,90,2|2,3:2|0:0,0:0:0:0:
385,130,83728,1,8,0:0:0:0:
142,181,83902,1,8,0:0:0:0:
140,168,83989,1,8,0:0:0:0:
137,155,84077,2,0,L|125:111,1,45,0|0,3:0|3:0,0:0:0:0:
33,7,84251,5,0,3:0:0:0:
47,11,84339,1,0,3:0:0:0:
61,15,84426,2,0,L|105:27,1,45,6|0,3:2|0:0,0:0:0:0:
236,128,84600,5,8,0:0:0:0:
222,132,84687,1,8,0:0:0:0:
208,136,84774,1,0,3:0:0:0:
194,140,84861,1,0,3:0:0:0:
180,144,84948,2,0,L|136:155,1,45,6|0,3:2|0:0,0:0:0:0:
68,308,85123,5,8,0:0:0:0:
82,304,85210,1,8,0:0:0:0:
96,300,85297,1,0,3:0:0:0:
110,296,85384,1,0,3:0:0:0:
124,292,85472,2,0,L|167:281,1,45,6|0,3:2|0:0,0:0:0:0:
311,247,85647,5,8,0:0:0:0:
307,261,85734,1,8,0:0:0:0:
303,275,85821,1,0,3:0:0:0:
299,289,85908,1,0,3:0:0:0:
295,303,85995,2,0,L|284:347,1,45,6|0,3:2|0:0,0:0:0:0:
219,180,86170,6,0,L|208:136,1,45,8|8,0:0|0:0,0:0:0:0:
104,26,86344,2,0,L|93:70,1,45,0|0,3:0|3:0,0:0:0:0:
32,163,86519,5,10,0:0:0:0:
269,42,86693,1,10,0:0:0:0:
124,292,87042,5,6,3:2:0:0:
256,192,87129,12,0,88612,0:0:0:0:
