osu file format v14

[General]
AudioFilename: audio.mp3
AudioLeadIn: 0
PreviewTime: 58176
Countdown: 0
SampleSet: Soft
StackLeniency: 0.5
Mode: 0
LetterboxInBreaks: 0
WidescreenStoryboard: 1

[Editor]
DistanceSpacing: 1.4
BeatDivisor: 4
GridSize: 4
TimelineZoom: 1.3

[Metadata]
Title:Omoide Shiritori (TV Size)
TitleUnicode:おもいでしりとり (TV Size)
Artist:DIALOGUE+
ArtistUnicode:DIALOGUE+
Creator:Dored
Version:Misure's Hard.
Source:ひげを剃る。そして女子高生を拾う。
Tags:Hige wo Soru Soshite Joshikousei wo Hirou I Shaved Then I Brought a High School Girl Home Higehiro Project No 9 Japanese Anime Jpop J-pop Pop Opening OP Irohas MugiwaraSekai Garden Rage Quit Misure Iceluin joker- Eir _kotachi_ -Brethia StrengeMistake
BeatmapID:3109266
BeatmapSetID:1515089

[Difficulty]
HPDrainRate:4.4
CircleSize:3.6
OverallDifficulty:6
ApproachRate:7.8
SliderMultiplier:1.4
SliderTickRate:1

[Events]
//Background and Video events
0,0,"BG.png",0,0
Video,0,"video.mp4"
//Break Periods
//Storyboard Layer 0 (Background)
//Storyboard Layer 1 (Fail)
//Storyboard Layer 2 (Pass)
//Storyboard Layer 3 (Foreground)
//Storyboard Layer 4 (Overlay)
//Storyboard Sound Samples

[TimingPoints]
-690,348.837209302326,4,2,1,50,1,0
705,-166.666666666667,4,2,1,50,0,0
2100,-142.857142857143,4,2,1,50,0,0
6286,-142.857142857143,4,2,1,55,0,0
6984,-142.857142857143,4,2,1,60,0,0
7682,-111.111111111111,4,2,1,70,0,0
9077,-100,4,2,1,70,0,0
13263,-111.111111111111,4,2,1,60,0,0
13612,-125,4,2,1,50,0,0
14135,-125,4,2,1,55,0,0
14484,-100,4,2,1,75,0,0
24426,-125,4,2,2,60,0,0
35589,-142.857142857143,4,2,1,60,0,0
36286,-125,4,2,1,60,0,0
36984,-100,4,2,1,70,0,0
48147,-111.111111111111,4,2,1,70,0,0
53728,-142.857142857143,4,2,1,50,0,0
56519,-100,4,2,1,65,0,0
57914,-100,4,2,1,75,0,0
59310,-100,4,2,1,80,0,1
70298,-100,4,2,1,75,0,0
70472,-100,4,2,1,80,0,1
81286,-125,4,2,1,70,0,0
81635,-100,4,2,1,75,0,1
81810,-100,4,2,1,75,0,0
87042,-125,4,2,1,55,0,0
88612,-125,4,2,1,10,0,0

[Colours]
Combo1 : 197,245,236
Combo2 : 252,231,209
Combo3 : 227,255,200
Combo4 : 208,232,255

[HitObjects]
207,90,705,6,0,P|200:110|196:130,1,41.9999987182618,2|0,0:0|0:0,0:0:0:0:
152,207,1054,2,0,P|169:219|187:229,1,41.9999987182618,2|0,0:0|0:0,0:0:0:0:
243,297,1403,2,0,P|259:284|275:270,1,41.9999987182618,2|0,0:0|0:0,0:0:0:0:
358,239,1752,2,0,P|351:219|342:199,1,41.9999987182618,2|0,0:0|0:0,0:0:0:0:
291,132,2100,6,0,P|338:113|381:94,2,97.9999970092774,2|2|2,0:0|0:0|0:0,0:0:0:0:
73,137,3147,2,0,L|87:183,1,48.9999985046387,2|2,0:0|0:0,0:0:0:0:
172,204,3496,6,0,L|184:106,1,97.9999970092774,2|2,0:0|0:0,0:0:0:0:
158,22,4019,1,2,0:0:0:0:
158,22,4193,2,0,P|119:51|71:48,1,97.9999970092774,2|2,0:0|0:0,0:0:0:0:
266,132,4891,6,0,P|313:129|352:158,1,97.9999970092774,2|0,0:0|0:0,0:0:0:0:
432,120,5414,1,2,0:0:0:0:
432,120,5589,2,0,L|442:72,2,48.9999985046387,2|0|2,0:0|0:0|0:0,0:0:0:0:
461,328,6286,6,0,L|481:343,2,24.4999992523194,2|2|8,0:0|0:0|0:0,0:0:0:0:
408,258,6635,2,0,B|371:250|371:250|344:275,1,73.4999977569581,4|0,0:3|0:0,0:0:0:0:
326,312,6984,2,0,L|308:266,1,48.9999985046387,10|8,0:0|0:0,0:0:0:0:
228,212,7333,1,8,0:3:0:0:
181,286,7507,1,4,0:3:0:0:
229,364,7682,6,0,P|140:328|51:296,1,188.999994232178,6|2,3:2|0:0,0:0:0:0:
115,216,8379,2,0,B|84:169|108:128|133:88|99:34,1,188.999994232178,6|2,3:2|0:0,0:0:0:0:
12,90,9077,5,10,0:0:0:0:
12,90,9251,1,0,3:0:0:0:
97,140,9426,1,10,0:0:0:0:
97,140,9600,1,2,3:2:0:0:
180,88,9775,2,0,P|212:103|243:120,1,70,10|4,0:0|0:3,0:0:0:0:
294,36,10123,2,0,P|310:28|325:18,2,35,2|0|2,3:2|0:0|3:2,0:0:0:0:
345,124,10472,6,0,L|325:262,1,140,6|2,3:2|0:0,0:0:0:0:
384,341,10996,1,2,0:0:0:0:
441,261,11170,2,0,P|437:226|421:195,1,70,2|0,3:2|3:0,0:0:0:0:
325,262,11519,1,4,0:3:0:0:
325,262,11693,1,2,0:0:0:0:
224,200,11868,6,0,P|254:184|287:171,1,70,6|8,3:2|0:0,0:0:0:0:
311,76,12216,2,0,P|315:58|319:42,2,35,10|8|0,0:0|0:0|3:0,0:0:0:0:
214,94,12565,1,10,0:0:0:0:
130,42,12740,1,8,0:0:0:0:
49,98,12914,2,0,P|41:129|33:166,1,70,2|0,0:0|0:0,0:0:0:0:
46,266,13263,5,2,0:0:0:0:
46,266,13612,2,0,B|98:256|127:292|159:321|220:304,1,168,2|2,0:0|0:0,0:0:0:0:
405,371,14484,5,10,0:0:0:0:
405,371,14571,1,8,0:0:0:0:
405,371,14658,2,0,P|395:337|384:304,1,70,6|0,3:2|0:0,0:0:0:0:
295,260,15007,2,0,P|303:226|314:192,1,70,2|0,3:2|0:0,0:0:0:0:
384,124,15356,1,10,0:0:0:0:
328,43,15530,2,0,P|302:66|268:70,1,70,10|0,0:0|3:0,0:0:0:0:
185,136,15879,6,0,L|150:0,1,140,10|2,0:0|0:0,0:0:0:0:
57,34,16403,2,0,P|48:68|41:102,1,70,2|2,3:2|0:0,0:0:0:0:
87,189,16751,1,8,0:0:0:0:
16,257,16926,1,8,0:0:0:0:
16,257,17013,1,8,0:0:0:0:
16,257,17100,2,0,P|24:272|31:288,2,35,0|0|0,3:0|3:0|3:0,0:0:0:0:
87,189,17449,6,0,P|118:173|151:161,1,70,6|0,3:2|0:0,0:0:0:0:
183,253,17798,2,0,P|214:268|247:280,1,70,2|0,3:2|0:0,0:0:0:0:
332,230,18147,1,10,0:0:0:0:
413,283,18321,2,0,B|421:316|421:316|408:349,1,70,8|0,0:0|3:0,0:0:0:0:
332,230,18670,6,0,L|355:92,1,140,10|2,0:0|0:0,0:0:0:0:
280,13,19193,1,2,3:2:0:0:
340,98,19368,1,2,0:0:0:0:
416,32,19542,2,0,P|447:17|479:3,1,70,8|8,0:0|0:0,0:0:0:0:
497,98,19891,2,0,P|506:114|513:130,2,35,0|0|0,3:0|3:0|3:0,0:0:0:0:
419,173,20240,5,6,3:2:0:0:
476,256,20414,2,0,P|490:245|504:236,2,35,8|8|0,0:0|0:0|3:0,0:0:0:0:
445,353,20763,2,0,P|410:346|384:324,1,70,6|8,3:2|0:0,0:0:0:0:
384,325,21024,1,8,0:0:0:0:
384,325,21112,1,0,3:0:0:0:
322,244,21286,5,6,3:2:0:0:
243,308,21461,2,0,P|250:323|257:339,2,35,8|8|0,0:0|0:0|3:0,0:0:0:0:
162,246,21810,2,0,P|144:276|142:310,1,70,6|8,3:2|0:0,0:0:0:0:
142,310,22071,1,8,0:0:0:0:
142,310,22159,1,0,3:0:0:0:
60,369,22333,5,10,0:0:0:0:
0,290,22507,1,10,0:0:0:0:
193,43,22856,6,0,P|126:57|73:16,1,140,6|0,3:2|3:0,0:0:0:0:
2,84,23379,2,0,P|13:111|28:148,1,70,8|0,0:0|0:0,0:0:0:0:
115,196,23728,2,0,P|106:229|98:263,1,70,0|0,3:0|0:0,0:0:0:0:
62,360,24077,2,0,P|31:343|-1:328,1,70,8|0,0:0|0:0,0:0:0:0:
98,264,24426,6,0,P|178:251|242:302,1,168,6|2,3:2|0:0,0:0:0:0:
240,316,25036,1,2,0:0:0:0:
238,329,25123,2,0,P|292:328|331:289,1,112,2|2,0:0|0:0,0:0:0:0:
462,111,25821,6,0,P|445:42|436:2,2,112,6|10|10,3:2|0:0|0:0,0:0:0:0:
476,284,26868,2,0,P|451:270|425:260,1,56,8|2,0:0|3:2,0:0:0:0:
331,288,27216,6,0,P|336:258|342:233,1,56,2|2,3:2|0:0,0:0:0:0:
237,253,27565,2,0,P|254:306|271:359,1,112,10|10,0:0|0:0,0:0:0:0:
97,357,28263,1,8,0:0:0:0:
97,357,28437,1,2,3:2:0:0:
23,311,28612,6,0,P|62:273|117:272,1,112,2|10,3:2|0:0,0:0:0:0:
202,121,29310,2,0,P|147:121|108:82,1,112,10|10,0:0|0:0,0:0:0:0:
65,6,29833,1,0,3:0:0:0:
10,73,30007,6,0,P|26:112|51:176,2,112,2|10|10,3:2|0:0|0:0,0:0:0:0:
179,31,31054,2,0,P|201:14|226:0,1,56,8|2,0:0|0:0,0:0:0:0:
308,25,31403,6,0,P|349:61|403:63,1,112,2|10,3:2|0:0,0:0:0:0:
419,148,31926,1,2,0:0:0:0:
419,148,32100,2,0,P|366:167|315:189,1,112,10|8,0:0|0:0,0:0:0:0:
245,136,32623,1,2,3:2:0:0:
180,194,32798,6,0,L|221:298,1,112,2|10,3:2|0:0,0:0:0:0:
201,383,33321,1,2,0:0:0:0:
201,383,33496,2,0,P|255:381|296:344,1,112,10|8,0:0|0:0,0:0:0:0:
380,369,34019,1,10,0:0:0:0:
462,342,34193,6,0,L|482:231,2,112,2|10|10,3:2|0:0|0:0,0:0:0:0:
297,345,35240,2,0,L|281:276,1,56,10|0,0:0|0:0,0:0:0:0:
335,215,35589,6,0,P|264:200|206:242,1,146.999995513916,2|2,0:0|0:0,0:0:0:0:
171,329,36286,1,2,3:2:0:0:
109,264,36461,1,0,3:0:0:0:
109,264,36548,1,0,3:0:0:0:
109,264,36635,2,0,P|72:244|34:226,1,84,8|0,3:0|0:0,0:0:0:0:
3,250,36984,6,0,L|43:384,1,140,6|8,3:2|0:0,0:0:0:0:
144,355,37507,1,2,0:0:0:0:
109,264,37682,2,0,P|117:230|128:196,2,70,2|0|0,3:2|3:0|0:0,0:0:0:0:
144,355,38205,1,10,0:0:0:0:
227,304,38379,6,0,P|258:288|290:274,1,70,2|2,0:0|3:2,0:0:0:0:
360,342,38728,2,0,P|392:355|423:371,1,70,10|0,0:0|0:0,0:0:0:0:
491,299,39077,2,0,P|492:264|479:231,1,70,2|0,3:2|3:0,0:0:0:0:
394,185,39426,1,8,0:0:0:0:
394,185,39600,1,2,0:0:0:0:
395,86,39775,6,0,P|464:86|513:39,2,140,2|10|2,3:2|0:0|3:2,0:0:0:0:
338,5,40647,1,0,3:0:0:0:
263,68,40821,2,0,P|232:51|200:37,1,70,10|0,0:0|0:0,0:0:0:0:
124,98,41170,5,2,3:2:0:0:
124,98,41344,1,0,3:0:0:0:
28,76,41519,2,0,P|20:41|25:7,1,70,10|0,0:0|0:0,0:0:0:0:
124,98,41868,2,0,L|106:165,1,70,2|0,3:2|3:0,0:0:0:0:
181,231,42216,1,10,0:0:0:0:
252,163,42391,1,2,0:0:0:0:
252,163,42478,1,0,0:0:0:0:
252,163,42565,6,0,L|231:96,2,70,2|0|12,3:2|3:0|0:0,0:0:0:0:
181,231,43089,1,2,0:0:0:0:
251,297,43263,2,0,P|282:282|314:268,1,70,2|2,3:2|3:2,0:0:0:0:
205,384,43612,2,0,P|159:358|112:335,1,105,14|0,0:0|0:0,0:0:0:0:
78,353,43961,6,0,L|89:284,1,70,2|0,3:2|3:0,0:0:0:0:
12,223,44310,2,0,P|77:240|135:203,1,140,12|2,0:0|3:2,0:0:0:0:
83,120,44833,1,2,3:2:0:0:
95,23,45007,2,0,P|127:11|161:1,1,70,14|0,0:0|0:0,0:0:0:0:
249,72,45356,6,0,B|234:113|253:141|273:170|257:208,2,140,6|10|2,3:2|0:0|3:2,0:0:0:0:
319,5,46228,1,0,3:0:0:0:
372,85,46403,1,10,0:0:0:0:
468,76,46577,1,0,3:0:0:0:
498,168,46751,6,0,P|433:192|368:217,1,140,6|2,3:2|0:0,0:0:0:0:
318,304,47275,1,2,0:0:0:0:
222,284,47449,1,10,0:0:0:0:
222,284,47623,2,0,P|186:226|205:160,1,140,0|2,3:0|3:2,0:0:0:0:
285,84,48147,6,0,P|297:112|308:142,1,62.9999980773926,6|2,3:2|0:0,0:0:0:0:
368,218,48496,2,0,P|358:247|349:278,1,62.9999980773926,2|0,0:0|3:0,0:0:0:0:
330,370,48844,1,10,0:0:0:0:
486,264,49193,1,2,0:0:0:0:
363,112,49542,6,0,P|335:128|307:142,1,62.9999980773926,2|8,3:2|0:0,0:0:0:0:
231,198,49891,2,0,P|203:182|176:165,1,62.9999980773926,2|0,0:0|3:0,0:0:0:0:
131,83,50239,1,10,0:0:0:0:
8,234,50588,1,2,0:0:0:0:
8,234,50763,1,2,3:2:0:0:
74,300,50937,6,0,P|86:323|101:356,2,62.9999980773926,6|2|2,3:2|0:0|0:0,0:0:0:0:
7,371,51461,1,0,3:0:0:0:
7,371,51635,1,10,0:0:0:0:
101,207,51984,1,2,0:0:0:0:
101,207,52158,1,0,3:0:0:0:
169,272,52333,6,0,P|199:285|225:299,1,62.9999980773926,2|8,3:2|0:0,0:0:0:0:
320,303,52682,2,0,P|348:287|376:273,1,62.9999980773926,2|0,0:0|3:0,0:0:0:0:
474,300,53030,2,0,L|440:178,1,125.999996154785,10|2,0:0|3:2,0:0:0:0:
393,95,53554,1,2,3:2:0:0:
346,173,53728,1,6,0:0:0:0:
166,223,54077,6,0,P|123:199|79:177,2,97.9999970092774,2|2|2,0:0|0:0|0:0,0:0:0:0:
246,57,55123,2,0,P|313:26|381:-1,1,146.999995513916,2|2,0:0|0:0,0:0:0:0:
465,38,55821,1,10,0:0:0:0:
481,129,55996,1,8,0:3:0:0:
404,181,56170,2,0,P|382:168|360:156,1,48.9999985046387,2|4,3:2|0:3,0:0:0:0:
312,242,56519,5,6,3:2:0:0:
312,242,56693,1,2,3:2:0:0:
218,273,56868,1,2,3:2:0:0:
218,273,57042,1,2,3:2:0:0:
145,206,57217,2,0,P|153:171|162:138,1,70,8|2,3:0|3:2,0:0:0:0:
96,65,57565,2,0,P|87:49|79:34,3,35,2|0|2|0,3:2|3:0|3:2|3:0,0:0:0:0:
94,0,57914,5,10,0:0:0:0:
22,106,58089,1,10,0:0:0:0:
91,361,58612,6,0,P|105:352|121:344,3,35,10|0|8|8,0:0|0:0|0:0|0:0,0:0:0:0:
170,345,58961,2,0,P|184:354|198:365,3,35,2|0|0|0,3:2|3:0|3:0|3:0,0:0:0:0:
247,363,59310,6,0,P|278:348|311:335,1,70,6|2,3:2|0:0,0:0:0:0:
429,294,59658,2,0,P|400:273|370:255,1,70,10|2,0:0|0:0,0:0:0:0:
271,243,60007,2,0,B|285:210|285:210|257:147|267:109,1,140,2|10,3:2|0:0,0:0:0:0:
233,15,60530,1,2,0:0:0:0:
332,32,60705,6,0,P|362:15|394:0,1,70,2|2,3:2|0:0,0:0:0:0:
435,92,61054,2,0,P|465:109|496:124,1,70,10|2,0:0|0:0,0:0:0:0:
510,224,61403,2,0,B|466:225|447:253|428:282|386:282,1,140,2|10,3:2|0:0,0:0:0:0:
352,376,61926,1,2,0:0:0:0:
270,311,62100,6,0,P|223:286|176:263,1,105,2|0,3:2|0:0,0:0:0:0:
153,287,62449,1,8,0:0:0:0:
85,213,62623,1,2,0:0:0:0:
2,272,62798,2,0,P|-3:305|8:338,1,70,2|0,3:2|0:0,0:0:0:0:
102,373,63147,1,10,0:0:0:0:
153,287,63321,1,0,0:0:0:0:
270,311,63496,6,0,P|279:275|288:243,1,70,2|0,3:2|0:0,0:0:0:0:
173,127,63844,2,0,P|188:158|201:191,1,70,10|0,0:0|0:0,0:0:0:0:
288,139,64193,2,0,P|318:120|348:103,1,70,2|0,3:2|0:0,0:0:0:0:
425,168,64542,1,8,0:0:0:0:
459,57,64716,1,2,0:0:0:0:
459,57,64804,1,2,0:0:0:0:
459,57,64891,6,0,B|424:43|424:43|406:15,1,70,6|2,3:2|0:0,0:0:0:0:
348,102,65240,2,0,P|282:76|216:52,1,140,10|2,0:0|3:2,0:0:0:0:
131,105,65763,1,2,0:0:0:0:
35,76,65937,2,0,P|24:42|27:8,1,70,10|2,0:0|0:0,0:0:0:0:
131,105,66286,5,2,3:2:0:0:
74,187,66461,2,0,L|62:256,1,70,2|10,0:0|0:0,0:0:0:0:
5,338,66810,2,0,P|70:357|131:326,1,140,2|2,0:0|0:0,0:0:0:0:
227,355,67333,2,0,P|259:367|291:381,1,70,8|2,0:0|0:0,0:0:0:0:
334,284,67682,5,6,3:2:0:0:
334,284,67856,1,2,3:2:0:0:
274,201,68030,2,0,P|246:222|212:225,1,70,10|2,0:0|3:2,0:0:0:0:
134,164,68379,1,10,0:0:0:0:
125,66,68554,1,2,3:2:0:0:
205,10,68728,1,10,0:0:0:0:
294,51,68903,6,0,B|338:52|357:80|376:109|418:109,1,140,6|0,3:2|3:0,0:0:0:0:
437,9,69426,1,8,0:0:0:0:
417,109,69600,2,0,B|395:215|395:215|402:234|411:242,1,140,6|0,3:2|3:0,0:0:0:0:
511,258,70123,1,8,0:0:0:0:
466,352,70298,1,0,3:0:0:0:
466,352,70385,1,0,3:0:0:0:
466,352,70472,6,0,P|433:364|402:380,1,70,6|2,3:2|0:0,0:0:0:0:
319,323,70821,2,0,P|302:292|302:257,1,70,10|0,0:0|0:0,0:0:0:0:
334,163,71170,2,0,P|286:210|219:200,1,140,2|10,3:2|0:0,0:0:0:0:
169,112,71692,1,2,0:0:0:0:
95,180,71867,6,0,P|111:210|126:242,1,70,2|2,3:2|0:0,0:0:0:0:
183,365,72216,2,0,P|193:332|207:300,1,70,10|2,0:0|0:0,0:0:0:0:
219,200,72565,2,0,B|252:214|252:214|315:186|353:196,1,140,2|10,3:2|0:0,0:0:0:0:
438,247,73088,1,2,0:0:0:0:
489,160,73263,5,2,3:2:0:0:
489,160,73437,1,2,0:0:0:0:
465,62,73612,2,0,P|433:46|401:33,1,70,10|2,0:0|0:0,0:0:0:0:
304,9,73960,1,2,3:2:0:0:
255,96,74134,1,2,0:0:0:0:
158,67,74310,2,0,P|146:33|134:0,1,70,10|2,0:0|0:0,0:0:0:0:
52,66,74658,6,0,P|37:97|39:132,1,70,2|2,3:2|0:0,0:0:0:0:
128,218,75007,2,0,P|64:189|0:163,2,140,10|2|10,0:0|3:2|0:0,0:0:0:0:
217,159,75879,1,0,3:0:0:0:
217,159,75966,1,0,3:0:0:0:
217,159,76053,6,0,P|248:141|279:126,1,70,6|0,3:2|0:0,0:0:0:0:
369,169,76403,1,2,0:0:0:0:
390,266,76577,1,2,3:2:0:0:
337,350,76751,2,0,P|271:365|215:328,1,140,10|2,0:0|0:0,0:0:0:0:
152,246,77275,1,2,3:2:0:0:
95,327,77448,5,10,0:0:0:0:
95,327,77623,1,0,3:0:0:0:
28,252,77798,2,0,P|14:219|0:187,1,70,10|0,0:0|3:0,0:0:0:0:
79,125,78147,1,10,0:0:0:0:
170,178,78321,1,4,0:3:0:0:
170,178,78408,1,0,3:0:0:0:
170,178,78496,2,0,P|161:212|152:246,1,70,2|2,3:2|3:2,0:0:0:0:
214,326,78844,6,0,B|241:317|256:306|256:306|310:340|348:330,1,140,6|2,3:2|3:2,0:0:0:0:
432,379,79368,1,2,0:0:0:0:
511,317,79542,2,0,P|509:282|494:251,1,70,2|4,3:2|0:3,0:0:0:0:
494,251,79804,1,8,0:3:0:0:
494,251,79890,1,10,0:2:0:0:
395,233,80065,1,10,0:0:0:0:
395,233,80153,1,8,0:0:0:0:
395,233,80240,6,0,P|405:181|415:130,1,105,6|0,3:2|0:0,0:0:0:0:
383,92,80589,2,0,P|374:76|366:61,3,35,10|8|8|8,0:0|0:0|0:3|0:3,0:0:0:0:
374,21,80937,1,8,0:0:0:0:
326,148,81112,1,8,0:0:0:0:
253,80,81286,2,0,P|218:64|176:46,1,84,2|0,0:0|0:0,0:0:0:0:
181,6,81635,6,0,P|155:29|121:34,1,70,6|0,3:2|0:0,0:0:0:0:
25,14,81984,2,0,P|17:48|12:82,1,70,2|0,3:2|0:0,0:0:0:0:
83,151,82333,1,10,0:0:0:0:
75,247,82507,2,0,B|51:274|51:274|17:269,1,70,10|0,0:0|3:0,0:0:0:0:
83,151,82856,6,0,B|127:152|146:180|165:209|207:209,1,140,10|2,0:0|0:0,0:0:0:0:
234,303,83380,2,0,P|264:286|296:271,1,70,2|2,3:2|0:0,0:0:0:0:
377,325,83728,1,8,0:0:0:0:
463,277,83903,1,8,0:0:0:0:
463,277,83990,1,8,0:0:0:0:
463,277,84077,2,0,P|466:259|471:243,2,35,0|0|0,3:0|3:0|3:0,0:0:0:0:
380,214,84426,5,6,3:2:0:0:
332,124,84600,2,0,P|346:113|360:104,2,35,8|8|0,0:0|0:0|3:0,0:0:0:0:
256,192,84949,2,0,P|221:185|195:163,1,70,6|8,3:2|0:0,0:0:0:0:
195,164,85210,1,8,0:0:0:0:
195,164,85298,1,0,3:0:0:0:
119,231,85472,5,6,3:2:0:0:
37,169,85647,2,0,P|30:152|22:137,2,35,8|8|0,0:0|0:0|3:0,0:0:0:0:
23,268,85996,2,0,P|6:298|4:333,1,70,6|8,3:2|0:0,0:0:0:0:
4,333,86257,1,8,0:0:0:0:
4,333,86345,1,0,3:0:0:0:
105,331,86519,5,10,0:0:0:0:
195,376,86693,1,10,0:0:0:0:
256,192,87042,5,6,3:2:0:0:
256,192,87129,12,0,88612,0:0:0:0:
