osu file format v14

[General]
AudioFilename: audio.mp3
AudioLeadIn: 0
PreviewTime: 58176
Countdown: 0
SampleSet: Soft
StackLeniency: 0.2
Mode: 0
LetterboxInBreaks: 0
WidescreenStoryboard: 1

[Editor]
Bookmarks: 705,14658,25821,36984,46751,59310,81635
DistanceSpacing: 1.2
BeatDivisor: 8
GridSize: 8
TimelineZoom: 2.4

[Metadata]
Title:Omoide Shiritori (TV Size)
TitleUnicode:おもいでしりとり (TV Size)
Artist:DIALOGUE+
ArtistUnicode:DIALOGUE+
Creator:Dored
Version:Irohas' Extra.
Source:ひげを剃る。そして女子高生を拾う。
Tags:Hige wo Soru Soshite Joshikousei wo Hirou I Shaved Then I Brought a High School Girl Home Higehiro Project No 9 Japanese Anime Jpop J-pop Pop Opening OP Irohas MugiwaraSekai Garden Rage Quit Misure Iceluin joker- Eir _kotachi_ -Brethia StrengeMistake
BeatmapID:3102238
BeatmapSetID:1515089

[Difficulty]
HPDrainRate:5.8
CircleSize:4.2
OverallDifficulty:8
ApproachRate:9.1
SliderMultiplier:1.6
SliderTickRate:1

[Events]
//Background and Video events
0,0,"BG.png",0,0
Video,0,"video.mp4"
//Break Periods
//Storyboard Layer 0 (Background)
//Storyboard Layer 1 (Fail)
//Storyboard Layer 2 (Pass)
//Storyboard Layer 3 (Foreground)
//Storyboard Layer 4 (Overlay)
//Storyboard Sound Samples

[TimingPoints]
-690,348.837209302326,4,2,1,40,1,0
2100,-125,4,2,1,40,0,0
6286,-111.111111111111,4,2,1,55,0,0
7682,-111.111111111111,4,2,1,65,0,0
9077,-111.111111111111,4,2,1,75,0,0
9775,-100,4,2,1,75,0,0
12914,-500,4,2,1,75,0,0
13437,-100,4,2,1,45,0,0
14135,-100,4,2,1,40,0,0
14179,-100,4,2,1,5,0,0
14484,-66.6666666666667,4,2,1,75,0,0
14658,-105.263157894737,4,2,1,75,0,0
20240,-76.9230769230769,4,2,1,75,0,0
20763,-66.6666666666667,4,2,1,75,0,0
22420,-66.6666666666667,4,2,1,5,0,0
22507,-200,4,2,1,75,0,0
22769,-200,4,2,1,5,0,0
22856,-105.263157894737,4,2,1,75,0,0
24339,-105.263157894737,4,2,1,5,0,0
24426,-105.263157894737,4,2,1,65,0,0
24469,-105.263157894737,4,2,1,5,0,0
24949,-105.263157894737,4,2,1,30,0,0
25472,-200,4,2,1,30,0,0
25821,-117.647058823529,4,2,2,45,0,0
36286,-117.647058823529,4,2,2,60,0,0
36984,-100,4,2,1,60,0,0
42391,-90.9090909090909,4,2,1,60,0,0
42565,-142.857142857143,4,2,1,60,0,0
42914,-76.9230769230769,4,2,1,60,0,0
43176,-76.9230769230769,4,2,1,5,0,0
43263,-142.857142857143,4,2,1,60,0,0
43612,-76.9230769230769,4,2,1,60,0,0
43873,-76.9230769230769,4,2,1,5,0,0
43961,-142.857142857143,4,2,1,60,0,0
44310,-76.9230769230769,4,2,1,60,0,0
44571,-76.9230769230769,4,2,1,5,0,0
44658,-142.857142857143,4,2,1,60,0,0
45007,-62.5,4,2,1,60,0,0
45269,-62.5,4,2,1,5,0,0
45356,-100,4,2,1,60,0,0
45443,-100,4,2,1,5,0,0
45705,-100,4,2,1,60,0,0
45966,-100,4,2,1,5,0,0
46054,-100,4,2,1,60,0,0
47449,-66.6666666666667,4,2,1,60,0,0
47536,-66.6666666666667,4,2,1,5,0,0
47623,-100,4,2,1,60,0,0
48147,-125,4,2,1,55,0,0
56519,-125,4,2,1,70,0,0
57914,-66.6666666666667,4,2,1,70,0,0
58001,-66.6666666666667,4,2,1,5,0,0
58089,-52.6315789473684,4,2,1,70,0,0
58176,-52.6315789473684,4,2,1,5,0,0
58263,-71.4285714285714,4,2,1,45,0,0
58525,-71.4285714285714,4,2,1,5,0,0
58612,-71.4285714285714,4,2,1,70,0,0
58873,-71.4285714285714,4,2,1,5,0,0
58961,-66.6666666666667,4,2,1,70,0,0
59135,-55.5555555555556,4,2,1,70,0,0
59310,-100,4,2,1,80,0,1
59484,-100,4,2,1,80,0,0
61751,-76.9230769230769,4,2,1,80,0,0
62100,-100,4,2,1,80,0,0
63408,-100,4,2,1,5,0,0
63496,-83.3333333333333,4,2,1,80,0,0
63757,-83.3333333333333,4,2,1,5,0,0
63844,-83.3333333333333,4,2,1,80,0,0
64106,-83.3333333333333,4,2,1,5,0,0
64193,-83.3333333333333,4,2,1,80,0,0
64455,-83.3333333333333,4,2,1,5,0,0
64542,-83.3333333333333,4,2,1,80,0,0
64891,-100,4,2,1,80,0,0
70123,-90.9090909090909,4,2,1,80,0,0
70385,-90.9090909090909,4,2,1,5,0,0
70472,-100,4,2,1,80,0,0
75356,-76.9230769230769,4,2,1,80,0,0
75443,-76.9230769230769,4,2,1,5,0,0
75705,-76.9230769230769,4,2,1,80,0,0
76054,-111.111111111111,4,2,1,80,0,0
77449,-90.9090909090908,4,2,1,80,0,0
78147,-100,4,2,1,80,0,0
78496,-125,4,2,1,80,0,0
78844,-100,4,2,1,80,0,0
78932,-100,4,2,1,5,0,0
79019,-100,4,2,1,80,0,0
79891,-76.9230769230769,4,2,1,80,0,0
80937,-66.6666666666667,4,2,1,80,0,0
81025,-66.6666666666667,4,2,1,5,0,0
81112,-66.6666666666667,4,2,1,80,0,0
81199,-66.6666666666667,4,2,1,5,0,0
81286,-166.666666666667,4,2,1,80,0,0
81548,-166.666666666667,4,2,1,5,0,0
81635,-105.263157894737,4,2,1,75,0,0
84426,-83.3333333333333,4,2,1,75,0,0
84775,-71.4285714285714,4,2,1,75,0,0
86170,-100,4,2,1,75,0,0
86344,-58.8235294117647,4,2,1,75,0,0
86519,-45.4545454545455,4,2,1,75,0,0
86606,-45.4545454545455,4,2,1,5,0,0
86693,-45.4545454545455,4,2,1,75,0,0
86780,-45.4545454545455,4,2,1,5,0,0
87042,-111.111111111111,4,2,1,75,0,0
87129,-111.111111111111,4,2,1,60,0,0
88612,-111.111111111111,4,2,1,20,0,0

[Colours]
Combo1 : 197,245,236
Combo2 : 250,214,177
Combo3 : 227,255,200
Combo4 : 208,232,255

[HitObjects]
12,384,2100,6,0,P|58:352|140:359,1,128,2|2,0:0|0:0,0:0:0:0:
266,226,2623,1,2,0:0:0:0:
217,299,2798,2,0,P|208:247|193:164,1,128,2|2,0:0|0:0,0:0:0:0:
292,56,3321,1,2,0:0:0:0:
292,56,3496,6,0,L|280:124,1,64,2|2,0:0|0:0,0:0:0:0:
365,203,3844,2,0,L|434:190,1,64,2|2,0:0|0:0,0:0:0:0:
280,281,4193,2,0,L|145:265,1,128,2|2,0:0|0:0,0:0:0:0:
69,208,4716,1,2,0:0:0:0:
0,384,4891,6,0,P|44:351|121:355,1,128,2|0,0:0|0:0,0:0:0:0:
280,281,5414,1,2,0:0:0:0:
224,203,5589,2,0,P|234:141|246:69,1,128,2|2,0:0|0:0,0:0:0:0:
317,12,6112,1,0,0:0:0:0:
128,127,6286,6,0,L|88:120,2,35.9999989013672,2|2|8,0:0|0:0|0:0,0:0:0:0:
31,20,6635,1,4,0:3:0:0:
224,203,6810,1,2,0:0:0:0:
230,208,6897,1,2,0:0:0:0:
236,213,6984,5,10,0:0:0:0:
324,233,7158,1,8,0:0:0:0:
409,191,7333,1,8,0:3:0:0:
430,103,7507,1,4,0:3:0:0:
116,314,7682,5,4,0:2:0:0:
116,314,8379,1,4,0:2:0:0:
116,314,9077,5,10,0:0:0:0:
72,120,9251,1,0,3:0:0:0:
116,314,9426,1,10,0:0:0:0:
72,120,9600,1,2,3:2:0:0:
235,213,9775,6,0,B|302:220|317:161|392:181,1,160,10|2,0:0|3:2,0:0:0:0:
478,106,10298,1,2,3:2:0:0:
409,28,10472,1,6,0:2:0:0:
204,384,10821,5,2,0:0:0:0:
229,283,10996,1,2,0:0:0:0:
319,331,11170,5,2,3:2:0:0:
271,153,11344,1,0,3:0:0:0:
375,198,11519,5,4,0:3:0:0:
397,99,11693,1,2,0:0:0:0:
420,2,11868,1,4,0:2:0:0:
227,140,12042,1,8,0:0:0:0:
216,142,12129,1,8,0:0:0:0:
205,144,12216,1,10,0:0:0:0:
177,114,12303,1,8,0:0:0:0:
141,98,12390,1,0,3:0:0:0:
102,96,12477,1,0,3:0:0:0:
64,110,12564,5,10,0:0:0:0:
172,384,12740,1,8,0:0:0:0:
264,327,12914,6,0,L|271:293,1,32,2|2,0:0|0:0,0:0:0:0:
201,228,13437,6,0,L|178:233,12,20,0|0|0|0|2|0|0|0|0|0|0|0|0,0:0|0:0|0:0|0:0|0:0|0:0|0:0|0:0|0:0|0:0|0:0|0:0|0:0,0:0:0:0:
307,128,14135,6,0,L|302:155,1,20,2|0,0:0|0:0,0:0:0:0:
211,0,14484,6,0,L|223:67,1,60.0000022888184,10|8,0:0|0:0,0:0:0:0:
307,128,14658,6,0,B|375:135|385:84|460:104,1,151.999995941162,4|2,0:2|3:2,0:0:0:0:
344,229,15182,1,0,0:0:0:0:
428,336,15356,2,0,L|448:246,1,75.9999979705811,10|10,0:0|0:0,0:0:0:0:
303,374,15705,1,0,3:0:0:0:
189,343,15879,6,0,L|26:371,1,151.999995941162,10|2,0:0|0:0,0:0:0:0:
147,163,16403,2,0,P|164:199|159:243,1,75.9999979705811,2|2,3:2|0:0,0:0:0:0:
49,99,16751,2,0,L|64:8,1,75.9999979705811,8|8,0:0|0:0,0:0:0:0:
152,35,17013,1,8,0:0:0:0:
163,29,17100,5,0,3:0:0:0:
200,24,17187,1,0,3:0:0:0:
235,38,17274,1,0,3:0:0:0:
258,68,17361,1,0,3:0:0:0:
265,105,17448,5,4,0:2:0:0:
265,105,17798,2,0,L|381:85,1,113.999996955872,2|0,3:2|0:0,0:0:0:0:
457,143,18147,2,0,L|444:217,1,75.9999979705811,10|8,0:0|0:0,0:0:0:0:
269,384,18496,1,0,3:0:0:0:
512,355,18670,6,0,P|457:314|375:320,1,151.999995941162,10|2,0:0|0:0,0:0:0:0:
235,226,19193,1,2,3:2:0:0:
346,155,19368,1,2,0:0:0:0:
183,317,19542,5,8,0:0:0:0:
171,315,19629,1,8,0:0:0:0:
160,313,19716,1,8,0:0:0:0:
149,311,19803,1,8,0:0:0:0:
124,293,19891,5,0,3:0:0:0:
86,293,19978,1,0,3:0:0:0:
54,313,20065,1,0,3:0:0:0:
37,346,20152,1,0,3:0:0:0:
39,384,20240,5,4,0:2:0:0:
172,217,20414,1,8,0:0:0:0:
177,214,20501,1,8,0:0:0:0:
182,210,20589,2,0,P|176:180|168:151,1,51.999997619629,0|0,3:0|3:0,0:0:0:0:
228,19,20763,6,0,B|280:11|323:5|323:5|284:150,1,240.000009155274,4|0,0:2|3:0,0:0:0:0:
359,209,21199,1,0,3:0:0:0:
369,205,21286,1,4,0:2:0:0:
512,67,21461,5,8,0:0:0:0:
479,53,21548,1,8,0:0:0:0:
444,62,21635,1,0,3:0:0:0:
421,88,21722,1,0,3:0:0:0:
418,124,21809,1,4,0:2:0:0:
484,337,21984,5,8,0:0:0:0:
488,324,22071,1,8,0:0:0:0:
486,310,22158,1,0,3:0:0:0:
490,297,22245,1,0,3:0:0:0:
467,278,22333,6,0,L|404:287,1,60.0000022888184,10|0,0:0|0:0,0:0:0:0:
266,358,22507,6,0,L|201:349,1,60,10|0,0:0|0:0,0:0:0:0:
118,275,22856,6,0,P|125:231|143:118,1,151.999995941162,4|0,0:2|3:0,0:0:0:0:
28,19,23379,2,0,P|35:61|43:110,1,75.9999979705811,8|0,0:0|0:0,0:0:0:0:
233,29,23728,2,0,P|198:14|157:18,1,75.9999979705811,0|0,3:0|0:0,0:0:0:0:
301,133,24077,2,0,L|426:115,1,113.999996955872,8|0,0:0|0:0,0:0:0:0:
504,46,24426,6,0,L|497:76,1,18.9999994926453,4|0,0:2|0:0,0:0:0:0:
261,364,24949,1,2,0:0:0:0:
272,360,25036,1,2,0:0:0:0:
282,358,25123,1,2,0:0:0:0:
456,244,25472,6,0,L|416:239,1,40,2|0,0:0|0:0,0:0:0:0:
389,329,25821,6,0,P|440:296|517:306,2,136.000002593994,4|10|10,0:2|0:0|0:0,0:0:0:0:
292,376,26693,1,0,0:0:0:0:
292,376,26868,2,0,L|219:367,1,68.0000012969971,8|2,0:0|3:2,0:0:0:0:
85,232,27216,1,2,3:2:0:0:
23,332,27391,2,0,L|96:323,1,68.0000012969971,2|10,0:0|0:0,0:0:0:0:
217,244,27740,1,0,0:0:0:0:
157,169,27914,6,0,P|165:119|179:25,1,136.000002593994,10|8,0:0|0:0,0:0:0:0:
62,107,28437,1,2,3:2:0:0:
279,0,28612,6,0,P|302:-2|361:89,2,136.000002593994,2|10|10,3:2|0:0|0:0,0:0:0:0:
17,242,29658,2,0,L|89:231,1,68.0000012969971,10|0,0:0|3:0,0:0:0:0:
181,286,30007,6,0,P|189:240|205:147,2,136.000002593994,2|10|10,3:2|0:0|0:0,0:0:0:0:
278,376,30879,1,0,0:0:0:0:
328,302,31054,1,8,0:0:0:0:
294,220,31228,1,2,0:0:0:0:
454,358,31403,5,2,3:2:0:0:
454,358,31751,2,0,P|465:329|466:283,1,68.0000012969971,10|2,0:0|0:0,0:0:0:0:
394,190,32100,2,0,P|455:201|515:156,1,136.000002593994,10|8,0:0|0:0,0:0:0:0:
433,100,32623,1,2,3:2:0:0:
285,243,32798,6,0,L|211:234,1,68.0000012969971,2|0,3:2|0:0,0:0:0:0:
74,171,33147,2,0,P|106:173|144:158,1,68.0000012969971,10|2,0:0|0:0,0:0:0:0:
126,335,33496,6,0,P|69:299|0:308,1,136.000002593994,10|8,0:0|0:0,0:0:0:0:
217,234,34019,1,10,0:0:0:0:
139,160,34193,6,0,P|143:125|153:87,1,68.0000012969971,2|0,3:2|0:0,0:0:0:0:
41,0,34542,2,0,L|55:77,1,68.0000012969971,10|0,0:0|0:0,0:0:0:0:
247,10,34891,2,0,P|211:4|173:-2,1,68.0000012969971,10|0,0:0|0:0,0:0:0:0:
382,84,35240,2,0,P|346:90|305:98,1,68.0000012969971,10|0,0:0|0:0,0:0:0:0:
450,0,35589,5,2,0:0:0:0:
277,384,36286,1,2,3:2:0:0:
354,329,36461,6,0,L|343:286,2,34.0000006484985,0|0|8,3:0|3:0|3:0,0:0:0:0:
435,214,36810,6,0,L|430:237,2,17.0000003242493,4|0|0,3:0|0:0|0:0,0:0:0:0:
361,163,36984,6,0,P|431:174|499:121,1,160,4|8,0:2|0:0,0:0:0:0:
407,70,37507,1,2,0:0:0:0:
197,266,37682,1,2,3:2:0:0:
285,357,37856,6,0,B|329:313|329:313|290:211,1,160,0|10,3:0|0:0,0:0:0:0:
179,180,38379,2,0,P|139:187|100:194,1,80,2|2,0:0|3:2,0:0:0:0:
332,0,38728,6,0,P|325:41|311:126,1,120,10|0,0:0|0:0,0:0:0:0:
402,192,39077,2,0,P|417:154|409:110,1,80,2|0,3:2|3:0,0:0:0:0:
288,248,39426,1,8,0:0:0:0:
431,325,39600,1,2,0:0:0:0:
277,384,39775,6,0,B|230:364|230:364|172:402|127:384,1,160,2|10,3:2|0:0,0:0:0:0:
33,210,40298,1,0,0:0:0:0:
14,313,40472,2,0,L|96:297,1,80,2|0,3:2|3:0,0:0:0:0:
78,98,40821,2,0,L|-4:114,1,80,10|0,0:0|0:0,0:0:0:0:
233,198,41170,6,0,P|305:228|382:204,1,160,2|10,3:2|0:0,0:0:0:0:
308,106,41693,1,0,0:0:0:0:
441,22,41868,2,0,L|422:112,1,80,2|0,3:2|3:0,0:0:0:0:
301,0,42216,5,10,0:0:0:0:
233,198,42391,6,0,L|242:248,1,44.0000013427735,2|0,0:0|0:0,0:0:0:0:
339,384,42565,6,0,P|343:351|354:319,1,55.9999982910157,2|0,3:2|3:0,0:0:0:0:
232,343,42914,6,0,P|166:354|63:373,1,155.999992858887,12|0,0:0|0:0,0:0:0:0:
0,264,43263,6,0,P|26:266|63:277,1,55.9999982910157,2|2,3:2|3:2,0:0:0:0:
155,171,43612,6,0,P|75:123|14:139,1,155.999992858887,14|0,0:0|0:0,0:0:0:0:
266,258,43961,6,0,L|330:247,1,55.9999982910157,2|0,3:2|3:0,0:0:0:0:
461,168,44310,6,0,P|448:242|433:323,1,155.999992858887,12|0,0:0|0:0,0:0:0:0:
338,126,44658,6,0,P|328:100|325:60,1,55.9999982910157,2|2,3:2|3:2,0:0:0:0:
240,217,45007,6,0,B|152:223|139:153|58:171,1,192,14|0,0:0|0:0,0:0:0:0:
0,97,45356,6,0,P|-4:83|1:96,1,40,4|0,0:2|0:0,0:0:0:0:
175,384,45705,6,0,P|207:353|287:351,1,120,10|0,0:0|0:0,0:0:0:0:
388,306,46054,2,0,P|380:349|373:390,1,80,2|0,3:2|3:0,0:0:0:0:
511,274,46403,1,10,0:0:0:0:
337,168,46577,1,0,3:0:0:0:
512,24,46751,6,0,B|512:-20|440:-40|375:-10|383:116|472:155,1,280,4|0,0:2|0:0,0:0:0:0:
381,290,47449,6,0,P|366:268|359:222,1,60.0000022888184,10|0,0:0|0:0,0:0:0:0:
278,183,47623,6,0,B|271:111|325:92|325:92|302:115|304:142,1,160,0|2,3:0|3:2,0:0:0:0:
302,133,48147,6,0,L|230:124,1,64,4|2,0:2|0:0,0:0:0:0:
157,80,48496,2,0,P|125:84|93:90,1,64,2|0,0:0|3:0,0:0:0:0:
0,40,48844,6,0,L|25:175,1,128,10|2,0:0|0:0,0:0:0:0:
100,225,49368,1,0,0:0:0:0:
20,305,49542,1,2,3:2:0:0:
111,379,49716,6,0,P|161:349|230:356,1,128,8|0,0:0|3:0,0:0:0:0:
447,306,50240,2,0,P|381:317|326:283,1,128,10|2,0:0|0:0,0:0:0:0:
261,210,50763,6,0,P|266:174|275:143,1,64,2|4,3:2|0:2,0:0:0:0:
98,73,51112,1,2,0:0:0:0:
145,0,51286,2,0,L|164:127,1,128,2|10,0:0|0:0,0:0:0:0:
491,132,51984,5,2,0:0:0:0:
398,26,52158,1,0,3:0:0:0:
352,105,52333,5,2,3:2:0:0:
414,302,52507,1,8,0:0:0:0:
329,249,52682,5,2,0:0:0:0:
334,230,52856,1,0,3:0:0:0:
512,384,53030,5,10,0:0:0:0:
238,183,53379,1,2,3:2:0:0:
161,235,53554,1,2,3:2:0:0:
67,218,53728,5,6,0:0:0:0:
67,218,55821,5,10,0:0:0:0:
184,93,55996,1,8,0:3:0:0:
39,4,56170,5,2,3:2:0:0:
67,87,56344,1,4,0:3:0:0:
20,384,56519,5,6,3:2:0:0:
98,312,56693,1,2,3:2:0:0:
198,323,56868,1,2,3:2:0:0:
295,202,57042,1,2,3:2:0:0:
371,267,57216,5,8,3:0:0:0:
292,51,57390,1,2,3:2:0:0:
403,131,57565,5,2,3:2:0:0:
300,380,57739,1,2,3:2:0:0:
512,302,57914,6,0,P|483:297|446:292,1,60.0000022888184,10|0,0:0|0:0,0:0:0:0:
295,202,58089,6,0,L|214:216,1,75.9999979705811,10|0,0:0|0:0,0:0:0:0:
0,185,58263,6,0,B|66:186|85:121|160:141,1,167.999994873047,2|0,0:0|0:0,0:0:0:0:
275,66,58612,6,0,P|198:17|115:43,1,167.999994873047,6|0,0:0|0:0,0:0:0:0:
75,269,58961,6,0,L|84:312,6,30.0000011444092,10|2|2|2|2|2|2,0:1|0:1|0:1|0:1|0:1|0:1|0:1,3:0:0:0:
35,382,59310,6,0,P|108:339|183:354,1,160,6|10,0:2|0:0,0:0:0:0:
332,280,59833,1,2,0:0:0:0:
213,164,60007,2,0,L|228:251,1,80,2|0,3:2|0:0,0:0:0:0:
331,69,60356,1,10,0:0:0:0:
171,9,60530,1,2,0:0:0:0:
338,165,60705,6,0,L|422:150,1,80,2|2,3:2|0:0,0:0:0:0:
512,229,61054,1,10,0:0:0:0:
356,384,61228,1,2,0:0:0:0:
356,384,61315,1,2,0:0:0:0:
356,384,61403,2,0,P|286:346|246:355,1,120,2|0,3:2|0:0,0:0:0:0:
178,285,61751,6,0,L|190:226,1,51.999997619629,10|0,0:0|0:0,0:0:0:0:
85,127,61926,2,0,L|97:186,1,51.999997619629,2|0,0:0|0:0,0:0:0:0:
207,5,62100,5,4,0:2:0:0:
207,5,62449,2,0,L|189:102,1,80,8|2,0:0|0:0,0:0:0:0:
307,216,62798,2,0,P|322:184|316:137,1,80,2|0,3:2|0:0,0:0:0:0:
64,282,63147,2,0,P|105:286|192:298,1,120,10|0,0:0|0:0,0:0:0:0:
273,384,63496,6,0,P|341:340|404:352,1,143.999995605469,2|0,3:2|0:0,0:0:0:0:
512,310,63844,6,0,B|501:277|523:240|523:240|500:277|462:280,1,143.999995605469,10|0,0:0|0:0,0:0:0:0:
404,212,64193,6,0,B|397:148|446:129|426:61,1,143.999995605469,2|0,3:2|0:0,0:0:0:0:
504,15,64542,6,0,P|509:-3|495:9,1,47.9999985351563,8|0,0:0|0:0,0:0:0:0:
326,97,64716,5,2,0:0:0:0:
326,97,64804,1,2,0:0:0:0:
326,97,64891,2,0,P|289:92|243:86,1,80,4|2,0:2|0:0,0:0:0:0:
94,20,65240,2,0,P|128:4|174:6,1,80,10|2,0:0|0:0,0:0:0:0:
246,86,65589,1,2,3:2:0:0:
96,188,65763,1,2,0:0:0:0:
201,279,65937,2,0,P|209:236|218:187,1,80,10|2,0:0|0:0,0:0:0:0:
104,337,66286,5,2,3:2:0:0:
332,244,66461,1,2,0:0:0:0:
151,115,66635,1,10,0:0:0:0:
319,373,66810,6,0,B|355:337|402:345|402:345|432:370|466:362,1,160,2|2,0:0|0:0,0:0:0:0:
201,279,67333,2,0,P|145:289|107:296,1,80,8|2,0:0|0:0,0:0:0:0:
0,223,67682,1,4,0:2:0:0:
139,142,67856,1,2,3:2:0:0:
44,57,68031,5,10,0:0:0:0:
100,304,68205,1,2,3:2:0:0:
42,44,68379,5,10,0:0:0:0:
100,304,68554,1,2,3:2:0:0:
40,30,68728,5,10,0:0:0:0:
217,375,68903,6,0,B|274:356|274:356|320:401|373:382,1,160,4|0,0:2|3:0,0:0:0:0:
414,117,69426,1,8,0:0:0:0:
511,224,69600,2,0,P|451:234|343:253,1,160,4|0,0:2|3:0,0:0:0:0:
171,215,70123,6,0,P|198:182|285:177,1,132.00000402832,8|0,0:0|0:0,0:0:0:0:
353,251,70472,6,0,L|338:339,1,80,4|2,0:2|0:0,0:0:0:0:
282,175,70821,1,10,0:0:0:0:
468,294,70996,1,0,0:0:0:0:
239,384,71170,2,0,P|186:352|129:360,1,120,2|0,3:2|0:0,0:0:0:0:
0,280,71519,2,0,P|39:284|79:269,1,80,10|2,0:0|0:0,0:0:0:0:
147,172,71868,6,0,P|140:134|131:86,1,80,2|2,3:2|0:0,0:0:0:0:
309,290,72216,2,0,P|317:247|324:204,1,80,10|2,0:0|0:0,0:0:0:0:
194,275,72565,1,2,3:2:0:0:
405,384,72740,2,0,L|394:333,2,40,2|2|10,0:0|0:0|0:0,0:0:0:0:
481,268,73089,6,0,P|491:261|477:265,1,40,2|0,0:0|0:0,0:0:0:0:
396,344,73263,5,4,0:2:0:0:
463,146,73437,1,2,0:0:0:0:
289,271,73612,1,10,0:0:0:0:
512,384,73786,1,2,0:0:0:0:
266,372,73961,6,0,P|229:376|187:385,1,80,2|2,3:2|0:0,0:0:0:0:
9,339,74310,2,0,P|43:318|87:317,1,80,10|2,0:0|0:0,0:0:0:0:
278,252,74658,2,0,P|234:260|198:247,1,80,2|2,3:2|0:0,0:0:0:0:
136,170,75007,2,0,P|146:111|156:47,1,120,10|0,0:0|0:0,0:0:0:0:
80,0,75356,6,0,P|63:-10|72:6,1,51.999997619629,8|0,0:2|0:0,0:0:0:0:
278,252,75705,5,10,0:0:0:0:
352,187,75879,5,0,3:0:0:0:
424,230,76054,6,0,P|432:187|451:75,1,143.999995605469,6|2,0:2|0:0,0:0:0:0:
380,11,76577,1,2,3:2:0:0:
264,130,76751,6,0,P|194:97|126:111,1,143.999995605469,10|2,0:0|0:0,0:0:0:0:
0,36,77275,5,2,3:2:0:0:
10,45,77449,2,0,L|105:26,1,88.000002685547,10|0,0:0|3:0,0:0:0:0:
24,226,77798,6,0,P|7:188|21:136,1,88.000002685547,10|0,0:0|3:0,0:0:0:0:
131,364,78147,6,0,P|91:371|52:379,1,80,10|0,0:0|0:3,0:0:0:0:
245,286,78496,6,0,L|320:297,1,64,2|2,3:2|3:2,0:0:0:0:
396,230,78844,6,0,P|388:207|386:188,1,40,4|0,0:2|0:0,0:0:0:0:
396,230,79193,5,2,3:2:0:0:
404,191,79280,1,2,0:0:0:0:
431,163,79368,1,2,0:0:0:0:
471,155,79455,1,2,0:0:0:0:
507,171,79542,5,2,3:2:0:0:
506,179,79629,1,8,0:3:0:0:
501,188,79716,1,4,0:3:0:0:
493,193,79804,1,8,0:3:0:0:
482,194,79891,5,10,0:2:0:0:
446,157,79978,5,8,0:0:0:0:
431,108,80065,5,10,0:0:0:0:
438,56,80152,5,8,0:0:0:0:
467,14,80239,5,4,0:2:0:0:
467,14,80589,6,0,L|501:9,6,25.9999988098145,8|2|2|2|2|2|2,0:0|0:1|0:1|0:1|0:1|0:1|0:1,0:0:0:0:
362,69,80937,6,0,L|302:60,1,60.0000022888184,8|0,0:0|0:0,0:0:0:0:
197,13,81112,6,0,L|137:21,1,60.0000022888184,8|0,0:0|0:0,0:0:0:0:
45,84,81286,6,0,B|19:90|12:115|12:115|19:100|32:97,1,71.9999978027344,2|0,0:0|0:0,0:0:0:0:
45,84,81635,6,0,P|40:122|25:241,1,151.999995941162,4|2,0:2|3:2,0:0:0:0:
112,357,82158,1,2,0:0:0:0:
112,357,82246,1,2,0:0:0:0:
112,357,82333,2,0,P|124:321|120:280,1,75.9999979705811,10|10,0:0|0:0,0:0:0:0:
8,323,82682,1,0,3:0:0:0:
234,384,82856,6,0,B|293:394|315:339|384:358,1,151.999995941162,10|2,0:0|0:0,0:0:0:0:
490,217,83379,2,0,L|474:304,1,75.9999979705811,2|2,3:2|0:0,0:0:0:0:
263,119,83728,1,8,0:0:0:0:
468,27,83903,5,8,0:0:0:0:
431,20,83990,1,8,0:0:0:0:
397,36,84077,1,0,3:0:0:0:
378,68,84164,1,0,3:0:0:0:
382,106,84251,1,0,3:0:0:0:
395,111,84339,1,0,3:0:0:0:
408,114,84426,5,4,0:2:0:0:
302,217,84600,1,8,0:0:0:0:
290,214,84687,1,8,0:0:0:0:
276,211,84775,1,0,3:0:0:0:
283,266,84862,1,0,3:0:0:0:
290,322,84949,1,4,0:2:0:0:
298,375,85036,1,0,0:0:0:0:
287,384,85123,6,0,L|223:375,1,55.9999982910157,8|8,0:0|0:0,0:0:0:0:
132,336,85298,6,0,L|75:345,1,55.9999982910157,0|0,3:0|3:0,0:0:0:0:
0,285,85472,5,4,0:2:0:0:
215,109,85647,1,8,0:0:0:0:
185,62,85734,1,8,0:0:0:0:
133,44,85821,1,0,3:0:0:0:
81,63,85908,1,0,3:0:0:0:
68,61,85996,5,4,0:2:0:0:
55,60,86083,1,0,0:0:0:0:
41,84,86170,6,0,L|46:126,1,40,8|8,0:0|0:0,0:0:0:0:
107,221,86344,6,0,L|96:293,1,68.0000012969971,0|0,3:0|3:0,0:0:0:0:
187,384,86519,6,0,P|226:359|274:361,1,88.000002685547,10|0,0:0|0:0,0:0:0:0:
439,274,86693,6,0,P|392:282|355:267,1,88.000002685547,10|0,0:0|0:0,0:0:0:0:
41,84,87042,6,0,B|110:88|161:8|161:8|106:71|74:169|78:276|170:328|270:298|273:218|269:168|233:136|195:132,1,647.99998022461,4|0,0:2|0:0,0:0:0:0:
