osu file format v14

[General]
AudioFilename: audio.mp3
AudioLeadIn: 0
PreviewTime: 58176
Countdown: 0
SampleSet: Soft
StackLeniency: 0.3
Mode: 0
LetterboxInBreaks: 0
WidescreenStoryboard: 1

[Editor]
Bookmarks: 705,7682,14658,25821,36984,48147,59310,81635
DistanceSpacing: 1.1
BeatDivisor: 2
GridSize: 32
TimelineZoom: 1.2

[Metadata]
Title:Omoide Shiritori (TV Size)
TitleUnicode:おもいでしりとり (TV Size)
Artist:DIALOGUE+
ArtistUnicode:DIALOGUE+
Creator:Dored
Version:Iceluin's Normal.
Source:ひげを剃る。そして女子高生を拾う。
Tags:Hige wo Soru Soshite Joshikousei wo Hirou I Shaved Then I Brought a High School Girl Home Higehiro Project No 9 Japanese Anime Jpop J-pop Pop Opening OP Irohas MugiwaraSekai Garden Rage Quit Misure Iceluin joker- Eir _kotachi_ -Brethia StrengeMistake
BeatmapID:3104674
BeatmapSetID:1515089

[Difficulty]
HPDrainRate:4
CircleSize:3
OverallDifficulty:4
ApproachRate:5
SliderMultiplier:0.999999999999999
SliderTickRate:1

[Events]
//Background and Video events
Video,0,"video.mp4"
0,0,"BG.png",0,0
//Break Periods
//Storyboard Layer 0 (Background)
//Storyboard Layer 1 (Fail)
//Storyboard Layer 2 (Pass)
//Storyboard Layer 3 (Foreground)
//Storyboard Layer 4 (Overlay)
//Storyboard Sound Samples

[TimingPoints]
-690,348.837209302326,4,2,1,35,1,0
705,-100,4,2,1,35,0,0
7682,-100,4,2,1,55,0,0
14658,-100,4,2,1,65,0,0
25821,-100,4,2,2,45,0,0
36984,-100,4,2,1,65,0,0
48147,-100,4,2,1,55,0,0
59310,-100,4,2,1,75,0,0
81635,-100,4,2,1,65,0,0
88612,-100,4,2,1,35,0,0

[Colours]
Combo1 : 252,249,114
Combo2 : 241,184,141
Combo3 : 208,180,235
Combo4 : 155,189,240

[HitObjects]
128,128,705,6,0,B|97:128|48:40|158:-8|216:31|180:85|242:111|303:100,1,300,2|2,0:0|0:0,0:0:0:0:
403,53,2100,6,0,P|419:99|403:145,1,99.9999999999999,2|2,0:0|0:0,0:0:0:0:
365,186,2623,2,0,L|365:236,1,50,2|2,0:0|0:0,0:0:0:0:
451,304,3147,1,2,0:0:0:0:
365,372,3496,2,0,L|265:372,1,99.9999999999999,2|2,0:0|0:0,0:0:0:0:
209,372,4019,2,0,L|209:322,1,50,2|2,0:0|0:0,0:0:0:0:
124,251,4542,1,2,0:0:0:0:
40,322,4891,6,0,B|16:290|16:290|16:180,1,150,2|2,0:0|0:0,0:0:0:0:
16,124,5589,1,2,0:0:0:0:
87,40,5937,1,2,0:0:0:0:
157,124,6286,2,0,L|208:124,1,50,2|8,0:0|0:0,0:0:0:0:
262,124,6635,1,4,0:3:0:0:
332,208,6984,2,0,L|382:208,1,50,10|8,0:0|0:0,0:0:0:0:
422,246,7333,2,0,L|472:246,1,50,8|4,0:3|0:3,0:0:0:0:
512,208,7682,6,0,B|491:173|500:126|524:146|534:99|511:67,1,150,6|2,3:2|0:0,0:0:0:0:
472,26,8379,2,0,P|426:10|380:26,1,99.9999999999999,6|2,3:2|0:0,0:0:0:0:
297,101,9077,2,0,B|251:120|251:120|205:101,1,99.9999999999999,10|10,0:0|0:0,0:0:0:0:
155,78,9600,1,2,3:2:0:0:
155,78,9775,1,10,0:0:0:0:
74,153,10123,2,0,L|74:203,1,50,2|2,3:2|3:2,0:0:0:0:
28,234,10472,6,0,P|12:280|28:326,1,99.9999999999999,6|2,3:2|0:0,0:0:0:0:
74,357,10996,1,2,0:0:0:0:
74,357,11170,1,2,3:2:0:0:
151,279,11519,2,0,L|201:279,1,50,4|2,0:3|0:0,0:0:0:0:
256,279,11868,2,0,B|264:256|264:256|252:219|252:219|265:182|265:182|252:146|252:146|264:109|264:109|256:89,1,200,6|10,3:2|0:0,0:0:0:0:
256,34,12740,1,8,0:0:0:0:
448,192,14135,5,2,0:0:0:0:
494,349,14658,6,0,P|448:365|402:349,1,99.9999999999999,6|2,3:2|3:2,0:0:0:0:
329,264,15356,2,0,L|329:214,2,50,10|10|0,0:0|0:0|3:0,0:0:0:0:
290,303,15879,2,0,P|244:319|198:303,1,99.9999999999999,10|2,0:0|0:0,0:0:0:0:
156,264,16403,2,0,B|156:214,1,50,2|2,3:2|0:0,0:0:0:0:
156,159,16751,1,8,0:0:0:0:
73,85,17100,1,0,3:0:0:0:
156,13,17449,6,0,B|256:13,1,99.9999999999999,6|2,3:2|3:2,0:0:0:0:
338,85,18147,2,0,L|402:85,2,50,10|8|0,0:0|0:0|3:0,0:0:0:0:
300,125,18670,2,0,L|300:225,1,99.9999999999999,10|2,0:0|0:0,0:0:0:0:
262,265,19193,2,0,L|262:326,1,50,2|2,3:2|0:0,0:0:0:0:
300,354,19542,1,8,0:0:0:0:
400,308,19891,1,0,3:0:0:0:
499,354,20240,6,0,P|515:308|499:262,1,99.9999999999999,6|0,3:2|3:0,0:0:0:0:
466,216,20763,1,6,3:2:0:0:
512,57,21286,2,0,P|466:41|420:57,1,99.9999999999999,6|0,3:2|3:0,0:0:0:0:
374,90,21809,1,6,3:2:0:0:
229,9,22333,1,10,0:0:0:0:
229,9,22507,1,10,0:0:0:0:
141,75,22856,6,0,B|95:96|95:96|49:74,1,99.9999999999999,6|0,3:2|3:0,0:0:0:0:
1,48,23379,2,0,L|1:148,1,99.9999999999999,8|0,0:0|3:0,0:0:0:0:
0,203,23903,1,0,0:0:0:0:
0,203,24077,1,8,0:0:0:0:
96,256,24426,1,6,3:2:0:0:
352,64,25821,6,0,P|398:48|444:64,1,99.9999999999999,6|10,3:2|0:0,0:0:0:0:
486,100,26344,1,2,0:0:0:0:
486,100,26519,1,10,0:0:0:0:
397,165,26868,2,0,L|397:214,1,50,8|2,0:0|3:2,0:0:0:0:
429,258,27216,2,0,P|445:304|429:350,1,99.9999999999999,2|10,3:2|0:0,0:0:0:0:
329,301,27914,1,10,0:0:0:0:
230,350,28263,1,8,0:0:0:0:
131,301,28612,6,0,L|28:301,1,99.9999999999999,2|10,3:2|0:0,0:0:0:0:
31,190,29310,2,0,L|131:190,1,99.9999999999999,10|10,0:0|0:0,0:0:0:0:
186,190,29833,1,0,3:0:0:0:
186,190,30007,2,0,P|170:144|186:98,2,99.9999999999999,2|10|10,3:2|0:0|0:0,0:0:0:0:
271,259,31054,1,8,0:0:0:0:
357,190,31403,6,0,L|457:190,1,99.9999999999999,2|10,3:2|0:0,0:0:0:0:
512,190,31926,1,2,0:0:0:0:
512,190,32100,1,10,0:0:0:0:
512,80,32449,2,0,B|462:80,1,50,8|2,0:0|3:2,0:0:0:0:
420,43,32798,2,0,L|320:43,1,99.9999999999999,2|10,3:2|0:0,0:0:0:0:
264,43,33321,1,2,0:0:0:0:
264,43,33496,1,10,0:0:0:0:
182,116,33844,1,8,0:0:0:0:
264,188,34193,6,0,P|280:234|264:280,1,99.9999999999999,2|10,3:2|0:0,0:0:0:0:
182,355,34891,2,0,P|136:371|90:355,1,99.9999999999999,10|10,0:0|0:0,0:0:0:0:
7,280,35589,1,2,0:0:0:0:
7,60,36286,2,0,L|57:60,1,50,2|0,3:2|3:0,0:0:0:0:
112,60,36635,1,8,3:0:0:0:
211,13,36984,6,0,L|311:13,1,99.9999999999999,6|8,3:2|0:0,0:0:0:0:
366,13,37507,1,2,0:0:0:0:
366,13,37682,2,0,L|366:73,1,50,2|0,3:2|3:0,0:0:0:0:
446,137,38205,1,10,0:0:0:0:
446,137,38379,2,0,L|496:137,2,50,2|2|10,0:0|3:2|0:0,0:0:0:0:
366,213,39077,2,0,L|316:213,1,50,2|0,3:2|3:0,0:0:0:0:
261,213,39426,1,8,0:0:0:0:
180,137,39775,6,0,P|134:121|88:137,1,99.9999999999999,2|10,3:2|0:0,0:0:0:0:
49,177,40298,1,0,0:0:0:0:
49,177,40472,2,0,L|49:276,1,99.9999999999999,2|10,3:2|0:0,0:0:0:0:
119,361,41170,1,2,3:2:0:0:
190,277,41519,1,10,0:0:0:0:
260,361,41868,2,0,L|360:361,1,99.9999999999999,2|10,3:2|0:0,0:0:0:0:
407,332,42391,1,2,0:0:0:0:
407,332,42565,6,0,L|457:332,1,50,2|0,3:2|3:0,0:0:0:0:
512,332,42914,1,12,0:0:0:0:
512,221,43263,2,0,L|462:221,1,50,2|2,3:2|3:2,0:0:0:0:
407,221,43612,1,14,0:0:0:0:
407,110,43961,2,0,L|457:110,1,50,2|0,3:2|3:0,0:0:0:0:
512,110,44310,1,12,0:0:0:0:
512,0,44658,2,0,L|462:0,1,50,2|2,3:2|3:2,0:0:0:0:
407,0,45007,1,14,0:0:0:0:
310,55,45356,6,0,P|264:71|218:55,1,99.9999999999999,6|10,3:2|0:0,0:0:0:0:
177,15,45879,1,0,0:0:0:0:
177,15,46054,2,0,L|127:15,1,50,2|0,3:2|3:0,0:0:0:0:
72,15,46403,1,10,0:0:0:0:
0,98,46751,2,0,B|31:137|15:206|-16:180|-31:246|0:284,1,200,6|10,3:2|0:0,0:0:0:0:
41,322,47623,1,0,3:0:0:0:
186,243,48147,6,0,B|246:243|246:243|271:228|271:228|331:228,1,150,6|0,3:2|3:0,0:0:0:0:
386,228,48844,2,0,L|386:128,1,99.9999999999999,10|2,0:0|0:0,0:0:0:0:
496,128,49542,1,2,3:2:0:0:
496,128,49716,2,0,L|496:228,1,99.9999999999999,8|0,0:0|3:0,0:0:0:0:
496,283,50240,1,10,0:0:0:0:
424,366,50589,2,0,L|374:366,1,50,2|2,0:0|3:2,0:0:0:0:
331,331,50937,6,0,B|271:331|271:331|246:346|246:346|186:346,1,150,6|0,3:2|3:0,0:0:0:0:
142,310,51635,2,0,L|42:310,1,99.9999999999999,10|2,0:0|0:0,0:0:0:0:
42,199,52333,1,2,3:2:0:0:
42,199,52507,2,0,L|142:199,1,99.9999999999999,8|0,0:0|3:0,0:0:0:0:
197,199,53030,1,10,0:0:0:0:
267,114,53379,1,2,3:2:0:0:
197,28,53728,5,6,0:0:0:0:
416,288,55821,6,0,L|367:288,1,50,10|8,0:0|0:3,0:0:0:0:
311,288,56170,1,2,3:2:0:0:
247,199,56519,6,0,L|197:199,2,50,6|2|2,3:2|3:2|3:2,0:0:0:0:
275,151,57042,2,0,L|327:151,2,50,2|8|2,3:2|3:0|3:2,0:0:0:0:
247,103,57565,2,0,L|197:103,1,50,2|2,3:2|3:2,0:0:0:0:
145,107,57914,1,10,0:0:0:0:
145,107,58089,1,10,0:0:0:0:
0,32,58612,6,0,B|0:73|0:73|-12:105|-12:105|0:138|0:138|0:177,1,150,10|0,0:0|3:0,0:0:0:0:
43,211,59310,6,0,L|43:268,2,50,6|2|10,3:2|0:0|0:0,0:0:0:0:
94,186,59833,1,2,0:0:0:0:
94,186,60007,2,0,L|194:186,1,99.9999999999999,2|10,3:2|0:0,0:0:0:0:
245,217,60530,1,2,0:0:0:0:
245,217,60705,2,0,L|245:267,2,50,2|2|10,3:2|0:0|0:0,0:0:0:0:
293,187,61228,1,2,0:0:0:0:
293,187,61403,2,0,P|278:140|294:93,1,99.9999999999999,2|10,3:2|0:0,0:0:0:0:
403,93,62100,6,0,P|418:140|402:187,1,99.9999999999999,2|8,3:2|0:0,0:0:0:0:
376,237,62623,1,2,0:0:0:0:
376,237,62798,1,2,3:2:0:0:
461,305,63147,1,10,0:0:0:0:
376,375,63496,2,0,L|276:375,2,99.9999999999999,2|10|2,3:2|0:0|3:2,0:0:0:0:
461,305,64542,1,8,0:0:0:0:
376,237,64891,6,0,L|326:237,1,50,6|2,3:2|0:0,0:0:0:0:
284,273,65240,2,0,L|184:273,1,99.9999999999999,10|2,0:0|3:2,0:0:0:0:
143,243,65763,1,2,0:0:0:0:
143,243,65937,1,10,0:0:0:0:
68,323,66286,2,0,L|68:373,2,50,2|2|10,3:2|0:0|0:0,0:0:0:0:
23,289,66810,2,0,P|6:242|23:196,1,99.9999999999999,2|2,0:0|0:0,0:0:0:0:
68,164,67333,1,8,0:0:0:0:
143,83,67682,6,0,B|243:83,1,99.9999999999999,6|10,3:2|0:0,0:0:0:0:
302,87,68205,1,2,3:2:0:0:
302,87,68379,2,0,L|302:145,1,50,10|2,0:0|3:2,0:0:0:0:
306,196,68728,1,10,0:0:0:0:
306,196,68903,1,6,3:2:0:0:
221,265,69251,2,0,L|221:315,1,50,0|8,3:0|0:0,0:0:0:0:
259,354,69600,2,0,P|305:368|352:353,1,99.9999999999999,6|0,3:2|3:0,0:0:0:0:
392,315,70123,1,8,0:0:0:0:
462,230,70472,6,0,L|512:230,2,50,6|2|10,3:2|0:0|0:0,0:0:0:0:
428,193,70995,1,0,0:0:0:0:
428,193,71170,2,0,L|428:94,1,99.9999999999999,2|10,3:2|0:0,0:0:0:0:
462,51,71693,1,2,0:0:0:0:
462,51,71867,2,0,L|519:51,2,50,2|2|10,3:2|0:0|0:0,0:0:0:0:
432,12,72390,1,2,0:0:0:0:
432,12,72565,2,0,L|333:12,1,99.9999999999999,2|10,3:2|0:0,0:0:0:0:
256,92,73263,6,0,L|256:142,1,50,2|2,3:2|0:0,0:0:0:0:
225,188,73612,2,0,L|225:238,1,50,10|2,0:0|0:0,0:0:0:0:
256,283,73961,2,0,L|306:283,2,50,2|2|10,3:2|0:0|0:0,0:0:0:0:
225,329,74484,1,2,0:0:0:0:
225,329,74658,2,0,L|175:329,1,50,2|2,3:2|0:0,0:0:0:0:
119,329,75007,1,10,0:0:0:0:
18,373,75356,2,0,P|2:327|19:281,1,99.9999999999999,2|10,3:2|0:0,0:0:0:0:
109,217,76054,6,0,L|109:117,1,99.9999999999999,6|2,3:2|0:0,0:0:0:0:
113,65,76577,1,2,3:2:0:0:
113,65,76751,2,0,L|213:65,1,99.9999999999999,10|2,0:0|0:0,0:0:0:0:
309,118,77449,2,0,P|325:164|308:210,1,99.9999999999999,10|10,0:0|0:0,0:0:0:0:
273,254,77972,1,0,3:0:0:0:
273,254,78147,1,10,0:0:0:0:
344,337,78496,2,0,L|394:337,1,50,2|2,3:2|3:2,0:0:0:0:
448,337,78844,6,0,L|448:237,1,99.9999999999999,6|2,3:2|3:2,0:0:0:0:
449,185,79368,1,2,0:0:0:0:
449,185,79542,1,2,3:2:0:0:
512,95,79891,2,0,L|512:45,1,50,10|10,0:2|0:0,0:0:0:0:
470,8,80240,2,0,B|390:8|390:8|356:29|356:29|276:29,1,200,6|8,3:2|0:0,0:0:0:0:
220,29,81112,1,8,0:0:0:0:
220,193,81635,6,0,P|267:178|313:193,1,99.9999999999999,6|2,3:2|3:2,0:0:0:0:
352,296,82333,2,0,L|402:296,2,50,10|10|0,0:0|0:0|3:0,0:0:0:0:
313,335,82856,2,0,P|266:350|219:335,1,99.9999999999999,10|2,0:0|0:0,0:0:0:0:
180,296,83380,2,0,B|130:296,1,50,2|2,3:2|0:0,0:0:0:0:
75,296,83728,1,8,0:0:0:0:
0,215,84077,1,0,3:0:0:0:
75,134,84426,6,0,B|175:134,1,99.9999999999999,6|0,3:2|3:0,0:0:0:0:
230,134,84949,1,6,3:2:0:0:
340,11,85472,2,0,B|440:11,1,99.9999999999999,6|0,3:2|3:0,0:0:0:0:
495,11,85995,1,6,3:2:0:0:
499,180,86519,1,10,0:0:0:0:
499,180,86693,1,10,0:0:0:0:
417,253,87042,5,6,3:2:0:0:
256,192,87216,12,0,88612,0:0:0:0:
