osu file format v14

[General]
AudioFilename: audio.mp3
AudioLeadIn: 0
PreviewTime: 58176
Countdown: 0
SampleSet: Soft
StackLeniency: 0.7
Mode: 0
LetterboxInBreaks: 0
WidescreenStoryboard: 0

[Editor]
DistanceSpacing: 0.6
BeatDivisor: 4
GridSize: 32
TimelineZoom: 1.4

[Metadata]
Title:Omoide Shiritori (TV Size)
TitleUnicode:おもいでしりとり (TV Size)
Artist:DIALOGUE+
ArtistUnicode:DIALOGUE+
Creator:Dored
Version:Garden's Insane.
Source:ひげを剃る。そして女子高生を拾う。
Tags:Hige wo Soru Soshite Joshikousei wo Hirou I Shaved Then I Brought a High School Girl Home Higehiro Project No 9 Japanese Anime Jpop J-pop Pop Opening OP Irohas MugiwaraSekai Garden Rage Quit Misure Iceluin joker- Eir _kotachi_ -Brethia StrengeMistake
BeatmapID:3103557
BeatmapSetID:1515089

[Difficulty]
HPDrainRate:5
CircleSize:4
OverallDifficulty:8
ApproachRate:9
SliderMultiplier:1.8
SliderTickRate:1

[Events]
//Background and Video events
0,0,"BG.png",0,0
Video,0,"video.mp4"
//Break Periods
//Storyboard Layer 0 (Background)
//Storyboard Layer 1 (Fail)
//Storyboard Layer 2 (Pass)
//Storyboard Layer 3 (Foreground)
//Storyboard Layer 4 (Overlay)
//Storyboard Sound Samples

[TimingPoints]
-690,348.837209302326,4,2,1,40,1,0
530,-100,4,2,1,30,0,0
705,-125,4,2,1,40,0,0
4455,-125,4,2,1,5,0,0
4542,-125,4,2,1,40,0,0
5850,-125,4,2,1,5,0,0
5937,-125,4,2,1,40,0,0
6461,-125,4,2,1,55,0,0
6984,-100,4,2,1,55,0,0
7682,-111.111111111111,4,2,1,65,0,0
7943,-111.111111111111,4,2,1,5,0,0
8030,-111.111111111111,4,2,1,65,0,0
8641,-111.111111111111,4,2,1,5,0,0
8728,-111.111111111111,4,2,1,65,0,0
9077,-90.9090909090908,4,2,1,75,0,0
10734,-90.9090909090908,4,2,1,5,0,0
10821,-111.111111111111,4,2,1,75,0,0
11868,-83.3333333333333,4,2,1,75,0,0
14135,-111.111111111111,4,2,1,40,0,0
14484,-99.9999999999999,4,2,1,75,0,0
14920,-99.9999999999999,4,2,1,5,0,0
15007,-99.9999999999999,4,2,1,75,0,0
15530,-133.333333333333,4,2,1,75,0,0
15879,-99.9999999999999,4,2,1,75,0,0
17711,-99.9999999999999,4,2,1,5,0,0
17798,-99.9999999999999,4,2,1,75,0,0
18321,-133.333333333333,4,2,1,75,0,0
18670,-99.9999999999999,4,2,1,75,0,0
24426,-111.111111111111,4,2,1,65,0,0
24949,-166.666666666667,4,2,1,30,0,0
25821,-125,4,2,2,45,0,0
36286,-125,4,2,1,55,0,0
36984,-111.111111111111,4,2,1,60,0,0
37246,-111.111111111111,4,2,1,5,0,0
37333,-111.111111111111,4,2,1,60,0,0
38990,-111.111111111111,4,2,1,5,0,0
39077,-111.111111111111,4,2,1,60,0,0
40036,-111.111111111111,4,2,1,5,0,0
40123,-111.111111111111,4,2,1,60,0,0
40385,-111.111111111111,4,2,1,5,0,0
40472,-111.111111111111,4,2,1,60,0,0
41780,-111.111111111111,4,2,1,5,0,0
41868,-111.111111111111,4,2,1,60,0,0
42565,-99.9999999999999,4,2,1,60,0,0
45356,-111.111111111111,4,2,1,60,0,0
45618,-111.111111111111,4,2,1,5,0,0
45705,-111.111111111111,4,2,1,75,0,0
47972,-133.333333333333,4,2,1,55,0,0
48844,-100,4,2,1,55,0,0
49542,-133.333333333333,4,2,1,55,0,0
50240,-100,4,2,1,55,0,0
50937,-133.333333333333,4,2,1,55,0,0
51635,-100,4,2,1,55,0,0
52333,-133.333333333333,4,2,1,55,0,0
53030,-100,4,2,1,55,0,0
53728,-125,4,2,1,40,0,0
55821,-111.111111111111,4,2,1,55,0,0
56519,-99.9999999999999,4,2,1,70,0,0
58612,-83.3333333333333,4,2,1,70,0,0
59310,-90.9090909090909,4,2,1,80,0,1
59397,-90.9090909090909,4,2,1,80,0,0
75356,-90.9090909090909,4,2,1,80,0,0
75618,-90.9090909090909,4,2,1,5,0,0
75705,-90.9090909090909,4,2,1,80,0,0
76315,-90.9090909090909,4,2,1,5,0,0
76403,-90.9090909090909,4,2,1,80,0,0
77013,-90.9090909090909,4,2,1,5,0,0
77100,-90.9090909090909,4,2,1,80,0,0
78844,-90.9090909090909,4,2,1,80,0,0
79106,-90.9090909090909,4,2,1,5,0,0
79193,-90.9090909090909,4,2,1,80,0,0
80240,-100,4,2,1,80,0,0
80589,-83.3333333333333,4,2,1,80,0,0
81112,-100,4,2,1,80,0,0
81635,-100,4,2,1,75,0,0
81897,-100,4,2,1,5,0,0
81984,-100,4,2,1,75,0,0
87129,-100,4,2,1,60,0,0
88612,-100,4,2,1,20,0,0

[Colours]
Combo1 : 252,249,114
Combo2 : 241,184,141
Combo3 : 208,180,235
Combo4 : 155,189,240

[HitObjects]
198,116,530,6,0,L|191:86,3,30,2|2|2|2,0:0|0:0|0:0|0:0,0:0:0:0:
114,39,879,1,0,0:0:0:0:
114,39,1054,2,0,L|39:29,1,72,2|0,0:0|0:0,0:0:0:0:
196,0,1403,1,2,0:0:0:0:
117,133,1577,1,0,0:0:0:0:
117,133,1751,2,0,L|133:203,1,72,2|0,0:0|0:0,0:0:0:0:
264,349,2100,5,2,0:0:0:0:
337,276,2275,1,2,0:0:0:0:
244,263,2449,1,2,0:0:0:0:
359,366,2623,1,2,0:0:0:0:
244,263,2798,2,0,P|233:195|221:106,1,144,2|2,0:0|0:0,0:0:0:0:
222,120,3321,1,2,0:0:0:0:
371,0,3496,6,0,P|365:35|355:70,1,72,2|2,0:0|0:0,0:0:0:0:
320,164,3844,2,0,P|360:155|398:150,1,72,2|2,0:0|0:0,0:0:0:0:
267,39,4193,2,0,P|235:9|162:15,1,108,2|0,0:0|0:0,0:0:0:0:
153,21,4542,2,0,P|147:54|139:91,1,72,2|2,0:0|0:0,0:0:0:0:
9,210,4891,5,2,0:0:0:0:
9,210,5414,1,2,0:0:0:0:
76,150,5589,2,0,P|127:138|170:168,1,108,2|0,0:0|0:0,0:0:0:0:
180,188,5937,2,0,P|217:176|250:172,1,72,2|0,0:0|0:0,0:0:0:0:
103,248,6286,6,0,L|93:303,2,36,2|2|8,0:0|0:0|0:0,0:0:0:0:
193,374,6635,2,0,P|242:356|265:308,1,108,4|0,0:3|0:0,0:0:0:0:
264,285,6984,2,0,P|243:277|221:269,1,45,10|0,0:0|0:0,0:0:0:0:
365,214,7158,1,8,0:0:0:0:
373,322,7333,1,8,0:3:0:0:
261,179,7507,1,4,0:3:0:0:
478,71,7682,6,0,P|489:128|447:168,1,121.499996292114,6|0,3:2|0:0,0:0:0:0:
443,195,8030,2,0,P|401:202|350:220,1,80.9999975280763,2|2,0:0|0:0,0:0:0:0:
166,108,8379,2,0,P|231:94|297:74,1,121.499996292114,6|0,3:2|0:0,0:0:0:0:
303,71,8728,1,2,0:0:0:0:
147,15,8903,1,2,0:0:0:0:
261,179,9077,5,10,0:0:0:0:
73,233,9251,1,0,3:0:0:0:
280,174,9426,1,10,0:0:0:0:
75,115,9600,1,2,3:2:0:0:
257,285,9775,2,0,P|313:268|358:256,1,99.0000030212403,10|4,0:0|0:3,0:0:0:0:
420,51,10123,5,2,3:2:0:0:
280,174,10298,1,2,3:2:0:0:
418,334,10472,2,0,P|463:278|441:200,1,148.50000453186,6|0,3:2|0:0,0:0:0:0:
425,183,10821,1,2,3:2:0:0:
318,375,10996,1,2,3:2:0:0:
178,264,11170,2,0,P|222:276|264:286,1,80.9999975280763,2|0,3:2|3:0,0:0:0:0:
118,384,11519,5,4,0:3:0:0:
352,257,11693,1,4,0:3:0:0:
77,118,11868,1,6,3:2:0:0:
185,317,12042,1,8,0:0:0:0:
185,317,12129,1,8,0:0:0:0:
185,317,12216,2,0,L|175:247,1,53.9999983520508,10|8,0:0|0:0,0:0:0:0:
239,131,12391,2,0,L|246:184,1,53.9999983520508,0|0,3:0|3:0,0:0:0:0:
88,285,12565,5,10,0:0:0:0:
337,156,12740,1,8,0:0:0:0:
353,153,14135,6,0,B|338:216|338:216|313:230|313:230|298:296,1,161.999995056153,2|10,0:0|0:0,0:0:0:0:
266,376,14571,1,8,0:0:0:0:
266,376,14658,6,0,P|326:322|388:338,1,135,6|0,3:2|0:0,0:0:0:0:
399,345,15007,2,0,P|442:326|489:314,1,90,2|0,3:2|0:0,0:0:0:0:
444,178,15356,1,10,0:0:0:0:
483,315,15530,2,0,P|494:281|498:248,1,67.5000025749208,10|0,0:0|3:0,0:0:0:0:
479,81,15879,6,0,P|434:153|316:139,1,180,10|2,0:0|0:0,0:0:0:0:
286,45,16403,2,0,P|335:56|388:73,1,90,2|2,3:2|0:0,0:0:0:0:
171,210,16751,1,8,0:0:0:0:
273,279,16926,1,8,0:0:0:0:
273,279,17013,1,8,0:0:0:0:
273,279,17100,2,0,L|264:226,1,45,0|0,3:0|3:0,0:0:0:0:
264,139,17275,1,0,3:0:0:0:
264,139,17362,1,0,3:0:0:0:
264,139,17449,6,0,P|232:199|144:196,1,135,6|0,3:2|0:0,0:0:0:0:
144,192,17798,2,0,P|93:202|37:223,1,90,2|0,3:2|0:0,0:0:0:0:
200,73,18147,1,10,0:0:0:0:
57,214,18321,2,0,P|64:180|76:140,1,67.5000025749208,8|0,0:0|3:0,0:0:0:0:
64,0,18670,6,0,P|117:73|218:62,1,180,10|2,0:0|0:0,0:0:0:0:
326,4,19193,2,0,P|309:49|299:101,1,90,2|2,3:2|0:0,0:0:0:0:
462,226,19542,2,0,P|478:180|489:129,1,90,8|8,0:0|0:0,0:0:0:0:
469,119,19804,1,8,0:0:0:0:
444,107,19891,1,0,3:0:0:0:
417,108,19978,1,0,3:0:0:0:
393,120,20065,1,0,3:0:0:0:
377,142,20153,1,0,3:0:0:0:
367,169,20240,6,0,P|332:181|272:193,1,90,6|8,3:2|0:0,0:0:0:0:
249,194,20501,1,8,0:0:0:0:
248,194,20589,2,0,L|261:135,1,45,0|0,3:0|3:0,0:0:0:0:
214,75,20763,6,0,P|171:82|111:96,1,90,6|8,3:2|0:0,0:0:0:0:
98,105,21025,1,8,0:0:0:0:
98,105,21112,2,0,P|91:138|85:157,1,45,0|0,3:0|3:0,0:0:0:0:
0,254,21286,6,0,P|50:242|98:236,1,90,6|8,3:2|0:0,0:0:0:0:
127,239,21548,1,8,0:0:0:0:
127,239,21635,2,0,P|118:270|112:306,1,45,0|0,3:0|3:0,0:0:0:0:
175,348,21810,6,0,P|225:339|269:331,1,90,6|8,3:2|0:0,0:0:0:0:
298,330,22071,1,8,0:0:0:0:
297,329,22158,2,0,P|302:307|309:285,1,45,0|0,3:0|3:0,0:0:0:0:
232,228,22333,5,10,0:0:0:0:
382,384,22507,1,10,0:0:0:0:
382,384,22856,6,0,P|398:299|422:202,1,180,6|0,3:2|3:0,0:0:0:0:
512,61,23379,2,0,P|491:96|425:103,1,90,8|0,0:0|0:0,0:0:0:0:
354,136,23641,1,0,3:0:0:0:
354,136,23728,2,0,P|364:89|377:37,1,90,0|0,3:0|0:0,0:0:0:0:
179,312,24077,2,0,P|224:299|266:292,1,90,8|0,0:0|0:0,0:0:0:0:
398,218,24426,6,0,P|311:221|266:156,1,161.999995056153,6|0,3:2|0:0,0:0:0:0:
169,197,24949,1,2,0:0:0:0:
169,197,25036,1,2,0:0:0:0:
169,197,25123,2,0,P|185:147|198:86,1,107.999996704102,2|2,0:0|0:0,0:0:0:0:
196,92,25821,6,0,P|152:34|82:47,1,144,6|10,3:2|0:0,0:0:0:0:
0,11,26344,1,2,0:0:0:0:
0,11,26519,2,0,P|14:76|27:160,1,144,10|8,0:0|0:0,0:0:0:0:
110,200,27042,1,2,3:2:0:0:
28,252,27216,6,0,P|31:289|43:327,1,72,2|2,3:2|0:0,0:0:0:0:
198,333,27565,2,0,P|267:329|308:384,2,144,10|10|8,0:0|0:0|0:0,0:0:0:0:
198,333,28437,1,2,3:2:0:0:
41,322,28612,6,0,P|82:306|123:290,1,72,2|0,3:2|0:0,0:0:0:0:
196,242,28961,2,0,P|183:207|171:162,1,72,10|0,0:0|0:0,0:0:0:0:
43,69,29310,2,0,P|64:135|88:227,1,144,10|10,0:0|0:0,0:0:0:0:
151,79,29833,1,0,3:0:0:0:
151,79,30007,6,0,P|230:75|266:4,1,144,2|10,3:2|0:0,0:0:0:0:
451,44,30705,2,0,P|372:48|336:119,1,144,10|8,0:0|0:0,0:0:0:0:
337,96,31228,1,2,0:0:0:0:
260,204,31403,6,0,P|330:187|401:176,1,144,2|10,3:2|0:0,0:0:0:0:
477,232,31926,1,2,0:0:0:0:
477,232,32100,2,0,P|496:282|424:347,1,144,10|8,0:0|0:0,0:0:0:0:
257,328,32623,1,2,3:2:0:0:
342,384,32798,6,0,P|349:343|361:301,1,72,2|0,3:2|0:0,0:0:0:0:
297,241,33147,1,10,0:0:0:0:
297,241,33321,1,2,0:0:0:0:
257,328,33496,2,0,P|172:341|105:354,1,144,10|8,0:0|0:0,0:0:0:0:
115,351,34019,1,10,0:0:0:0:
9,383,34193,6,0,P|22:336|31:295,1,72,2|0,3:2|0:0,0:0:0:0:
140,189,34542,2,0,P|129:223|120:258,1,72,10|0,0:0|0:0,0:0:0:0:
0,152,34891,2,0,P|34:140|67:127,1,72,10|0,0:0|0:0,0:0:0:0:
289,214,35240,2,0,P|254:225|221:238,1,72,10|0,0:0|0:0,0:0:0:0:
140,189,35589,5,2,0:0:0:0:
140,189,36286,2,0,P|148:144|167:93,1,72,2|0,3:2|3:0,0:0:0:0:
176,99,36548,1,0,3:0:0:0:
176,99,36635,2,0,P|241:103|272:60,1,108,8|0,3:0|0:0,0:0:0:0:
304,3,36984,6,0,P|389:3|418:92,1,161.999995056153,6|8,3:2|0:0,0:0:0:0:
422,63,37507,2,0,P|476:47|519:41,1,80.9999975280763,2|2,0:0|3:2,0:0:0:0:
351,129,37856,2,0,P|339:188|327:276,1,121.499996292114,0|0,3:0|0:0,0:0:0:0:
329,272,38205,1,10,0:0:0:0:
497,367,38379,6,0,P|504:324|516:274,1,80.9999975280763,2|2,0:0|3:2,0:0:0:0:
414,297,38728,2,0,P|333:309|254:326,1,161.999995056153,10|2,0:0|3:2,0:0:0:0:
254,326,39251,1,0,3:0:0:0:
261,167,39426,2,0,P|298:180|325:217,1,80.9999975280763,8|2,0:0|0:0,0:0:0:0:
144,384,39775,6,0,P|157:319|189:209,2,161.999995056153,2|10|2,3:2|0:0|3:2,0:0:0:0:
144,384,40647,1,0,3:0:0:0:
6,294,40821,2,0,P|37:261|90:257,1,80.9999975280763,10|0,0:0|0:0,0:0:0:0:
182,226,41170,5,2,3:2:0:0:
182,226,41344,1,0,3:0:0:0:
70,253,41519,2,0,P|85:187|108:122,1,121.499996292114,10|0,0:0|0:0,0:0:0:0:
118,109,41868,2,0,P|97:74|48:63,1,80.9999975280763,2|0,3:2|3:0,0:0:0:0:
209,61,42216,1,10,0:0:0:0:
209,61,42391,1,2,0:0:0:0:
207,155,42565,6,0,P|280:142|340:135,1,135,2|0,3:2|0:0,0:0:0:0:
372,135,42914,2,0,P|382:85|393:37,1,90,12|2,0:0|0:0,0:0:0:0:
461,189,43263,6,0,P|446:253|426:346,1,135,2|0,3:2|0:0,0:0:0:0:
423,350,43612,2,0,P|473:342|514:338,1,90,14|0,0:0|0:0,0:0:0:0:
339,276,43961,6,0,P|265:288|205:295,1,135,2|0,3:2|0:0,0:0:0:0:
174,296,44310,2,0,P|164:346|153:394,1,90,12|2,0:0|0:0,0:0:0:0:
85,242,44658,6,0,P|99:177|120:85,1,135,2|0,3:2|0:0,0:0:0:0:
123,81,45007,2,0,P|72:88|32:93,1,90,14|0,0:0|0:0,0:0:0:0:
210,155,45356,5,6,3:2:0:0:
210,155,45705,2,0,P|302:140|335:64,1,161.999995056153,10|2,0:0|3:2,0:0:0:0:
401,187,46228,1,0,3:0:0:0:
240,67,46403,1,10,0:0:0:0:
455,0,46577,1,0,3:0:0:0:
295,177,46751,6,0,P|280:235|269:299,1,121.499996292114,6|0,3:2|0:0,0:0:0:0:
265,320,47100,2,0,P|243:323|177:337,1,80.9999975280763,2|2,0:0|0:0,0:0:0:0:
6,248,47449,1,10,0:0:0:0:
47,384,47623,2,0,B|52:347|64:325|64:325|93:308|93:308|104:278|102:241,1,161.999995056153,0|2,3:0|3:2,0:0:0:0:
0,93,48147,6,0,B|120:102|64:162|183:166,1,202.500007724762,6|0,3:2|3:0,0:0:0:0:
174,67,48844,2,0,P|217:17|283:15,1,135,10|0,0:0|0:0,0:0:0:0:
311,23,49193,2,0,P|303:67|298:112,1,90,2|0,0:0|0:0,0:0:0:0:
403,66,49542,5,2,3:2:0:0:
299,210,49716,2,0,B|380:199|342:164|421:158,1,135.000005149842,8|0,0:0|3:0,0:0:0:0:
512,139,50240,2,0,P|517:203|460:245,1,135,10|0,0:0|0:0,0:0:0:0:
437,253,50589,2,0,P|427:300|421:342,1,90,2|2,0:0|3:2,0:0:0:0:
322,297,50937,6,0,B|204:280|255:370|110:350,1,202.500007724762,6|0,3:2|3:0,0:0:0:0:
28,319,51635,2,0,P|59:261|123:249,1,135,10|0,0:0|0:0,0:0:0:0:
149,260,51984,2,0,P|160:212|176:166,1,90,2|0,0:0|3:0,0:0:0:0:
68,23,52333,5,2,3:2:0:0:
182,77,52507,2,0,B|105:75|138:122|52:117,1,135.000005149842,8|0,0:0|3:0,0:0:0:0:
299,0,53030,2,0,P|287:43|278:87,1,90,10|0,0:0|0:0,0:0:0:0:
344,226,53379,1,2,3:2:0:0:
368,132,53554,1,2,3:2:0:0:
245,236,53728,1,6,0:0:0:0:
58,167,55821,6,0,P|39:170|20:182,1,40.4999987640381,10|0,0:0|0:0,0:0:0:0:
141,263,55996,1,8,0:3:0:0:
141,263,56170,2,0,P|147:223|155:183,1,80.9999975280763,2|4,3:2|0:3,0:0:0:0:
401,104,56519,5,6,3:2:0:0:
241,237,56693,1,2,3:2:0:0:
440,303,56868,1,2,3:2:0:0:
281,118,57042,5,2,3:2:0:0:
315,338,57216,1,8,3:0:0:0:
502,200,57391,1,2,3:2:0:0:
499,186,57478,1,0,3:0:0:0:
497,172,57565,1,2,3:2:0:0:
494,157,57653,1,0,3:0:0:0:
491,143,57740,2,0,L|511:90,1,45,2|0,3:2|3:0,0:0:0:0:
368,217,57914,5,10,0:0:0:0:
368,217,58089,1,10,0:0:0:0:
368,217,58612,6,0,P|378:181|389:153,1,53.9999983520508,10|0,0:0|0:0,0:0:0:0:
329,61,58786,1,8,0:0:0:0:
329,61,58873,1,8,0:0:0:0:
329,61,58961,2,0,P|317:96|309:121,1,53.9999983520508,2|0,3:2|3:0,0:0:0:0:
471,183,59135,2,0,P|478:157|486:131,1,53.9999983520508,0|0,3:0|3:0,0:0:0:0:
428,30,59310,5,6,3:2:0:0:
368,217,59484,1,2,0:0:0:0:
216,137,59658,2,0,P|269:124|320:109,1,99.0000030212403,10|2,0:0|0:0,0:0:0:0:
394,323,60007,2,0,P|322:321|277:265,1,148.50000453186,2|0,3:2|0:0,0:0:0:0:
269,237,60356,2,0,P|222:247|151:268,1,99.0000030212403,10|2,0:0|0:0,0:0:0:0:
40,92,60705,5,2,3:2:0:0:
196,154,60879,1,2,0:0:0:0:
66,279,61054,2,0,P|75:230|89:182,1,99.0000030212403,10|2,0:0|0:0,0:0:0:0:
275,21,61403,2,0,P|320:47|321:113,1,99.0000030212403,2|0,3:2|0:0,0:0:0:0:
196,154,61751,2,0,B|282:148|239:201|354:192,1,148.50000453186,10|0,0:0|0:0,0:0:0:0:
410,248,62100,6,0,P|429:151|459:57,1,198.000006042481,2|8,3:2|0:0,0:0:0:0:
512,199,62623,1,2,0:0:0:0:
366,352,62798,2,0,P|428:337|477:329,1,99.0000030212403,2|0,3:2|0:0,0:0:0:0:
299,279,63147,2,0,P|227:274|185:346,1,148.50000453186,10|0,0:0|0:0,0:0:0:0:
167,361,63496,6,0,P|138:300|117:266,1,99.0000030212403,2|0,3:2|0:0,0:0:0:0:
189,95,63844,2,0,P|214:53|235:8,1,99.0000030212403,10|0,0:0|0:0,0:0:0:0:
24,133,64193,2,0,B|146:130|82:203|231:197,1,198.000006042481,2|8,3:2|0:0,0:0:0:0:
381,89,64716,1,2,0:0:0:0:
342,252,64891,6,0,P|310:215|308:166,1,99.0000030212403,6|2,3:2|0:0,0:0:0:0:
349,0,65240,1,10,0:0:0:0:
477,65,65414,5,2,0:0:0:0:
477,65,65501,1,2,0:0:0:0:
477,65,65589,2,0,P|431:78|362:91,1,99.0000030212403,2|2,3:2|0:0,0:0:0:0:
245,275,65937,2,0,P|291:262|360:249,1,99.0000030212403,10|2,0:0|0:0,0:0:0:0:
428,185,66286,1,2,3:2:0:0:
281,71,66461,1,2,0:0:0:0:
441,195,66635,1,10,0:0:0:0:
321,348,66810,6,0,P|327:299|340:252,1,99.0000030212403,2|0,0:0|3:0,0:0:0:0:
453,89,67158,2,0,B|335:104|399:159|267:174,1,198.000006042481,2|2,0:0|0:0,0:0:0:0:
145,285,67682,2,0,P|192:272|253:261,1,99.0000030212403,6|2,3:2|3:2,0:0:0:0:
281,71,68030,5,10,0:0:0:0:
167,179,68205,1,2,3:2:0:0:
107,17,68379,1,10,0:0:0:0:
279,172,68554,1,2,3:2:0:0:
47,279,68728,1,10,0:0:0:0:
299,165,68903,2,0,P|387:204|382:304,1,198.000006042481,6|0,3:2|3:0,0:0:0:0:
284,384,69426,1,8,0:0:0:0:
284,384,69600,6,0,P|291:358|298:336,1,49.5000015106202,6|0,3:2|0:0,0:0:0:0:
480,261,69775,2,0,P|433:275|387:294,1,99.0000030212403,2|0,0:0|3:0,0:0:0:0:
190,101,70123,2,0,P|204:140|310:158,1,148.50000453186,8|0,0:0|0:0,0:0:0:0:
384,199,70472,6,0,P|393:150|406:102,1,99.0000030212403,6|2,3:2|0:0,0:0:0:0:
495,165,70821,1,10,0:0:0:0:
495,165,70996,1,0,0:0:0:0:
331,46,71170,2,0,P|255:33|186:15,1,148.50000453186,2|0,3:2|0:0,0:0:0:0:
151,5,71519,2,0,P|104:36|97:85,1,99.0000030212403,10|2,0:0|0:0,0:0:0:0:
22,238,71868,5,2,3:2:0:0:
195,130,72042,1,2,0:0:0:0:
4,29,72216,1,10,0:0:0:0:
213,130,72391,1,2,0:0:0:0:
126,284,72565,2,0,P|120:225|112:182,1,99.0000030212403,2|2,3:2|0:0,0:0:0:0:
94,159,72827,1,2,0:0:0:0:
94,159,72914,2,0,P|43:129|-15:141,1,99.0000030212403,10|2,0:0|0:0,0:0:0:0:
224,236,73263,5,2,3:2:0:0:
311,85,73437,1,2,0:0:0:0:
112,185,73612,1,10,0:0:0:0:
333,284,73786,1,2,0:0:0:0:
134,384,73961,5,2,3:2:0:0:
388,181,74135,1,2,0:0:0:0:
191,32,74310,1,10,0:0:0:0:
400,189,74484,1,2,0:0:0:0:
226,329,74658,6,0,P|238:281|255:234,1,99.0000030212403,2|2,3:2|0:0,0:0:0:0:
431,91,75007,2,0,P|385:147|314:149,1,148.50000453186,10|0,0:0|0:0,0:0:0:0:
234,97,75356,6,0,P|248:49|265:3,1,99.0000030212403,2|0,3:2|0:0,0:0:0:0:
175,178,75705,1,10,0:0:0:0:
175,178,75879,1,0,3:0:0:0:
154,20,76054,6,0,P|229:35|367:76,1,198.000006042481,6|2,3:2|0:0,0:0:0:0:
380,155,76577,1,2,3:2:0:0:
451,0,76751,2,0,P|460:73|477:145,1,148.50000453186,10|0,0:0|0:0,0:0:0:0:
512,224,77100,2,0,P|464:232|403:254,1,99.0000030212403,2|2,0:0|3:2,0:0:0:0:
229,62,77449,5,10,0:0:0:0:
380,155,77623,1,0,3:0:0:0:
179,258,77798,1,10,0:0:0:0:
395,146,77972,1,0,3:0:0:0:
169,0,78147,2,0,P|192:70|208:142,1,148.50000453186,10|0,0:0|0:0,0:0:0:0:
216,167,78496,5,2,3:2:0:0:
90,92,78670,1,2,3:2:0:0:
179,258,78844,2,0,P|273:251|308:195,1,148.50000453186,6|0,3:2|0:0,0:0:0:0:
308,174,79193,2,0,P|360:187|414:197,1,99.0000030212403,2|2,3:2|0:0,0:0:0:0:
315,0,79542,1,2,3:2:0:0:
377,101,79716,5,4,0:3:0:0:
377,101,79804,1,8,0:3:0:0:
377,101,79891,2,0,P|384:66|390:43,1,49.5000015106202,10|8,0:2|0:0,0:0:0:0:
480,44,80065,2,0,P|473:79|467:102,1,49.5000015106202,10|8,0:0|0:0,0:0:0:0:
404,195,80240,6,0,P|360:184|315:177,1,90,6|0,3:2|0:0,0:0:0:0:
108,182,80589,1,10,0:0:0:0:
91,209,80676,1,8,0:0:0:0:
97,240,80763,1,8,0:3:0:0:
118,264,80850,1,8,0:3:0:0:
149,272,80937,2,0,P|175:267|201:260,1,53.9999983520508,8|0,0:0|0:0,0:0:0:0:
203,172,81112,2,0,B|221:64|267:117|286:5,1,180,8|0,0:0|0:0,0:0:0:0:
446,117,81635,6,0,P|407:169|342:171,1,135,6|0,3:2|0:0,0:0:0:0:
310,158,81984,2,0,P|295:214|288:258,1,90,2|0,3:2|0:0,0:0:0:0:
485,251,82333,1,10,0:0:0:0:
367,384,82507,2,0,P|382:328|389:284,1,90,10|0,0:0|3:0,0:0:0:0:
257,379,82856,6,0,B|151:377|200:309|74:319,1,180,10|2,0:0|0:0,0:0:0:0:
0,161,83379,2,0,P|40:174|99:185,1,90,2|2,3:2|0:0,0:0:0:0:
254,133,83728,1,8,0:0:0:0:
177,247,83903,1,8,0:0:0:0:
177,247,83990,1,8,0:0:0:0:
177,247,84077,2,0,L|185:185,1,45,0|0,3:0|3:0,0:0:0:0:
158,116,84251,1,0,3:0:0:0:
158,116,84339,1,0,3:0:0:0:
158,116,84426,6,0,P|165:65|178:16,1,90,6|8,3:2|0:0,0:0:0:0:
208,16,84687,1,8,0:0:0:0:
208,16,84775,2,0,L|279:4,1,45,0|0,3:0|3:0,0:0:0:0:
417,70,84949,6,0,P|372:75|328:83,1,90,6|8,3:2|0:0,0:0:0:0:
294,95,85211,1,8,0:0:0:0:
294,95,85298,2,0,P|286:128|284:153,1,45,0|0,3:0|3:0,0:0:0:0:
353,285,85472,6,0,P|359:240|367:196,1,90,6|8,3:2|0:0,0:0:0:0:
397,175,85734,1,8,0:0:0:0:
397,175,85821,2,0,P|423:171|449:168,1,45,0|0,3:0|3:0,0:0:0:0:
263,307,85996,6,0,P|217:312|158:319,1,90,6|8,3:2|0:0,0:0:0:0:
141,326,86257,1,8,0:0:0:0:
141,326,86344,2,0,P|133:359|130:384,1,45,0|0,3:0|3:0,0:0:0:0:
0,252,86519,5,10,0:0:0:0:
0,252,86693,2,0,P|52:248|106:238,1,90,10|0,0:0|0:0,0:0:0:0:
256,192,87042,5,6,3:2:0:0:
256,192,87129,12,0,88612,0:0:0:0:
