osu file format v14

[General]
AudioFilename: audio.mp3
AudioLeadIn: 0
PreviewTime: 58174
Countdown: 0
SampleSet: Normal
StackLeniency: 0.7
Mode: 1
LetterboxInBreaks: 0
WidescreenStoryboard: 0

[Editor]
DistanceSpacing: 1
BeatDivisor: 4
GridSize: 32
TimelineZoom: 1.4

[Metadata]
Title:Omoide Shiritori (TV Size)
TitleUnicode:おもいでしりとり (TV Size)
Artist:DIALOGUE+
ArtistUnicode:DIALOGUE+
Creator:BlackBq
Version:Nardo's Inner Oni
Source:ひげを剃る。そして女子高生を拾う。
Tags:Nardoxyribonucleic anime jpop j-pop japanese opening Higehiro: Hige o Soru. Soshite Joshi Kousei o Hirou. wo High School Runaway I Shaved. Then I Brought a High School Girl Home. 株式会社project No.9 INC Love Romantic Romance Comedy 荻原沙優 Ogiwara Sayu 市ノ瀬加那 Ichinose Kana 内山悠里菜 Uchiyama Yurina ゆりにゃ Yurinya 稗田寧々 Hieda Nene ねーね Neene 守屋亨香 Moriya Kyouka Kyoka きょんちゃん Kyonchan 緒方佑奈 Ogata Yuna Yuuna 鷹村彩花 Takamura Ayaka やかん Yakan 宮原颯希 Miyahara Satsuki さっぴ sappy sappi sappii 飯塚麻結 Iizuka Mayu まゆゆん Mayuyun 村上まなつ Murakami Manatsu まなてぃ Manatei
BeatmapID:2966623
BeatmapSetID:1439633

[Difficulty]
HPDrainRate:5.5
CircleSize:5
OverallDifficulty:6.5
ApproachRate:7
SliderMultiplier:1.4
SliderTickRate:1

[Events]
//Background and Video events
0,0,"Sayu.jpg",0,0
Video,0,"sayu op.mp4"
//Break Periods
//Storyboard Layer 0 (Background)
//Storyboard Layer 1 (Fail)
//Storyboard Layer 2 (Pass)
//Storyboard Layer 3 (Foreground)
//Storyboard Layer 4 (Overlay)
//Storyboard Sound Samples

[TimingPoints]
-688,348.837209302326,4,1,0,60,1,0
707,-111.111111111111,4,1,0,60,0,0
6288,-111.111111111111,4,1,0,70,0,0
6375,-109.89010989011,4,1,0,70,0,0
6463,-108.695652173913,4,1,0,70,0,0
6637,-107.52688172043,4,1,0,70,0,0
6812,-106.382978723404,4,1,0,70,0,0
6986,-105.263157894737,4,1,0,70,0,0
7030,-104.712041884817,4,1,0,70,0,0
7160,-104.166666666667,4,1,0,70,0,0
7248,-103.092783505155,4,1,0,70,0,0
7335,-102.040816326531,4,1,0,70,0,0
7509,-101.010101010101,4,1,0,70,0,0
7684,-100,4,1,0,80,0,0
12567,-83.3333333333333,4,1,0,80,0,0
14137,-66.6666666666667,4,1,0,80,0,0
14486,-100,4,1,0,80,0,0
24428,-100,4,1,0,75,0,0
25823,-111.111111111111,4,1,0,65,0,0
36288,-108.695652173913,4,1,0,65,0,0
36463,-106.382978723404,4,1,0,65,0,0
36550,-105.263157894737,4,1,0,65,0,0
36637,-104.166666666667,4,1,0,65,0,0
36812,-102.040816326531,4,1,0,65,0,0
36986,-100,4,1,0,80,0,0
47974,-103.092783505155,4,1,0,80,0,0
48149,-105.263157894737,4,1,0,75,0,0
53032,-107.52688172043,4,1,0,75,0,0
53207,-109.89010989011,4,1,0,75,0,0
53381,-112.359550561798,4,1,0,75,0,0
53556,-114.942528735632,4,1,0,75,0,0
53730,-117.647058823529,4,1,0,60,0,0
55649,-111.111111111111,4,1,0,70,0,0
55823,-108.695652173913,4,1,0,70,0,0
55998,-106.382978723404,4,1,0,70,0,0
56085,-105.263157894737,4,1,0,70,0,0
56172,-104.166666666667,4,1,0,70,0,0
56346,-102.040816326531,4,1,0,70,0,0
56521,-100,4,1,0,80,0,0
57829,-83.3333333333333,4,1,0,80,0,0
58178,-95.2380952380952,4,1,0,80,0,0
58614,-98.0392156862745,4,1,0,80,0,0
58788,-96.1538461538461,4,1,0,80,0,0
58875,-95.2380952380952,4,1,0,80,0,0
58963,-94.3396226415094,4,1,0,80,0,0
59050,-93.4579439252336,4,1,0,80,0,0
59137,-92.5925925925926,4,1,0,80,0,0
59312,-90.9090909090909,4,1,0,85,0,1
70125,-90.9090909090909,4,1,0,85,0,0
70474,-90.9090909090909,4,1,0,85,0,1
76056,-90.9090909090909,4,1,0,80,0,1
80939,-83.3333333333333,4,1,0,80,0,1
81637,-100,4,1,0,85,0,0
87393,-100,4,1,0,80,0,0
87567,-100,4,1,0,70,0,0
87742,-100,4,1,0,60,0,0
87916,-100,4,1,0,50,0,0
88091,-100,4,1,0,40,0,0
88265,-100,4,1,0,30,0,0
88439,-100,4,1,0,20,0,0
88614,-111.111111111111,4,1,0,10,0,0

[HitObjects]
256,192,2102,5,0,0:0:0:0:
256,192,2277,1,0,0:0:0:0:
256,192,2451,1,8,0:0:0:0:
256,192,2625,1,8,0:0:0:0:
256,192,2800,1,8,0:0:0:0:
256,192,3149,1,8,0:0:0:0:
256,192,3323,1,0,0:0:0:0:
256,192,3498,1,0,0:0:0:0:
256,192,3672,1,0,0:0:0:0:
256,192,3846,1,8,0:0:0:0:
256,192,4021,1,8,0:0:0:0:
256,192,4195,1,8,0:0:0:0:
256,192,4544,1,8,0:0:0:0:
256,192,4718,1,0,0:0:0:0:
256,192,4893,1,8,0:0:0:0:
256,192,5416,1,8,0:0:0:0:
256,192,5591,1,8,0:0:0:0:
256,192,5939,1,8,0:0:0:0:
256,192,6288,1,0,0:0:0:0:
256,192,6375,1,8,0:0:0:0:
256,192,6463,1,8,0:0:0:0:
256,192,6637,1,8,0:0:0:0:
256,192,6812,1,0,0:0:0:0:
256,192,6986,1,8,0:0:0:0:
256,192,7030,1,8,0:0:0:0:
256,192,7160,1,8,0:0:0:0:
256,192,7248,1,0,0:0:0:0:
256,192,7335,1,0,0:0:0:0:
256,192,7509,1,8,0:0:0:0:
256,192,7684,1,4,0:0:0:0:
256,192,8032,1,8,0:0:0:0:
256,192,8207,1,0,0:0:0:0:
256,192,8381,1,12,0:0:0:0:
256,192,8730,1,0,0:0:0:0:
256,192,8905,1,8,0:0:0:0:
256,192,9079,1,8,0:0:0:0:
256,192,9166,1,8,0:0:0:0:
256,192,9253,1,0,0:0:0:0:
256,192,9428,1,8,0:0:0:0:
256,192,9602,1,0,0:0:0:0:
256,192,9777,1,0,0:0:0:0:
256,192,9864,1,8,0:0:0:0:
256,192,9951,1,8,0:0:0:0:
256,192,10038,1,8,0:0:0:0:
256,192,10125,1,0,0:0:0:0:
256,192,10300,1,8,0:0:0:0:
256,192,10474,1,4,0:0:0:0:
256,192,10823,1,8,0:0:0:0:
256,192,10998,1,0,0:0:0:0:
256,192,11085,1,0,0:0:0:0:
256,192,11172,1,8,0:0:0:0:
256,192,11346,1,0,0:0:0:0:
256,192,11434,1,0,0:0:0:0:
256,192,11521,1,0,0:0:0:0:
256,192,11695,1,0,0:0:0:0:
256,192,11870,1,12,0:0:0:0:
256,192,12044,1,0,0:0:0:0:
256,192,12131,1,0,0:0:0:0:
256,192,12218,1,8,0:0:0:0:
256,192,12306,1,8,0:0:0:0:
256,192,12393,1,0,0:0:0:0:
256,192,12567,1,12,0:0:0:0:
256,192,12742,1,12,0:0:0:0:
256,192,12916,1,12,0:0:0:0:
256,192,14137,1,8,0:0:0:0:
256,192,14166,1,8,0:0:0:0:
256,192,14486,1,8,0:0:0:0:
256,192,14573,1,8,0:0:0:0:
256,192,14660,1,0,0:0:0:0:
256,192,15009,1,12,0:0:0:0:
256,192,15358,1,8,0:0:0:0:
256,192,15445,1,0,0:0:0:0:
256,192,15532,1,0,0:0:0:0:
256,192,15707,1,8,0:0:0:0:
256,192,15881,1,4,0:0:0:0:
256,192,16230,1,0,0:0:0:0:
256,192,16405,1,8,0:0:0:0:
256,192,16579,1,0,0:0:0:0:
256,192,16666,1,8,0:0:0:0:
256,192,16753,1,0,0:0:0:0:
256,192,16928,1,8,0:0:0:0:
256,192,17015,1,8,0:0:0:0:
256,192,17102,1,0,0:0:0:0:
256,192,17189,1,0,0:0:0:0:
256,192,17277,1,8,0:0:0:0:
256,192,17451,1,4,0:0:0:0:
256,192,17800,1,12,0:0:0:0:
256,192,18149,1,0,0:0:0:0:
256,192,18236,1,8,0:0:0:0:
256,192,18323,1,8,0:0:0:0:
256,192,18498,1,0,0:0:0:0:
256,192,18672,1,12,0:0:0:0:
256,192,19021,1,8,0:0:0:0:
256,192,19195,1,8,0:0:0:0:
256,192,19370,1,0,0:0:0:0:
256,192,19457,1,8,0:0:0:0:
256,192,19544,1,0,0:0:0:0:
256,192,19631,1,0,0:0:0:0:
256,192,19718,1,8,0:0:0:0:
256,192,19806,1,0,0:0:0:0:
256,192,19893,1,8,0:0:0:0:
256,192,19980,1,8,0:0:0:0:
256,192,20067,1,0,0:0:0:0:
256,192,20242,1,12,0:0:0:0:
256,192,20416,1,0,0:0:0:0:
256,192,20503,1,0,0:0:0:0:
256,192,20591,1,8,0:0:0:0:
256,192,20765,1,4,0:0:0:0:
256,192,20939,1,8,0:0:0:0:
256,192,21027,1,8,0:0:0:0:
256,192,21114,1,0,0:0:0:0:
256,192,21288,1,12,0:0:0:0:
256,192,21463,1,0,0:0:0:0:
256,192,21550,1,0,0:0:0:0:
256,192,21637,1,8,0:0:0:0:
256,192,21812,1,4,0:0:0:0:
256,192,21986,1,8,0:0:0:0:
256,192,22073,1,8,0:0:0:0:
256,192,22160,1,0,0:0:0:0:
256,192,22248,1,0,0:0:0:0:
256,192,22335,1,8,0:0:0:0:
256,192,22509,1,12,0:0:0:0:
256,192,22858,1,4,0:0:0:0:
256,192,23207,1,0,0:0:0:0:
256,192,23381,1,8,0:0:0:0:
256,192,23556,1,0,0:0:0:0:
256,192,23730,1,8,0:0:0:0:
256,192,23817,1,8,0:0:0:0:
256,192,23905,1,8,0:0:0:0:
256,192,23992,1,8,0:0:0:0:
256,192,24079,1,0,0:0:0:0:
256,192,24166,1,0,0:0:0:0:
256,192,24253,1,0,0:0:0:0:
256,192,24428,12,0,25474,0:0:0:0:
256,192,25823,5,4,0:0:0:0:
256,192,26346,1,8,0:0:0:0:
256,192,26521,1,8,0:0:0:0:
256,192,27044,1,8,0:0:0:0:
256,192,27218,1,8,0:0:0:0:
256,192,27393,1,0,0:0:0:0:
256,192,27567,1,8,0:0:0:0:
256,192,27916,1,0,0:0:0:0:
256,192,28439,1,8,0:0:0:0:
256,192,28614,1,0,0:0:0:0:
256,192,28963,1,8,0:0:0:0:
256,192,29312,1,8,0:0:0:0:
256,192,29660,1,0,0:0:0:0:
256,192,30009,1,0,0:0:0:0:
256,192,30358,1,8,0:0:0:0:
256,192,30707,1,0,0:0:0:0:
256,192,31230,1,8,0:0:0:0:
256,192,31405,1,8,0:0:0:0:
256,192,31753,1,8,0:0:0:0:
256,192,31928,1,0,0:0:0:0:
256,192,32102,1,8,0:0:0:0:
256,192,32625,1,8,0:0:0:0:
256,192,32800,1,8,0:0:0:0:
256,192,33149,1,8,0:0:0:0:
256,192,33323,1,0,0:0:0:0:
256,192,33498,1,8,0:0:0:0:
256,192,34021,1,0,0:0:0:0:
256,192,34195,1,8,0:0:0:0:
256,192,34544,1,0,0:0:0:0:
256,192,34893,1,8,0:0:0:0:
256,192,35242,1,8,0:0:0:0:
256,192,35591,1,0,0:0:0:0:
256,192,36114,1,0,0:0:0:0:
256,192,36288,1,0,0:0:0:0:
256,192,36463,1,0,0:0:0:0:
256,192,36550,1,8,0:0:0:0:
256,192,36637,1,8,0:0:0:0:
256,192,36812,1,0,0:0:0:0:
256,192,36986,1,4,0:0:0:0:
256,192,37335,1,8,0:0:0:0:
256,192,37509,1,0,0:0:0:0:
256,192,37596,1,8,0:0:0:0:
256,192,37684,1,0,0:0:0:0:
256,192,37858,1,8,0:0:0:0:
256,192,38032,1,0,0:0:0:0:
256,192,38207,1,8,0:0:0:0:
256,192,38294,1,0,0:0:0:0:
256,192,38381,1,8,0:0:0:0:
256,192,38556,1,0,0:0:0:0:
256,192,38730,1,8,0:0:0:0:
256,192,39079,1,8,0:0:0:0:
256,192,39253,1,0,0:0:0:0:
256,192,39428,1,8,0:0:0:0:
256,192,39602,1,8,0:0:0:0:
256,192,39689,1,8,0:0:0:0:
256,192,39777,1,0,0:0:0:0:
256,192,39951,1,0,0:0:0:0:
256,192,40125,1,8,0:0:0:0:
256,192,40300,1,0,0:0:0:0:
256,192,40474,1,0,0:0:0:0:
256,192,40649,1,0,0:0:0:0:
256,192,40736,1,0,0:0:0:0:
256,192,40823,1,8,0:0:0:0:
256,192,41172,1,0,0:0:0:0:
256,192,41346,1,0,0:0:0:0:
256,192,41521,1,8,0:0:0:0:
256,192,41695,1,8,0:0:0:0:
256,192,41782,1,8,0:0:0:0:
256,192,41870,1,8,0:0:0:0:
256,192,42044,1,0,0:0:0:0:
256,192,42218,1,8,0:0:0:0:
256,192,42393,1,0,0:0:0:0:
256,192,42480,1,0,0:0:0:0:
256,192,42567,1,0,0:0:0:0:
256,192,42742,1,0,0:0:0:0:
256,192,42916,1,12,0:0:0:0:
256,192,43091,1,8,0:0:0:0:
256,192,43178,1,8,0:0:0:0:
256,192,43265,1,0,0:0:0:0:
256,192,43439,1,0,0:0:0:0:
256,192,43614,1,4,0:0:0:0:
256,192,43788,1,0,0:0:0:0:
256,192,43875,1,0,0:0:0:0:
256,192,43963,1,8,0:0:0:0:
256,192,44137,1,0,0:0:0:0:
256,192,44312,1,12,0:0:0:0:
256,192,44486,1,8,0:0:0:0:
256,192,44573,1,8,0:0:0:0:
256,192,44660,1,0,0:0:0:0:
256,192,44748,1,0,0:0:0:0:
256,192,44835,1,8,0:0:0:0:
256,192,45009,1,4,0:0:0:0:
256,192,45358,1,12,0:0:0:0:
256,192,45532,1,0,0:0:0:0:
256,192,45707,1,8,0:0:0:0:
256,192,45881,1,8,0:0:0:0:
256,192,46056,1,0,0:0:0:0:
256,192,46230,1,0,0:0:0:0:
256,192,46317,1,0,0:0:0:0:
256,192,46405,1,8,0:0:0:0:
256,192,46492,1,8,0:0:0:0:
256,192,46579,1,0,0:0:0:0:
256,192,46753,1,12,0:0:0:0:
256,192,47102,1,0,0:0:0:0:
256,192,47277,1,0,0:0:0:0:
256,192,47451,1,12,0:0:0:0:
256,192,47625,1,4,0:0:0:0:
256,192,47974,1,0,0:0:0:0:
256,192,48149,1,4,0:0:0:0:
256,192,48323,1,0,0:0:0:0:
256,192,48498,1,8,0:0:0:0:
256,192,48846,1,0,0:0:0:0:
256,192,49195,1,8,0:0:0:0:
256,192,49544,1,0,0:0:0:0:
256,192,49718,1,8,0:0:0:0:
256,192,49893,1,0,0:0:0:0:
256,192,50067,1,0,0:0:0:0:
256,192,50242,1,8,0:0:0:0:
256,192,50591,1,8,0:0:0:0:
256,192,50765,1,0,0:0:0:0:
256,192,50939,1,4,0:0:0:0:
256,192,51114,1,0,0:0:0:0:
256,192,51288,1,8,0:0:0:0:
256,192,51637,1,0,0:0:0:0:
256,192,51986,1,8,0:0:0:0:
256,192,52335,1,0,0:0:0:0:
256,192,52509,1,8,0:0:0:0:
256,192,52684,1,0,0:0:0:0:
256,192,53032,1,8,0:0:0:0:
256,192,53207,1,0,0:0:0:0:
256,192,53381,1,8,0:0:0:0:
256,192,53556,1,0,0:0:0:0:
256,192,53730,1,4,0:0:0:0:
256,192,54079,1,8,0:0:0:0:
256,192,54428,1,8,0:0:0:0:
256,192,54777,1,0,0:0:0:0:
256,192,55125,1,0,0:0:0:0:
256,192,55649,1,0,0:0:0:0:
256,192,55823,1,8,0:0:0:0:
256,192,55998,1,0,0:0:0:0:
256,192,56085,1,0,0:0:0:0:
256,192,56172,1,8,0:0:0:0:
256,192,56346,1,0,0:0:0:0:
256,192,56521,1,12,0:0:0:0:
256,192,56695,1,0,0:0:0:0:
256,192,56782,1,0,0:0:0:0:
256,192,56870,1,0,0:0:0:0:
256,192,57044,1,8,0:0:0:0:
256,192,57131,1,8,0:0:0:0:
256,192,57218,1,0,0:0:0:0:
256,192,57393,1,0,0:0:0:0:
256,192,57480,1,0,0:0:0:0:
256,192,57567,1,8,0:0:0:0:
256,192,57655,1,8,0:0:0:0:
256,192,57742,1,0,0:0:0:0:
256,192,57916,1,12,0:0:0:0:
256,192,58091,1,12,0:0:0:0:
256,192,58265,1,0,0:0:0:0:
256,192,58614,1,8,0:0:0:0:
256,192,58788,1,8,0:0:0:0:
256,192,58875,1,8,0:0:0:0:
256,192,58963,1,8,0:0:0:0:
256,192,59050,1,8,0:0:0:0:
256,192,59137,1,0,0:0:0:0:
256,192,59312,1,4,0:0:0:0:
256,192,59486,1,0,0:0:0:0:
256,192,59573,1,0,0:0:0:0:
256,192,59660,1,8,0:0:0:0:
256,192,59835,1,0,0:0:0:0:
256,192,60009,1,8,0:0:0:0:
256,192,60096,1,8,0:0:0:0:
256,192,60184,1,0,0:0:0:0:
256,192,60271,1,0,0:0:0:0:
256,192,60358,1,8,0:0:0:0:
256,192,60532,1,8,0:0:0:0:
256,192,60707,1,0,0:0:0:0:
256,192,60881,1,0,0:0:0:0:
256,192,60968,1,0,0:0:0:0:
256,192,61056,1,8,0:0:0:0:
256,192,61230,1,0,0:0:0:0:
256,192,61405,1,8,0:0:0:0:
256,192,61492,1,8,0:0:0:0:
256,192,61579,1,0,0:0:0:0:
256,192,61753,1,8,0:0:0:0:
256,192,61928,1,0,0:0:0:0:
256,192,62102,1,8,0:0:0:0:
256,192,62451,1,8,0:0:0:0:
256,192,62625,1,8,0:0:0:0:
256,192,62713,1,0,0:0:0:0:
256,192,62800,1,8,0:0:0:0:
256,192,62887,1,8,0:0:0:0:
256,192,62974,1,0,0:0:0:0:
256,192,63149,1,8,0:0:0:0:
256,192,63323,1,0,0:0:0:0:
256,192,63410,1,8,0:0:0:0:
256,192,63498,1,0,0:0:0:0:
256,192,63672,1,0,0:0:0:0:
256,192,63846,1,8,0:0:0:0:
256,192,64021,1,0,0:0:0:0:
256,192,64108,1,0,0:0:0:0:
256,192,64195,1,8,0:0:0:0:
256,192,64282,1,0,0:0:0:0:
256,192,64370,1,0,0:0:0:0:
256,192,64544,1,8,0:0:0:0:
256,192,64718,1,0,0:0:0:0:
256,192,64893,1,4,0:0:0:0:
256,192,65067,1,0,0:0:0:0:
256,192,65242,1,8,0:0:0:0:
256,192,65416,1,0,0:0:0:0:
256,192,65503,1,0,0:0:0:0:
256,192,65591,1,0,0:0:0:0:
256,192,65765,1,0,0:0:0:0:
256,192,65852,1,0,0:0:0:0:
256,192,65939,1,8,0:0:0:0:
256,192,66114,1,0,0:0:0:0:
256,192,66288,1,8,0:0:0:0:
256,192,66375,1,8,0:0:0:0:
256,192,66463,1,0,0:0:0:0:
256,192,66637,1,8,0:0:0:0:
256,192,66812,1,0,0:0:0:0:
256,192,66899,1,8,0:0:0:0:
256,192,66986,1,0,0:0:0:0:
256,192,67160,1,0,0:0:0:0:
256,192,67335,1,8,0:0:0:0:
256,192,67509,1,0,0:0:0:0:
256,192,67596,1,0,0:0:0:0:
256,192,67684,1,8,0:0:0:0:
256,192,67771,1,8,0:0:0:0:
256,192,67858,1,0,0:0:0:0:
256,192,68032,1,8,0:0:0:0:
256,192,68207,1,0,0:0:0:0:
256,192,68294,1,8,0:0:0:0:
256,192,68381,1,0,0:0:0:0:
256,192,68468,1,0,0:0:0:0:
256,192,68556,1,8,0:0:0:0:
256,192,68643,1,0,0:0:0:0:
256,192,68730,1,8,0:0:0:0:
256,192,68905,1,4,0:0:0:0:
256,192,69253,1,0,0:0:0:0:
256,192,69428,1,8,0:0:0:0:
256,192,69602,1,8,0:0:0:0:
256,192,69689,1,8,0:0:0:0:
256,192,69777,1,0,0:0:0:0:
256,192,69864,1,8,0:0:0:0:
256,192,69951,1,0,0:0:0:0:
256,192,70038,1,0,0:0:0:0:
256,192,70125,1,8,0:0:0:0:
256,192,70300,1,8,0:0:0:0:
256,192,70474,1,4,0:0:0:0:
256,192,70649,1,0,0:0:0:0:
256,192,70736,1,0,0:0:0:0:
256,192,70823,1,8,0:0:0:0:
256,192,70998,1,0,0:0:0:0:
256,192,71172,1,8,0:0:0:0:
256,192,71259,1,8,0:0:0:0:
256,192,71346,1,0,0:0:0:0:
256,192,71434,1,0,0:0:0:0:
256,192,71521,1,8,0:0:0:0:
256,192,71695,1,8,0:0:0:0:
256,192,71870,1,0,0:0:0:0:
256,192,72044,1,0,0:0:0:0:
256,192,72131,1,0,0:0:0:0:
256,192,72218,1,8,0:0:0:0:
256,192,72393,1,0,0:0:0:0:
256,192,72567,1,8,0:0:0:0:
256,192,72655,1,8,0:0:0:0:
256,192,72742,1,0,0:0:0:0:
256,192,72916,1,8,0:0:0:0:
256,192,73091,1,0,0:0:0:0:
256,192,73178,1,0,0:0:0:0:
256,192,73265,1,8,0:0:0:0:
256,192,73352,1,0,0:0:0:0:
256,192,73439,1,8,0:0:0:0:
256,192,73527,1,0,0:0:0:0:
256,192,73614,1,8,0:0:0:0:
256,192,73788,1,0,0:0:0:0:
256,192,73875,1,0,0:0:0:0:
256,192,73963,1,8,0:0:0:0:
256,192,74050,1,0,0:0:0:0:
256,192,74137,1,8,0:0:0:0:
256,192,74224,1,8,0:0:0:0:
256,192,74312,1,0,0:0:0:0:
256,192,74486,1,8,0:0:0:0:
256,192,74573,1,8,0:0:0:0:
256,192,74660,1,8,0:0:0:0:
256,192,74748,1,8,0:0:0:0:
256,192,74835,1,0,0:0:0:0:
256,192,75009,1,8,0:0:0:0:
256,192,75184,1,0,0:0:0:0:
256,192,75358,1,4,0:0:0:0:
256,192,75707,1,8,0:0:0:0:
256,192,75881,1,0,0:0:0:0:
256,192,76056,1,12,0:0:0:0:
256,192,76405,1,8,0:0:0:0:
256,192,76579,1,8,0:0:0:0:
256,192,76753,1,4,0:0:0:0:
256,192,77102,1,0,0:0:0:0:
256,192,77277,1,8,0:0:0:0:
256,192,77451,1,8,0:0:0:0:
256,192,77538,1,8,0:0:0:0:
256,192,77625,1,0,0:0:0:0:
256,192,77800,1,8,0:0:0:0:
256,192,77974,1,0,0:0:0:0:
256,192,78062,1,0,0:0:0:0:
256,192,78149,1,8,0:0:0:0:
256,192,78323,1,0,0:0:0:0:
256,192,78410,1,0,0:0:0:0:
256,192,78498,1,0,0:0:0:0:
256,192,78672,1,8,0:0:0:0:
256,192,78846,1,12,0:0:0:0:
256,192,79021,1,0,0:0:0:0:
256,192,79195,1,8,0:0:0:0:
256,192,79282,1,8,0:0:0:0:
256,192,79370,1,0,0:0:0:0:
256,192,79457,1,0,0:0:0:0:
256,192,79544,1,8,0:0:0:0:
256,192,79631,1,0,0:0:0:0:
256,192,79718,1,0,0:0:0:0:
256,192,79806,1,0,0:0:0:0:
256,192,79893,1,8,0:0:0:0:
256,192,79980,1,8,0:0:0:0:
256,192,80067,1,0,0:0:0:0:
256,192,80155,1,0,0:0:0:0:
256,192,80242,1,8,0:0:0:0:
256,192,80416,1,0,0:0:0:0:
256,192,80591,1,8,0:0:0:0:
256,192,80678,1,8,0:0:0:0:
256,192,80765,1,0,0:0:0:0:
256,192,80939,1,12,0:0:0:0:
256,192,81114,1,12,0:0:0:0:
256,192,81637,1,4,0:0:0:0:
256,192,81986,1,8,0:0:0:0:
256,192,82335,1,8,0:0:0:0:
256,192,82422,1,0,0:0:0:0:
256,192,82509,1,0,0:0:0:0:
256,192,82684,1,8,0:0:0:0:
256,192,82858,1,4,0:0:0:0:
256,192,83207,1,0,0:0:0:0:
256,192,83381,1,8,0:0:0:0:
256,192,83556,1,0,0:0:0:0:
256,192,83643,1,8,0:0:0:0:
256,192,83730,1,0,0:0:0:0:
256,192,83905,1,8,0:0:0:0:
256,192,83992,1,8,0:0:0:0:
256,192,84079,1,0,0:0:0:0:
256,192,84166,1,0,0:0:0:0:
256,192,84253,1,0,0:0:0:0:
256,192,84428,1,12,0:0:0:0:
256,192,84602,1,0,0:0:0:0:
256,192,84689,1,0,0:0:0:0:
256,192,84777,1,8,0:0:0:0:
256,192,84951,1,4,0:0:0:0:
256,192,85125,1,8,0:0:0:0:
256,192,85213,1,8,0:0:0:0:
256,192,85300,1,0,0:0:0:0:
256,192,85474,1,12,0:0:0:0:
256,192,85649,1,0,0:0:0:0:
256,192,85736,1,0,0:0:0:0:
256,192,85823,1,8,0:0:0:0:
256,192,85998,1,4,0:0:0:0:
256,192,86172,1,8,0:0:0:0:
256,192,86259,1,8,0:0:0:0:
256,192,86346,1,0,0:0:0:0:
256,192,86434,1,0,0:0:0:0:
256,192,86521,1,8,0:0:0:0:
256,192,86695,1,12,0:0:0:0:
256,192,87044,1,4,0:0:0:0:
256,192,87218,12,0,88614,0:0:0:0:
