osu file format v14

[General]
AudioFilename: audio.mp3
AudioLeadIn: 0
PreviewTime: 58174
Countdown: 0
SampleSet: Normal
StackLeniency: 0.7
Mode: 1
LetterboxInBreaks: 0
WidescreenStoryboard: 1

[Editor]
DistanceSpacing: 1
BeatDivisor: 4
GridSize: 32
TimelineZoom: 1.1

[Metadata]
Title:Omoide Shiritori (TV Size)
TitleUnicode:おもいでしりとり (TV Size)
Artist:DIALOGUE+
ArtistUnicode:DIALOGUE+
Creator:BlackBq
Version:Kantan
Source:ひげを剃る。そして女子高生を拾う。
Tags:Nardoxyribonucleic anime jpop j-pop japanese opening Higehiro: Hige o Soru. Soshite Joshi Kousei o Hirou. wo High School Runaway I Shaved. Then I Brought a High School Girl Home. 株式会社project No.9 INC Love Romantic Romance Comedy 荻原沙優 Ogiwara Sayu 市ノ瀬加那 Ichinose Kana 内山悠里菜 Uchiyama Yurina ゆりにゃ Yurinya 稗田寧々 Hieda Nene ねーね Neene 守屋亨香 Moriya Kyouka Kyoka きょんちゃん Kyonchan 緒方佑奈 Ogata Yuna Yuuna 鷹村彩花 Takamura Ayaka やかん Yakan 宮原颯希 Miyahara Satsuki さっぴ sappy sappi sappii 飯塚麻結 Iizuka Mayu まゆゆん Mayuyun 村上まなつ Murakami Manatsu まなてぃ Manatei
BeatmapID:2963992
BeatmapSetID:1439633

[Difficulty]
HPDrainRate:8
CircleSize:2
OverallDifficulty:3
ApproachRate:10
SliderMultiplier:1.4
SliderTickRate:1

[Events]
//Background and Video events
0,0,"Sayu.jpg",0,0
Video,0,"sayu op.mp4"
//Break Periods
//Storyboard Layer 0 (Background)
//Storyboard Layer 1 (Fail)
//Storyboard Layer 2 (Pass)
//Storyboard Layer 3 (Foreground)
//Storyboard Layer 4 (Overlay)
//Storyboard Sound Samples

[TimingPoints]
-688,348.837209302326,4,1,0,60,1,0
7509,-100,4,1,0,80,0,0
24341,-100,4,1,0,85,0,0
36899,-100,4,1,0,80,0,0
47974,-100,4,1,0,75,0,0
56434,-100,4,1,0,80,0,0
59224,-100,4,1,0,85,0,0
59312,-100,4,1,0,85,0,1
70125,-100,4,1,0,85,0,0
70474,-100,4,1,0,85,0,1
75968,-100,4,1,0,80,0,1
81637,-100,4,1,0,85,0,0
87393,-100,4,1,0,80,0,0
87567,-100,4,1,0,70,0,0
87742,-100,4,1,0,60,0,0
87916,-100,4,1,0,50,0,0
88091,-100,4,1,0,40,0,0
88265,-100,4,1,0,30,0,0
88439,-100,4,1,0,20,0,0
88614,-111.111111111111,4,1,0,10,0,0

[HitObjects]
256,192,2102,5,0,0:0:0:0:
256,192,3498,1,0,0:0:0:0:
256,192,4893,1,8,0:0:0:0:
256,192,6288,1,0,0:0:0:0:
256,192,6637,1,0,0:0:0:0:
256,192,6986,1,8,0:0:0:0:
384,96,7684,1,12,0:0:0:0:
256,192,8381,1,0,0:0:0:0:
256,192,9079,1,8,0:0:0:0:
256,192,9777,1,0,0:0:0:0:
256,192,10474,1,8,0:0:0:0:
256,192,11172,1,0,0:0:0:0:
256,192,11521,1,0,0:0:0:0:
256,192,11870,1,8,0:0:0:0:
384,64,12567,1,12,0:0:0:0:
256,192,14660,1,8,0:0:0:0:
256,192,15358,1,8,0:0:0:0:
352,96,15881,1,4,0:0:0:0:
256,192,16753,1,8,0:0:0:0:
256,192,17451,1,0,0:0:0:0:
256,192,18149,1,0,0:0:0:0:
352,96,18672,1,12,0:0:0:0:
256,192,19544,1,0,0:0:0:0:
256,192,20242,1,8,0:0:0:0:
256,192,20765,1,0,0:0:0:0:
256,192,21288,1,8,0:0:0:0:
256,192,21812,1,0,0:0:0:0:
256,192,22335,1,8,0:0:0:0:
352,96,22858,1,4,0:0:0:0:
256,192,23381,1,8,0:0:0:0:
256,192,23730,1,0,0:0:0:0:
256,192,24428,1,8,0:0:0:0:
352,96,25823,5,4,0:0:0:0:
256,192,26521,1,8,0:0:0:0:
256,192,27218,1,0,0:0:0:0:
256,192,28614,1,8,0:0:0:0:
256,192,30009,1,0,0:0:0:0:
256,192,30707,1,8,0:0:0:0:
256,192,31405,1,8,0:0:0:0:
256,192,32800,1,0,0:0:0:0:
256,192,34195,1,0,0:0:0:0:
256,192,34893,1,8,0:0:0:0:
256,192,35591,1,0,0:0:0:0:
384,96,36986,1,4,0:0:0:0:
256,192,37684,1,8,0:0:0:0:
256,192,38381,1,0,0:0:0:0:
256,192,38730,1,8,0:0:0:0:
256,192,39079,1,0,0:0:0:0:
256,192,39777,1,8,0:0:0:0:
256,192,40474,1,0,0:0:0:0:
256,192,41172,1,8,0:0:0:0:
256,192,41521,1,8,0:0:0:0:
256,192,41870,1,0,0:0:0:0:
352,96,42916,1,12,0:0:0:0:
256,192,43614,1,8,0:0:0:0:
256,192,44312,1,8,0:0:0:0:
256,192,45009,1,8,0:0:0:0:
256,192,45358,5,0,0:0:0:0:
256,192,46056,1,8,0:0:0:0:
384,96,46753,1,12,0:0:0:0:
384,96,48149,1,4,0:0:0:0:
256,192,48846,1,8,0:0:0:0:
256,192,49544,1,0,0:0:0:0:
256,192,50242,1,8,0:0:0:0:
256,192,51637,1,8,0:0:0:0:
256,192,52335,1,0,0:0:0:0:
256,192,53032,1,8,0:0:0:0:
416,32,53730,1,4,0:0:0:0:
384,96,56521,1,4,0:0:0:0:
256,192,57218,1,0,0:0:0:0:
352,96,57916,1,12,0:0:0:0:
384,64,59312,1,4,0:0:0:0:
256,192,60009,1,8,0:0:0:0:
256,192,60358,1,0,0:0:0:0:
256,192,60707,1,8,0:0:0:0:
256,192,61405,1,0,0:0:0:0:
256,192,62102,1,8,0:0:0:0:
256,192,62800,1,8,0:0:0:0:
256,192,63149,1,0,0:0:0:0:
256,192,63498,1,0,0:0:0:0:
256,192,63846,1,8,0:0:0:0:
256,192,64195,1,0,0:0:0:0:
352,64,64893,1,4,0:0:0:0:
256,192,65939,1,0,0:0:0:0:
256,192,66288,1,8,0:0:0:0:
256,192,66986,1,0,0:0:0:0:
256,192,67684,5,8,0:0:0:0:
256,192,68032,1,0,0:0:0:0:
256,192,68905,1,8,0:0:0:0:
256,192,69602,1,8,0:0:0:0:
384,64,70474,1,4,0:0:0:0:
256,192,71172,1,8,0:0:0:0:
256,192,71521,1,8,0:0:0:0:
256,192,71870,1,0,0:0:0:0:
256,192,72567,1,8,0:0:0:0:
256,192,73265,1,8,0:0:0:0:
256,192,73614,1,8,0:0:0:0:
256,192,73963,1,0,0:0:0:0:
256,192,74312,1,0,0:0:0:0:
256,192,74660,1,8,0:0:0:0:
384,64,76056,1,12,0:0:0:0:
256,192,76753,1,0,0:0:0:0:
256,192,77451,1,8,0:0:0:0:
256,192,78149,1,0,0:0:0:0:
256,192,78846,1,8,0:0:0:0:
256,192,79544,1,8,0:0:0:0:
256,192,79893,1,0,0:0:0:0:
256,192,80242,1,8,0:0:0:0:
416,64,80939,1,12,0:0:0:0:
256,192,81637,1,0,0:0:0:0:
256,192,82335,1,0,0:0:0:0:
352,128,82858,1,12,0:0:0:0:
256,192,83730,1,0,0:0:0:0:
256,192,84428,1,8,0:0:0:0:
256,192,84951,1,0,0:0:0:0:
256,192,85474,1,8,0:0:0:0:
256,192,85998,1,0,0:0:0:0:
256,192,86521,1,8,0:0:0:0:
384,96,87044,1,4,0:0:0:0:
256,192,87393,12,0,88614,0:0:0:0:
