osu file format v14

[General]
AudioFilename: audio.mp3
AudioLeadIn: 0
PreviewTime: 58165
Countdown: 0
SampleSet: Soft
StackLeniency: 0.7
Mode: 0
LetterboxInBreaks: 0
WidescreenStoryboard: 1

[Editor]
Bookmarks: 7715,14692,20259,25855,37018,48180,59343,70491,81654,84459,87061,88631
DistanceSpacing: 1
BeatDivisor: 4
GridSize: 8
TimelineZoom: 1.5

[Metadata]
Title:Omoide Shiritori (TV Size)
TitleUnicode:おもいでしりとり (TV Size)
Artist:DIALOGUE+
ArtistUnicode:DIALOGUE+
Creator:Airiesu
Version:Normal
Source:ひげを剃る。そして女子高生を拾う。
Tags:I Shaved Then I Brought Kibbleru Home Higehiro Hige wo Soru Soshite Joshikousei wo Hirou anime japanese pop jpop j-pop idol group opening op 荻原 沙優 ogiwara sayu a High School Girl
BeatmapID:2933477
BeatmapSetID:1424129

[Difficulty]
HPDrainRate:3
CircleSize:3
OverallDifficulty:4
ApproachRate:5
SliderMultiplier:1.2
SliderTickRate:1

[Events]
//Background and Video events
Video,0,"HigehiroE.mp4"
0,0,"sayubgPOG.jpg",0,0
//Break Periods
//Storyboard Layer 0 (Background)
//Storyboard Layer 1 (Fail)
//Storyboard Layer 2 (Pass)
//Storyboard Layer 3 (Foreground)
//Storyboard Layer 4 (Overlay)
//Storyboard Sound Samples

[TimingPoints]
-700,348.837209302326,4,2,1,40,1,0
2090,-111.111111111111,4,2,1,40,0,0
6363,-111.111111111111,4,2,1,30,0,0
6450,-111.111111111111,4,2,1,60,0,0
7672,-100,4,2,20,70,0,0
7758,-100,4,2,20,70,0,0
8020,-100,4,2,1,70,0,0
14125,-100,4,2,3,70,0,0
14474,-100,4,2,1,70,0,0
14648,-100,4,2,20,70,0,0
14735,-100,4,2,20,70,0,0
14997,-100,4,2,1,70,0,0
25811,-111.111111111111,4,2,20,40,0,0
25898,-111.111111111111,4,2,20,40,0,0
26334,-111.111111111111,4,2,2,40,0,0
36276,-111.111111111111,4,2,2,70,0,0
36538,-111.111111111111,4,2,1,70,0,0
36625,-111.111111111111,4,2,1,70,0,0
36974,-100,4,2,20,60,0,0
37060,-100,4,2,20,60,0,0
37323,-100,4,2,1,60,0,0
48137,-105.263157894737,4,2,20,60,0,0
48223,-105.263157894737,4,2,20,60,0,0
48311,-105.263157894737,4,2,1,60,0,0
56509,-105.263157894737,4,2,1,50,0,0
56683,-105.263157894737,4,2,1,55,0,0
56857,-105.263157894737,4,2,1,60,0,0
57032,-105.263157894737,4,2,1,65,0,0
57206,-105.263157894737,4,2,1,70,0,0
57380,-105.263157894737,4,2,1,75,0,0
57555,-105.263157894737,4,2,1,80,0,0
57729,-105.263157894737,4,2,1,85,0,0
57904,-105.263157894737,4,2,1,90,0,0
58602,-105.263157894737,4,2,1,70,0,0
59300,-95.2380952380952,4,2,20,90,0,1
59386,-95.2380952380952,4,2,20,90,0,1
59474,-95.2380952380952,4,2,1,90,0,1
76044,-100,4,2,1,80,0,0
78834,-100,4,2,1,50,0,1
79182,-100,4,2,1,60,0,1
79532,-100,4,2,1,70,0,1
79880,-100,4,2,1,80,0,1
80230,-100,4,2,1,90,0,0
80579,-100,4,2,1,90,0,1
81102,-100,4,2,1,90,0,0
81625,-100,4,2,20,70,0,0
81712,-100,4,2,20,70,0,0
81974,-100,4,2,1,70,0,0
88602,-100,4,2,1,5,0,0

[Colours]
Combo1 : 148,116,119
Combo2 : 236,204,105
Combo3 : 160,87,70
Combo4 : 165,61,50
Combo5 : 245,236,205
Combo6 : 131,134,123
Combo7 : 201,115,114
Combo8 : 213,170,92

[HitObjects]
333,163,2090,6,0,L|358:274,2,107.999996704102,2|2|2,2:0|2:0|2:0,0:0:0:0:
246,97,3137,1,2,2:0:0:0:
157,159,3486,6,0,L|48:141,2,107.999996704102,2|2|2,2:0|2:0|2:0,0:0:0:0:
243,223,4532,1,2,2:0:0:0:
250,330,4881,5,2,2:0:0:0:
412,366,5404,1,2,2:0:0:0:
412,366,5579,1,2,2:0:0:0:
478,281,5927,1,2,2:0:0:0:
405,201,6276,6,0,P|409:174|412:147,1,54.0000000000001,2|8,2:0|2:0,0:0:0:0:
421,94,6625,1,2,3:2:0:0:
326,41,6974,1,10,2:0:0:0:
223,74,7323,2,0,L|155:60,1,53.9999983520508,2|2,3:2|3:2,0:0:0:0:
121,28,7672,6,0,P|55:46|40:98,1,120,6|2,3:2|2:0,0:0:0:0:
47,153,8195,1,2,2:0:0:0:
47,153,8369,2,0,L|64:293,1,120,6|2,3:2|2:0,0:0:0:0:
85,333,8893,1,2,2:0:0:0:
85,333,9067,6,0,P|163:357|199:325,1,120,10|10,2:0|2:0,0:0:0:0:
227,293,9590,1,0,3:2:0:0:
227,293,9765,1,10,2:0:0:0:
345,273,10113,2,0,L|420:279,1,60,2|2,3:2|3:2,0:0:0:0:
465,276,10462,6,0,P|484:235|459:154,1,120,6|2,3:2|3:2,0:0:0:0:
417,142,10986,1,2,3:2:0:0:
417,142,11160,2,0,L|289:149,1,120,10|10,3:2|3:2,0:0:0:0:
246,178,11683,1,10,2:0:0:0:
246,178,11858,5,6,3:2:0:0:
151,103,12206,1,10,3:2:0:0:
62,183,12555,1,10,2:0:0:0:
62,183,12730,1,10,2:0:0:0:
256,192,14125,1,2,2:0:0:0:
368,50,14648,6,0,P|426:53|462:99,1,120,6|10,3:2|3:2,0:0:0:0:
468,223,15346,1,10,2:0:0:0:
468,223,15520,1,10,2:0:0:0:
356,268,15869,2,0,L|228:276,1,120,6|2,3:2|2:0,0:0:0:0:
190,314,16393,2,0,P|151:315|123:302,1,60,10|2,3:2|2:0,0:0:0:0:
72,300,16741,2,0,P|43:273|33:244,1,60,2|0,3:2|2:0,0:0:0:0:
14,200,17090,1,0,3:2:0:0:
79,99,17439,6,0,B|139:123|139:123|209:93,1,120,6|10,3:2|3:2,0:0:0:0:
295,40,18137,1,10,2:0:0:0:
295,40,18311,1,10,2:0:0:0:
386,117,18660,2,0,L|366:258,1,120,6|2,3:2|2:0,0:0:0:0:
359,295,19183,2,0,L|287:291,1,60,10|2,3:2|2:0,0:0:0:0:
241,274,19532,1,8,2:0:0:0:
133,327,19881,1,8,2:0:0:0:
70,224,20230,6,0,P|52:162|102:105,1,120,6|8,3:2|2:0,0:0:0:0:
134,93,20753,2,0,B|186:126|186:126|254:93,1,120,6|8,3:2|2:0,0:0:0:0:
275,52,21276,2,0,B|327:26|327:26|379:59,1,120,6|8,3:2|2:0,0:0:0:0:
416,107,21800,1,6,3:2:0:0:
288,234,22323,1,10,2:0:0:0:
288,234,22497,1,10,2:0:0:0:
179,285,22846,6,0,P|112:294|59:264,1,120,6|0,3:2|3:2,0:0:0:0:
68,211,23369,2,0,L|86:91,1,120,8|0,2:0|3:2,0:0:0:0:
185,24,24067,1,8,2:0:0:0:
269,108,24416,1,2,2:0:0:0:
450,304,25811,6,0,P|413:326|338:300,1,108,10|8,3:2|2:0,0:0:0:0:
314,274,26334,1,2,2:0:0:0:
314,274,26509,1,10,2:0:0:0:
298,112,27032,1,2,3:2:0:0:
298,112,27206,2,0,L|244:119,1,54.0000000000001,10|2,3:2|2:0,0:0:0:0:
191,130,27555,2,0,P|155:101|82:109,2,108,10|10|8,2:0|2:0|2:0,0:0:0:0:
180,237,28602,6,0,L|170:350,1,108,10|10,3:2|2:0,0:0:0:0:
278,346,29300,2,0,L|287:238,1,108,10|10,2:0|2:0,0:0:0:0:
295,184,29823,1,0,3:2:0:0:
295,184,29997,2,0,L|419:196,2,108,10|10|10,3:2|2:0|2:0,0:0:0:0:
153,259,31218,5,2,2:0:0:0:
153,259,31393,2,0,P|192:298|253:293,1,108,10|10,3:2|2:0,0:0:0:0:
320,223,32090,1,10,2:0:0:0:
219,95,32613,1,2,3:2:0:0:
219,95,32788,2,0,L|107:112,1,108,10|10,3:2|2:0,0:0:0:0:
45,196,33486,1,10,2:0:0:0:
172,295,34009,1,2,2:0:0:0:
172,295,34183,6,0,P|224:327|285:316,1,108,10|10,3:2|2:0,0:0:0:0:
304,221,34881,2,0,P|252:189|191:200,1,108,10|10,2:0|2:0,0:0:0:0:
101,216,35579,1,2,2:0:0:0:
202,25,36276,6,0,L|269:36,1,54.0000000000001,2|0,3:2|3:2,0:0:0:0:
308,44,36625,1,8,2:0:0:0:
427,28,36974,6,0,P|456:68|441:157,1,120,6|8,3:2|2:0,0:0:0:0:
431,194,37497,1,2,2:0:0:0:
431,194,37672,2,0,L|444:257,1,60,2|0,3:2|3:2,0:0:0:0:
369,348,38195,1,2,2:0:0:0:
369,348,38369,2,0,P|323:332|293:324,1,60,2|2,2:0|3:2,0:0:0:0:
260,300,38718,2,0,P|231:309|203:320,1,60,10|0,2:0|0:0,0:0:0:0:
146,339,39067,1,2,3:2:0:0:
71,244,39416,2,0,L|57:179,1,60,8|2,2:0|2:0,0:0:0:0:
50,126,39765,6,0,P|112:104|167:89,1,120,2|10,3:2|2:0,0:0:0:0:
251,6,40462,2,0,P|308:23|365:43,1,120,2|10,3:2|2:0,0:0:0:0:
381,161,41160,2,0,P|437:141|495:125,2,120,2|10|2,3:2|2:0|3:2,0:0:0:0:
274,215,42206,2,0,L|260:274,1,60,10|2,2:0|3:2,0:0:0:0:
244,331,42555,1,2,3:2:0:0:
126,354,42904,5,12,2:0:0:0:
126,354,43079,2,0,P|80:373|50:373,2,60,2|2|2,2:0|3:2|3:2,0:0:0:0:
142,296,43602,1,14,2:0:0:0:
93,186,43951,1,2,3:2:0:0:
161,88,44300,5,12,2:0:0:0:
161,88,44474,2,0,L|165:18,2,60,2|2|2,2:0|3:2|3:2,0:0:0:0:
200,133,44997,1,14,2:0:0:0:
318,154,45346,2,0,B|373:126|373:126|427:152,1,120,6|10,3:2|2:0,0:0:0:0:
423,271,46044,2,0,B|368:299|368:299|314:273,1,120,2|10,3:2|2:0,0:0:0:0:
264,254,46567,1,0,3:2:0:0:
264,254,46741,1,6,3:2:0:0:
89,98,47439,1,10,2:0:0:0:
89,98,47613,2,0,L|67:226,1,120,0|2,3:2|3:2,0:0:0:0:
61,273,48137,6,0,P|103:268|137:264,1,56.9999999999999,6|2,3:2|2:0,0:0:0:0:
166,295,48486,2,0,P|219:297|266:245,1,114,2|10,2:0|2:0,0:0:0:0:
320,159,49183,1,2,2:0:0:0:
287,50,49532,2,0,L|169:68,1,114,2|2,3:2|2:0,0:0:0:0:
60,61,50230,2,0,L|42:174,1,114,10|2,2:0|2:0,0:0:0:0:
38,234,50753,1,2,3:2:0:0:
38,234,50927,2,0,L|107:244,1,56.9999999999999,6|2,3:2|2:0,0:0:0:0:
147,262,51276,6,0,P|193:292|249:284,1,114,2|10,2:0|2:0,0:0:0:0:
295,179,51974,2,0,L|277:110,1,56.9999999999999,2|0,2:0|3:2,0:0:0:0:
285,66,52323,2,0,P|347:31|391:49,1,114,2|2,3:2|2:0,0:0:0:0:
449,136,53020,2,0,L|435:263,1,114,10|2,2:0|3:2,0:0:0:0:
431,309,53544,1,0,3:2:0:0:
431,309,53718,1,4,3:2:0:0:
249,65,55811,6,0,L|251:-4,2,56.9999999999999,8|0|4,2:0|3:2|3:0,0:0:0:0:
273,118,56334,1,8,3:0:0:0:
273,118,56509,2,0,L|286:242,1,114,8|8,2:0|2:0,0:0:0:0:
267,345,57206,2,0,L|193:332,1,56.9999999999999,8|8,2:0|2:0,0:0:0:0:
162,299,57555,2,0,L|105:309,1,56.9999999999999,8|8,3:2|3:2,0:0:0:0:
54,318,57904,5,10,2:0:0:0:
54,318,58079,1,10,2:0:0:0:
79,150,58602,2,0,L|94:77,1,56.9999999999999,2|8,3:2|2:0,0:0:0:0:
103,39,58951,1,10,2:0:0:0:
214,99,59300,6,0,L|287:91,1,62.9999980773926,6|2,3:2|2:0,0:0:0:0:
330,124,59648,2,0,L|392:130,1,62.9999980773926,10|2,2:0|2:0,0:0:0:0:
453,147,59997,2,0,L|427:283,1,126,2|10,3:2|2:0,0:0:0:0:
313,320,60695,6,0,L|296:246,1,62.9999980773926,2|2,3:2|2:0,0:0:0:0:
299,195,61044,2,0,L|313:133,1,62.9999980773926,10|2,2:0|2:0,0:0:0:0:
289,74,61393,2,0,P|245:46|167:64,1,125.999996154785,2|10,3:2|2:0,0:0:0:0:
86,146,62090,6,0,B|91:290,1,125.999996154785,2|8,3:2|2:0,0:0:0:0:
107,337,62613,1,2,2:0:0:0:
107,337,62788,2,0,P|167:303|240:320,1,126,2|10,3:2|2:0,0:0:0:0:
331,372,63486,1,2,3:2:0:0:
424,287,63834,1,10,2:0:0:0:
356,180,64183,2,0,P|293:212|220:193,1,125.999996154785,2|8,3:2|2:0,0:0:0:0:
173,96,64881,6,0,P|119:69|62:91,1,126,2|10,3:2|2:0,0:0:0:0:
41,151,65404,1,2,2:0:0:0:
37,214,65579,2,0,L|31:359,1,126,2|10,3:2|2:0,0:0:0:0:
157,345,66276,6,0,L|226:331,2,63,2|2|10,3:2|2:0|2:0,0:0:0:0:
160,281,66800,2,0,L|165:156,1,126,2|2,2:0|2:0,0:0:0:0:
168,91,67323,2,0,L|241:93,1,63,8|2,2:0|2:0,0:0:0:0:
294,97,67672,1,2,3:2:0:0:
402,34,68020,6,0,P|460:71|458:148,1,126,10|10,2:0|2:0,0:0:0:0:
445,185,68544,2,0,L|448:253,1,63,2|10,3:2|2:0,0:0:0:0:
396,284,68893,2,0,P|346:303|277:241,1,126,6|0,3:2|3:2,0:0:0:0:
260,211,69416,1,8,2:0:0:0:
226,157,69590,6,0,P|173:112|115:134,1,126,6|0,3:2|3:2,0:0:0:0:
84,175,70113,1,8,2:0:0:0:
111,298,70462,6,0,L|177:308,1,62.9999980773926,6|2,3:2|2:0,0:0:0:0:
228,338,70811,2,0,L|290:328,1,62.9999980773926,10|0,2:0|0:0,0:0:0:0:
352,337,71160,2,0,L|367:212,1,126,2|10,3:2|2:0,0:0:0:0:
380,82,71858,6,0,L|303:91,1,62.9999980773926,2|2,3:2|2:0,0:0:0:0:
258,68,72206,2,0,L|195:60,1,62.9999980773926,10|2,2:0|2:0,0:0:0:0:
135,80,72555,2,0,L|126:215,1,126,2|10,3:2|2:0,0:0:0:0:
204,305,73253,6,0,P|255:265|310:290,1,126,2|10,3:2|2:0,0:0:0:0:
361,326,73776,1,2,2:0:0:0:
361,326,73951,2,0,P|426:314|460:261,1,126,2|10,3:2|2:0,0:0:0:0:
436,143,74648,2,0,L|453:69,2,63,2|2|10,3:2|2:0|2:0,0:0:0:0:
310,158,75346,2,0,P|249:152|173:128,1,126,10|2,2:0|3:2,0:0:0:0:
76,85,76044,6,0,L|85:216,1,120,2|2,3:2|2:0,0:0:0:0:
90,265,76567,1,2,3:2:0:0:
90,265,76741,1,10,2:0:0:0:
206,234,77090,2,0,L|275:248,1,60,2|2,2:0|3:2,0:0:0:0:
322,264,77439,6,0,P|371:297|437:271,1,120,10|10,2:0|2:0,0:0:0:0:
458,232,77962,1,2,3:2:0:0:
458,232,78137,1,10,2:0:0:0:
376,144,78486,2,0,L|371:78,1,60,2|2,3:2|3:2,0:0:0:0:
328,42,78834,6,0,P|277:15|223:55,1,120,8|10,3:2|3:2,0:0:0:0:
201,99,79358,1,10,2:0:0:0:
201,99,79532,2,0,P|174:140|96:150,1,120,10|10,3:2|3:2,0:0:0:0:
49,137,80055,1,10,2:0:0:0:
49,137,80230,1,10,2:0:0:0:
70,256,80579,2,0,L|65:328,1,60,8|8,2:0|2:0,0:0:0:0:
56,371,80927,1,10,2:0:0:0:
56,371,81102,1,10,2:0:0:0:
201,266,81625,6,0,P|261:281|333:286,1,120,6|10,3:2|3:2,0:0:0:0:
442,272,82323,1,10,2:0:0:0:
442,272,82497,1,10,2:0:0:0:
390,164,82846,2,0,B|376:79|376:79|334:40,1,120,6|2,3:2|2:0,0:0:0:0:
295,34,83369,2,0,L|233:50,1,60,10|2,3:2|2:0,0:0:0:0:
208,102,83718,2,0,L|146:118,1,60,2|0,3:2|2:0,0:0:0:0:
104,157,84067,1,0,3:2:0:0:
141,272,84416,6,0,B|193:236|193:236|261:266,1,120,6|8,3:2|2:0,0:0:0:0:
289,300,84939,2,0,B|340:323|340:323|392:287,1,120,6|8,3:2|2:0,0:0:0:0:
423,235,85462,2,0,L|401:107,1,120,6|8,3:2|2:0,0:0:0:0:
388,59,85986,1,6,3:2:0:0:
221,113,86509,1,10,2:0:0:0:
221,113,86683,1,10,2:0:0:0:
256,192,87032,12,0,88602,0:0:0:0:
