osu file format v14

[General]
AudioFilename: audio.mp3
AudioLeadIn: 0
PreviewTime: 58165
Countdown: 0
SampleSet: Soft
StackLeniency: 0.5
Mode: 0
LetterboxInBreaks: 0
WidescreenStoryboard: 1

[Editor]
Bookmarks: 7715,14692,20259,25855,37018,48180,59343,70491,81654,84459,87061,88631
DistanceSpacing: 1
BeatDivisor: 4
GridSize: 4
TimelineZoom: 1.5

[Metadata]
Title:Omoide Shiritori (TV Size)
TitleUnicode:おもいでしりとり (TV Size)
Artist:DIALOGUE+
ArtistUnicode:DIALOGUE+
Creator:Airiesu
Version:Kibb's Expert
Source:ひげを剃る。そして女子高生を拾う。
Tags:I Shaved Then I Brought Kibbleru Home Higehiro Hige wo Soru Soshite Joshikousei wo Hirou anime japanese pop jpop j-pop idol group opening op 荻原 沙優 ogiwara sayu a High School Girl
BeatmapID:2941772
BeatmapSetID:1424129

[Difficulty]
HPDrainRate:5.5
CircleSize:4
OverallDifficulty:8.2
ApproachRate:9
SliderMultiplier:1.8
SliderTickRate:1

[Events]
//Background and Video events
Video,0,"HigehiroE.mp4"
0,0,"sayubgbest.jpg",0,0
//Break Periods
//Storyboard Layer 0 (Background)
//Storyboard Layer 1 (Fail)
//Storyboard Layer 2 (Pass)
//Storyboard Layer 3 (Foreground)
//Storyboard Layer 4 (Overlay)
//Storyboard Sound Samples

[TimingPoints]
-700,348.837209302326,4,2,1,40,1,0
2788,-222.222222222222,4,2,1,40,0,0
6363,-222.222222222222,4,2,1,30,0,0
6451,-222.222222222222,4,2,1,60,0,0
6625,-125,4,2,1,60,0,0
7672,-125,4,2,20,70,0,0
8369,-125,4,2,1,70,0,0
9765,-100,4,2,1,70,0,0
13253,-133.333333333333,4,2,1,70,0,0
13340,-133.333333333333,4,2,1,5,0,0
13602,-133.333333333333,4,2,1,70,0,0
13689,-250,4,2,1,70,0,0
14125,-250,4,2,3,70,0,0
14474,-250,4,2,1,70,0,0
14648,-100,4,2,20,70,0,0
14909,-100,4,2,20,5,0,0
14997,-100,4,2,1,70,0,0
24416,-133.333333333333,4,2,1,70,0,0
25811,-200,4,2,20,40,0,0
26334,-200,4,2,2,40,0,0
36276,-200,4,2,2,70,0,0
36538,-200,4,2,1,70,0,0
36625,-125,4,2,1,70,0,0
36974,-125,4,2,20,60,0,0
37322,-125,4,2,1,60,0,0
42904,-100,4,2,1,60,0,0
43602,-111.111111111111,4,2,1,60,0,0
45695,-125,4,2,1,60,0,0
47613,-100,4,2,1,60,0,0
48137,-125,4,2,20,60,0,0
48311,-125,4,2,1,60,0,0
56509,-125,4,2,1,50,0,0
56683,-125,4,2,1,55,0,0
56858,-125,4,2,1,60,0,0
57032,-125,4,2,1,65,0,0
57206,-125,4,2,1,70,0,0
57381,-125,4,2,1,75,0,0
57555,-125,4,2,1,80,0,0
57730,-125,4,2,1,85,0,0
57904,-125,4,2,1,90,0,0
58602,-125,4,2,1,70,0,0
59300,-125,4,2,20,90,0,1
59474,-125,4,2,1,90,0,1
59997,-100,4,2,1,90,0,1
60258,-100,4,2,1,5,0,1
60346,-100,4,2,1,90,0,1
71421,-100,4,2,1,5,0,1
71509,-100,4,2,1,90,0,1
76044,-100,4,2,1,80,0,0
76741,-166.666666666667,4,2,1,80,0,0
77439,-166.666666666667,4,2,1,80,0,1
78834,-100,4,2,1,50,0,1
79182,-100,4,2,1,60,0,1
79532,-100,4,2,1,70,0,1
79881,-100,4,2,1,80,0,1
80230,-100,4,2,1,90,0,1
81102,-166.666666666667,4,2,1,90,0,0
81625,-100,4,2,20,70,0,0
81974,-100,4,2,1,70,0,0
82235,-100,4,2,1,5,0,0
82323,-100,4,2,1,70,0,0
88602,-100,4,2,1,5,0,0

[Colours]
Combo1 : 148,116,119
Combo2 : 246,246,186
Combo3 : 170,166,79
Combo4 : 125,96,92
Combo5 : 225,204,115
Combo6 : 126,143,171
Combo7 : 193,79,79
Combo8 : 186,188,91

[HitObjects]
256,192,695,12,2,2090,2:0:0:0:
351,334,2788,6,0,P|396:303|399:197,1,162,2|2,2:0|2:0,2:0:0:0:
120,84,4183,2,0,P|108:122|107:165,2,81.0000000000001,2|2|2,2:0|2:0|2:0,2:0:0:0:
54,37,5404,1,2,2:0:0:0:
120,84,5579,2,0,L|213:71,1,81.0000000000001,2|2,2:0|2:0,2:0:0:0:
200,72,6276,5,2,2:0:0:0:
182,67,6363,1,8,2:0:0:0:
164,62,6451,1,8,2:0:0:0:
251,186,6625,2,0,P|300:191|383:112,1,144,2|10,3:2|2:0,2:0:0:0:
173,154,7148,2,0,P|171:191|180:236,1,72,4|2,3:0|3:2,2:0:0:0:
344,310,7497,1,2,3:2:0:0:
420,344,7672,5,6,3:2:0:0:
92,40,8369,5,6,3:2:0:0:
420,344,9067,5,10,2:0:0:0:
403,254,9241,1,0,3:2:0:0:
512,286,9416,5,10,2:0:0:0:
311,312,9590,1,0,3:2:0:0:
460,122,9765,6,0,P|478:162|476:209,1,90,10|0,2:0|2:0,2:0:0:0:
273,210,10113,1,2,3:2:0:0:
403,254,10288,1,2,3:2:0:0:
245,368,10462,6,0,P|226:327|229:281,1,90,6|0,3:2|2:0,2:0:0:0:
359,176,10811,1,2,3:2:0:0:
359,176,10986,1,2,3:2:0:0:
188,87,11160,1,10,3:2:0:0:
188,87,11334,1,8,3:2:0:0:
323,46,11509,5,10,3:2:0:0:
238,160,11683,1,10,2:0:0:0:
405,251,11858,5,6,3:2:0:0:
177,326,12032,1,8,2:0:0:0:
177,326,12119,1,8,2:0:0:0:
177,326,12206,1,10,3:2:0:0:
102,98,12381,1,8,2:0:0:0:
102,98,12468,1,8,2:0:0:0:
102,98,12555,6,0,L|173:77,1,45,10|0,2:0|2:0,2:0:0:0:
330,29,12730,1,10,2:0:0:0:
115,260,13253,6,0,B|179:235|179:235|239:262,1,135,0|0,2:0|2:0,2:0:0:0:
239,262,13689,2,2,L|227:164,1,90,0|2,2:0|2:0,2:0:0:0:
414,21,14474,5,8,2:0:0:0:
414,21,14561,1,8,2:0:0:0:
414,21,14648,2,0,P|447:79|439:145,1,135,6|0,3:2|2:0,2:0:0:0:
439,145,14997,2,0,P|394:151|350:160,1,90,10|0,3:2|2:0,2:0:0:0:
262,275,15346,1,10,2:0:0:0:
168,108,15520,2,0,P|212:101|256:92,1,90,10|0,2:0|3:2,2:0:0:0:
192,329,15869,6,0,P|178:290|185:226,1,90,6|0,3:2|3:2,2:0:0:0:
340,77,16218,1,2,2:0:0:0:
270,175,16393,1,10,3:2:0:0:
194,24,16567,1,2,2:0:0:0:
369,169,16741,1,10,3:2:0:0:
389,186,16829,1,8,2:0:0:0:
402,209,16916,1,8,2:0:0:0:
408,236,17003,1,8,2:0:0:0:
406,262,17090,1,0,3:2:0:0:
396,287,17177,2,0,P|352:291|294:306,1,90,4|8,3:0|3:0,2:0:0:0:
247,358,17439,5,6,3:2:0:0:
43,62,17788,2,0,P|85:69|152:81,1,90,10|0,3:2|2:0,2:0:0:0:
212,42,18137,1,10,2:0:0:0:
16,247,18311,1,10,2:0:0:0:
99,209,18486,1,0,3:2:0:0:
145,284,18660,6,0,P|224:287|289:195,1,180,6|2,3:2|2:0,2:0:0:0:
212,42,19183,2,0,P|208:86|201:131,1,90,10|2,3:2|2:0,2:0:0:0:
439,141,19532,1,8,2:0:0:0:
422,121,19619,1,8,2:0:0:0:
399,108,19706,1,8,2:0:0:0:
372,102,19794,1,8,2:0:0:0:
346,104,19881,1,8,2:0:0:0:
321,114,19968,2,0,P|314:158|310:203,1,90,8|4,2:0|3:0,2:0:0:0:
405,303,20230,6,0,L|315:311,1,90,6|8,3:2|2:0,2:0:0:0:
297,313,20491,1,8,2:0:0:0:
278,315,20579,1,8,2:0:0:0:
260,317,20666,1,8,2:0:0:0:
242,319,20753,1,6,3:2:0:0:
113,213,20927,5,8,2:0:0:0:
95,254,21015,1,8,2:0:0:0:
99,298,21102,1,8,2:0:0:0:
122,336,21189,1,8,2:0:0:0:
160,359,21276,1,6,3:2:0:0:
410,152,21451,5,8,2:0:0:0:
418,121,21538,1,8,2:0:0:0:
414,90,21625,1,8,2:0:0:0:
401,62,21712,1,8,2:0:0:0:
378,41,21800,1,6,3:2:0:0:
203,108,21974,6,0,P|208:131|215:169,1,45,8|8,2:0|2:0,2:0:0:0:
300,195,22148,2,0,P|294:218|288:256,1,45,8|8,2:0|2:0,2:0:0:0:
242,319,22323,1,10,2:0:0:0:
242,319,22497,1,10,2:0:0:0:
171,272,22846,6,0,B|271:249|249:303|349:282,1,180,6|0,3:2|3:2,2:0:0:0:
433,286,23369,2,0,P|422:239|415:186,1,90,8|0,2:0|2:0,2:0:0:0:
253,190,23718,2,0,P|263:143|271:90,1,90,0|0,3:2|2:0,2:0:0:0:
339,52,24067,1,8,2:0:0:0:
58,361,24416,6,0,P|30:321|36:223,1,135,2|0,2:0|2:0,2:0:0:0:
95,185,24939,1,2,2:0:0:0:
108,187,25026,1,2,2:0:0:0:
121,189,25113,1,2,2:0:0:0:
178,259,25462,1,2,2:0:0:0:
252,204,25811,6,0,L|349:194,1,90,10|8,3:2|2:0,2:0:0:0:
341,194,26334,1,2,2:0:0:0:
406,249,26509,2,0,P|418:291|414:336,1,90,10|8,2:0|2:0,2:0:0:0:
407,136,27032,1,2,3:2:0:0:
469,58,27206,5,10,3:2:0:0:
418,150,27381,1,2,2:0:0:0:
344,80,27555,2,0,L|241:69,1,90,10|10,2:0|2:0,2:0:0:0:
185,113,28079,1,0,2:0:0:0:
116,156,28253,2,0,L|124:211,1,45,8|2,2:0|2:0,2:0:0:0:
94,280,28602,6,0,L|183:289,1,90,10|10,3:2|2:0,2:0:0:0:
356,192,29300,2,0,L|266:201,1,90,10|10,2:0|2:0,2:0:0:0:
437,184,29823,1,0,3:2:0:0:
201,147,29997,2,0,P|187:102|197:50,2,90,10|10|10,3:2|2:0|2:0,2:0:0:0:
253,214,30869,1,0,2:0:0:0:
312,275,31044,2,0,L|374:283,1,45,8|2,2:0|2:0,2:0:0:0:
437,292,31393,5,10,3:2:0:0:
183,367,31741,1,10,2:0:0:0:
129,305,31916,1,2,2:0:0:0:
159,230,32090,1,10,2:0:0:0:
159,230,32439,1,8,2:0:0:0:
261,289,32613,5,2,3:2:0:0:
137,217,32788,2,0,P|130:172|123:127,1,90,10|10,3:2|2:0,2:0:0:0:
154,27,33311,1,2,2:0:0:0:
50,100,33486,1,10,2:0:0:0:
279,176,33834,2,0,L|333:181,1,45,8|2,2:0|2:0,2:0:0:0:
397,210,34183,6,0,P|408:167|399:111,1,90,10|10,3:2|2:0,2:0:0:0:
203,41,34881,2,0,P|192:84|201:140,1,90,10|10,2:0|2:0,2:0:0:0:
197,128,35404,1,0,2:0:0:0:
279,176,35579,2,0,B|178:161|200:207|101:188,1,180,2|2,2:0|3:2,2:0:0:0:
250,260,36538,5,8,2:0:0:0:
259,275,36625,2,0,L|354:309,1,72,8|0,2:0|2:0,2:0:0:0:
408,322,36974,6,0,P|437:286|422:169,1,144,6|8,3:2|2:0,2:0:0:0:
437,191,37497,1,2,2:0:0:0:
335,85,37672,1,2,3:2:0:0:
475,79,37846,2,0,P|443:97|413:116,1,72,0|8,3:2|2:0,2:0:0:0:
258,137,38195,5,2,2:0:0:0:
340,191,38369,1,2,2:0:0:0:
235,223,38544,1,2,3:2:0:0:
342,329,38718,2,0,B|282:297|282:297|207:314,1,144,10|2,2:0|3:2,2:0:0:0:
396,257,39241,1,0,3:2:0:0:
192,330,39416,6,0,P|159:295|155:192,1,144,8|2,2:0|3:2,2:0:0:0:
327,55,40113,2,0,P|321:89|310:140,1,72,10|0,2:0|2:0,2:0:0:0:
260,203,40462,1,2,3:2:0:0:
260,203,40637,1,0,3:2:0:0:
358,260,40811,2,0,P|363:225|375:175,1,72,10|0,2:0|2:0,2:0:0:0:
441,146,41160,5,2,3:2:0:0:
241,213,41334,1,0,3:2:0:0:
416,320,41509,2,0,B|346:328|346:292|266:302,1,144,10|2,2:0|3:2,2:0:0:0:
85,334,42032,1,0,3:2:0:0:
175,282,42206,1,10,2:0:0:0:
48,194,42381,1,2,3:2:0:0:
48,194,42468,1,0,3:2:0:0:
48,194,42555,5,2,3:2:0:0:
13,294,42730,1,0,3:2:0:0:
165,365,42904,6,0,L|132:165,1,180,12|2,2:0|3:2,2:0:0:0:
200,122,43427,1,2,3:2:0:0:
356,71,43602,6,0,P|338:140|233:177,1,162,14|2,2:0|3:2,2:0:0:0:
115,107,44125,1,0,3:2:0:0:
42,280,44300,6,0,B|134:261|112:301|202:286,1,162,12|2,2:0|3:2,2:0:0:0:
292,350,44823,1,2,3:2:0:0:
391,303,44997,2,0,P|382:272|373:220,1,81.0000000000001,14|0,2:0|2:0,2:0:0:0:
422,157,45346,5,6,3:2:0:0:
165,207,45695,2,0,P|173:176|181:131,1,72,10|0,2:0|2:0,2:0:0:0:
126,17,46044,1,2,3:2:0:0:
236,69,46218,1,0,3:2:0:0:
95,150,46393,1,10,2:0:0:0:
95,150,46567,1,0,3:2:0:0:
262,181,46741,6,0,B|334:174|335:208|410:199,1,144,6|2,3:2|2:0,2:0:0:0:
403,199,47265,1,2,2:0:0:0:
348,77,47439,5,10,2:0:0:0:
326,278,47613,2,0,L|346:86,1,180,0|2,3:2|3:2,2:0:0:0:
213,45,48137,6,0,P|209:81|202:128,1,72,6|2,3:2|2:0,2:0:0:0:
59,88,48486,2,0,L|149:71,1,72,2|0,2:0|3:2,2:0:0:0:
256,227,48834,2,0,B|194:193|194:193|122:208,1,144,10|2,2:0|2:0,2:0:0:0:
122,208,49532,5,2,3:2:0:0:
320,294,49706,2,0,P|347:262|343:151,1,144,8|0,2:0|3:2,2:0:0:0:
384,42,50230,2,0,P|348:49|313:53,1,72,10|0,2:0|2:0,2:0:0:0:
126,48,50579,1,2,2:0:0:0:
196,98,50753,1,2,3:2:0:0:
105,150,50927,1,6,3:2:0:0:
227,217,51102,5,2,2:0:0:0:
227,217,51276,1,2,2:0:0:0:
84,138,51451,1,0,3:2:0:0:
263,31,51625,2,0,P|295:38|333:45,1,72,10|0,2:0|2:0,2:0:0:0:
386,107,51974,2,0,P|379:143|368:192,1,72,2|0,2:0|3:2,2:0:0:0:
457,357,52323,5,2,3:2:0:0:
313,265,52497,1,8,2:0:0:0:
421,282,52672,5,2,2:0:0:0:
339,345,52846,1,0,3:2:0:0:
437,269,53020,1,10,2:0:0:0:
108,70,53369,5,2,3:2:0:0:
176,118,53544,1,0,3:2:0:0:
66,181,53718,1,4,3:2:0:0:
150,181,55811,5,8,2:0:0:0:
40,118,55986,1,0,3:2:0:0:
108,70,56160,2,0,L|201:56,1,72,4|8,3:0|3:0,2:0:0:0:
314,178,56509,5,8,2:0:0:0:
246,227,56683,1,8,2:0:0:0:
331,276,56858,1,8,2:0:0:0:
198,314,57032,5,8,2:0:0:0:
408,212,57206,1,8,2:0:0:0:
238,132,57381,1,8,2:0:0:0:
417,41,57555,1,8,3:2:0:0:
295,235,57730,5,8,3:2:0:0:
295,235,57817,1,4,3:0:0:0:
295,235,57904,1,10,2:0:0:0:
0,49,58079,1,10,2:0:0:0:
0,49,58602,5,2,3:2:0:0:
172,327,58776,1,8,2:0:0:0:
145,320,58863,1,8,2:0:0:0:
123,306,58951,1,10,2:0:0:0:
106,285,59038,1,8,2:0:0:0:
97,259,59125,1,8,2:0:0:0:
96,233,59212,1,8,2:0:0:0:
104,207,59300,5,6,3:2:0:0:
167,144,59474,1,2,2:0:0:0:
219,214,59648,1,10,2:0:0:0:
51,123,59823,1,2,2:0:0:0:
203,64,59997,2,0,P|264:59|349:52,1,135,2|0,3:2|2:0,2:0:0:0:
359,45,60346,1,10,2:0:0:0:
276,145,60520,1,2,2:0:0:0:
430,179,60695,6,0,P|440:135|434:91,1,90,2|2,3:2|2:0,2:0:0:0:
268,239,61044,1,10,2:0:0:0:
387,261,61218,1,2,2:0:0:0:
181,130,61393,2,0,P|156:168|200:290,1,180,2|10,3:2|2:0,2:0:0:0:
338,190,61916,1,2,2:0:0:0:
326,352,62090,6,0,B|231:330|249:380|148:361,1,180,2|8,3:2|2:0,2:0:0:0:
0,263,62613,1,2,2:0:0:0:
32,177,62788,2,0,P|76:169|120:160,1,90,2|0,3:2|2:0,2:0:0:0:
58,332,63137,2,0,P|29:297|0:263,1,90,10|0,2:0|2:0,2:0:0:0:
179,229,63486,6,0,P|248:233|308:111,1,180,2|10,3:2|2:0,2:0:0:0:
320,70,64009,1,0,2:0:0:0:
240,36,64183,2,0,L|150:24,1,90,2|0,3:2|2:0,2:0:0:0:
55,157,64532,1,8,2:0:0:0:
77,242,64706,5,2,2:0:0:0:
167,136,64881,1,2,3:2:0:0:
40,149,65055,1,2,2:0:0:0:
172,215,65230,1,10,2:0:0:0:
358,146,65404,5,2,2:0:0:0:
416,253,65579,1,2,3:2:0:0:
329,229,65753,1,2,2:0:0:0:
444,172,65927,1,10,2:0:0:0:
310,239,66102,1,2,2:0:0:0:
494,348,66276,5,2,3:2:0:0:
291,249,66451,1,2,2:0:0:0:
462,164,66625,1,10,2:0:0:0:
267,55,66800,6,0,P|219:48|178:40,1,90,2|0,2:0|3:2,2:0:0:0:
39,193,67148,2,0,P|83:201|127:207,1,90,2|8,2:0|2:0,2:0:0:0:
197,254,67497,1,2,2:0:0:0:
127,128,67672,1,2,3:2:0:0:
51,294,67846,5,2,3:2:0:0:
262,194,68020,1,10,2:0:0:0:
464,290,68195,1,2,3:2:0:0:
401,346,68369,5,10,2:0:0:0:
323,132,68544,1,2,3:2:0:0:
512,7,68718,1,10,2:0:0:0:
480,364,68893,6,0,P|419:299|332:295,1,180,6|0,3:2|3:2,2:0:0:0:
266,351,69416,1,8,2:0:0:0:
74,142,69590,5,6,3:2:0:0:
147,215,69765,1,2,2:0:0:0:
25,268,69939,1,0,3:2:0:0:
133,79,70113,2,0,P|177:73|222:66,1,90,8|0,2:0|3:2,2:0:0:0:
414,31,70462,5,6,3:2:0:0:
313,116,70637,1,2,2:0:0:0:
400,128,70811,2,0,P|414:170|412:214,1,90,10|0,2:0|2:0,2:0:0:0:
175,365,71160,2,0,P|144:306|149:238,1,135,2|0,3:2|2:0,2:0:0:0:
164,223,71509,1,10,2:0:0:0:
248,320,71683,1,2,2:0:0:0:
44,252,71858,5,2,3:2:0:0:
220,156,72032,1,2,2:0:0:0:
61,88,72206,1,10,2:0:0:0:
192,30,72381,1,2,2:0:0:0:
119,150,72555,5,2,3:2:0:0:
276,237,72730,1,2,2:0:0:0:
276,237,72817,1,2,2:0:0:0:
276,237,72904,2,0,L|379:220,1,90,10|2,2:0|2:0,2:0:0:0:
434,14,73253,5,2,3:2:0:0:
434,14,73427,1,2,2:0:0:0:
213,171,73602,1,10,2:0:0:0:
213,171,73776,1,2,2:0:0:0:
427,327,73951,5,2,3:2:0:0:
295,134,74125,1,2,2:0:0:0:
456,165,74300,1,10,2:0:0:0:
266,295,74474,1,2,2:0:0:0:
54,143,74648,5,2,3:2:0:0:
131,201,74823,1,2,2:0:0:0:
14,258,74997,1,10,2:0:0:0:
470,85,75346,6,0,P|428:77|380:64,1,90,10|0,2:0|2:0,2:0:0:0:
233,81,75695,1,2,3:2:0:0:
310,20,75869,1,0,3:2:0:0:
131,23,76044,6,0,P|123:94|197:164,1,180,2|2,3:2|2:0,2:0:0:0:
290,141,76567,1,2,3:2:0:0:
367,195,76741,2,0,P|374:248|349:307,1,108,10|2,2:0|2:0,2:0:0:0:
214,239,77265,1,2,3:2:0:0:
54,327,77439,5,10,2:0:0:0:
193,252,77613,1,0,3:2:0:0:
26,155,77788,5,10,2:0:0:0:
232,333,77962,1,2,3:2:0:0:
446,179,78137,5,10,2:0:0:0:
396,111,78311,1,0,3:2:0:0:
312,132,78486,1,2,3:2:0:0:
229,355,78660,1,2,3:2:0:0:
176,274,78834,6,0,B|80:248|97:299|-1:278,1,180,8|10,3:2|3:2,2:0:0:0:
19,123,79358,1,10,2:0:0:0:
170,76,79532,1,10,3:2:0:0:
179,110,79619,1,8,2:0:0:0:
172,145,79706,1,8,2:0:0:0:
149,173,79794,1,8,2:0:0:0:
117,187,79881,1,10,3:2:0:0:
263,345,80055,1,10,2:0:0:0:
263,345,80143,1,8,2:0:0:0:
263,345,80230,6,0,P|267:296|274:247,1,90,10|0,2:0|2:0,2:0:0:0:
411,254,80579,1,8,2:0:0:0:
401,210,80666,1,8,2:0:0:0:
372,177,80753,1,8,2:0:0:0:
329,163,80840,1,8,2:0:0:0:
286,171,80927,1,10,2:0:0:0:
107,354,81102,2,0,B|125:304|125:304|106:237,1,108,10|0,2:0|2:0,2:0:0:0:
73,170,81625,6,0,P|115:174|173:185,1,90,6|0,3:2|2:0,2:0:0:0:
386,88,81974,2,0,P|312:79|232:63,1,135,10|0,3:2|2:0,2:0:0:0:
233,55,82323,1,10,2:0:0:0:
348,223,82497,1,10,2:0:0:0:
444,193,82672,1,0,3:2:0:0:
308,305,82846,6,0,P|246:241|255:152,1,180,6|2,3:2|2:0,2:0:0:0:
354,57,83369,2,0,P|365:97|374:144,1,90,10|2,3:2|2:0,2:0:0:0:
224,280,83718,1,10,3:2:0:0:
207,300,83805,1,8,2:0:0:0:
184,313,83893,1,8,2:0:0:0:
157,319,83980,1,8,2:0:0:0:
131,317,84067,1,0,3:2:0:0:
106,307,84154,2,0,P|97:262|85:219,1,90,4|8,3:0|3:0,2:0:0:0:
24,120,84416,6,0,L|128:128,1,90,6|8,3:2|2:0,2:0:0:0:
113,126,84677,1,8,2:0:0:0:
113,126,84765,1,8,2:0:0:0:
113,126,84852,1,8,2:0:0:0:
113,126,84939,1,6,3:2:0:0:
355,27,85113,5,8,2:0:0:0:
368,69,85201,1,8,2:0:0:0:
360,113,85288,1,8,2:0:0:0:
331,146,85375,1,8,2:0:0:0:
289,162,85462,1,6,3:2:0:0:
85,219,85637,5,8,2:0:0:0:
75,248,85724,1,8,2:0:0:0:
77,280,85811,1,8,2:0:0:0:
90,308,85898,1,8,2:0:0:0:
112,330,85986,1,6,3:2:0:0:
222,284,86160,1,8,2:0:0:0:
313,350,86334,5,8,2:0:0:0:
344,354,86422,1,8,2:0:0:0:
375,358,86509,1,10,2:0:0:0:
279,73,86683,1,10,2:0:0:0:
375,358,87032,5,6,3:2:0:0:
256,192,87119,12,0,88602,2:0:0:0:
