osu file format v14

[General]
AudioFilename: audio.mp3
AudioLeadIn: 0
PreviewTime: 58165
Countdown: 0
SampleSet: Soft
StackLeniency: 0.5
Mode: 0
LetterboxInBreaks: 0
WidescreenStoryboard: 1

[Editor]
Bookmarks: 7715,14692,20259,25855,37018,48180,59343,70491,81654,84459,87061,88631
DistanceSpacing: 0.8
BeatDivisor: 4
GridSize: 4
TimelineZoom: 1.5

[Metadata]
Title:Omoide Shiritori (TV Size)
TitleUnicode:おもいでしりとり (TV Size)
Artist:DIALOGUE+
ArtistUnicode:DIALOGUE+
Creator:Airiesu
Version:Insane
Source:ひげを剃る。そして女子高生を拾う。
Tags:I Shaved Then I Brought Kibbleru Home Higehiro Hige wo Soru Soshite Joshikousei wo Hirou anime japanese pop jpop j-pop idol group opening op 荻原 沙優 ogiwara sayu a High School Girl
BeatmapID:2933166
BeatmapSetID:1424129

[Difficulty]
HPDrainRate:5
CircleSize:3.8
OverallDifficulty:8
ApproachRate:9
SliderMultiplier:1.6
SliderTickRate:1

[Events]
//Background and Video events
Video,0,"HigehiroE.mp4"
0,0,"sayubgPOG.jpg",0,0
//Break Periods
//Storyboard Layer 0 (Background)
//Storyboard Layer 1 (Fail)
//Storyboard Layer 2 (Pass)
//Storyboard Layer 3 (Foreground)
//Storyboard Layer 4 (Overlay)
//Storyboard Sound Samples

[TimingPoints]
-700,348.837209302326,4,2,1,40,1,0
2090,-133.333333333333,4,2,1,40,0,0
6363,-133.333333333333,4,2,1,30,0,0
6451,-133.333333333333,4,2,1,60,0,0
7672,-100,4,2,20,70,0,0
7758,-100,4,2,20,70,0,0
8020,-100,4,2,1,70,0,0
14125,-100,4,2,3,70,0,0
14474,-100,4,2,1,70,0,0
14648,-90.9090909090909,4,2,20,70,0,0
14909,-90.9090909090909,4,2,20,5,0,0
14997,-90.9090909090909,4,2,1,70,0,0
15258,-90.9090909090909,4,2,1,5,0,0
15346,-90.9090909090909,4,2,1,70,0,0
17700,-90.9090909090909,4,2,1,5,0,0
17788,-90.9090909090909,4,2,1,70,0,0
18049,-90.9090909090909,4,2,1,5,0,0
18137,-90.9090909090909,4,2,1,70,0,0
22846,-100,4,2,1,70,0,0
25811,-133.333333333333,4,2,20,40,0,0
25898,-133.333333333333,4,2,20,40,0,0
26334,-133.333333333333,4,2,2,40,0,0
31654,-133.333333333333,4,2,2,5,0,0
31741,-133.333333333333,4,2,2,40,0,0
33049,-133.333333333333,4,2,2,5,0,0
33137,-133.333333333333,4,2,2,40,0,0
36276,-133.333333333333,4,2,2,70,0,0
36538,-133.333333333333,4,2,1,70,0,0
36625,-200,4,2,1,70,0,0
36886,-200,4,2,1,5,0,0
36974,-100,4,2,20,60,0,0
37060,-100,4,2,20,60,0,0
37323,-100,4,2,1,60,0,0
42555,-133.333333333333,4,2,1,60,0,0
42816,-133.333333333333,4,2,1,5,0,0
42904,-100,4,2,1,60,0,0
43951,-133.333333333333,4,2,1,60,0,0
44212,-133.333333333333,4,2,1,5,0,0
44300,-100,4,2,1,60,0,0
44997,-133.333333333333,4,2,1,60,0,0
45258,-133.333333333333,4,2,1,5,0,0
45346,-100,4,2,1,60,0,0
46393,-133.333333333333,4,2,1,60,0,0
46654,-133.333333333333,4,2,1,5,0,0
46741,-166.666666666667,4,2,1,60,0,0
47351,-166.666666666667,4,2,1,5,0,0
47439,-166.666666666667,4,2,1,60,0,0
48137,-111.111111111111,4,2,20,60,0,0
48223,-111.111111111111,4,2,20,60,0,0
48311,-111.111111111111,4,2,1,60,0,0
48834,-90.9090909090909,4,2,1,60,0,0
49095,-90.9090909090909,4,2,1,5,0,0
49183,-111.111111111111,4,2,1,60,0,0
50230,-90.9090909090909,4,2,1,60,0,0
50491,-90.9090909090909,4,2,1,5,0,0
50579,-111.111111111111,4,2,1,60,0,0
51625,-90.9090909090909,4,2,1,60,0,0
51886,-90.9090909090909,4,2,1,5,0,0
51974,-111.111111111111,4,2,1,60,0,0
53020,-90.9090909090909,4,2,1,60,0,0
53281,-90.9090909090909,4,2,1,5,0,0
53369,-90.9090909090909,4,2,1,60,0,0
56509,-100,4,2,1,50,0,0
56683,-100,4,2,1,55,0,0
56858,-100,4,2,1,60,0,0
57032,-100,4,2,1,65,0,0
57206,-100,4,2,1,70,0,0
57381,-100,4,2,1,75,0,0
57555,-100,4,2,1,80,0,0
57730,-100,4,2,1,85,0,0
57904,-100,4,2,1,90,0,0
58602,-100,4,2,1,70,0,0
59300,-100,4,2,20,90,0,1
59474,-100,4,2,1,90,0,1
59997,-83.3333333333333,4,2,1,90,0,1
62351,-83.3333333333333,4,2,1,5,0,1
62439,-83.3333333333333,4,2,1,90,0,1
63049,-83.3333333333333,4,2,1,5,0,1
63137,-83.3333333333333,4,2,1,90,0,1
76044,-100,4,2,1,80,0,0
78834,-90.9090909090909,4,2,1,50,0,1
79183,-90.9090909090909,4,2,1,60,0,1
79532,-90.9090909090909,4,2,1,70,0,1
79881,-90.9090909090909,4,2,1,80,0,1
80230,-90.9090909090909,4,2,1,90,0,0
80579,-90.9090909090909,4,2,1,90,0,1
81102,-90.9090909090909,4,2,1,90,0,0
81625,-90.9090909090909,4,2,20,70,0,0
81886,-90.9090909090909,4,2,20,5,0,0
81974,-90.9090909090909,4,2,1,70,0,0
82235,-90.9090909090909,4,2,1,5,0,0
82323,-90.9090909090909,4,2,1,70,0,0
87032,-133.333333333333,4,2,1,70,0,0
88601,-133.333333333333,4,2,1,5,0,0

[Colours]
Combo1 : 148,116,119
Combo2 : 236,204,105
Combo3 : 160,87,70
Combo4 : 165,61,50
Combo5 : 245,236,205
Combo6 : 131,134,123
Combo7 : 201,115,114
Combo8 : 213,170,92

[HitObjects]
72,120,2090,6,0,L|140:117,1,60.0000000000001,2|2,2:0|2:0,0:0:0:0:
191,172,2439,2,0,L|250:174,1,60.0000000000001,2|2,2:0|2:0,0:0:0:0:
316,230,2788,2,0,P|343:172|310:112,1,120,2|2,2:0|2:0,0:0:0:0:
243,90,3311,1,2,2:0:0:0:
364,36,3486,6,0,L|436:55,1,60.0000000000001,2|2,2:0|2:0,0:0:0:0:
476,138,3834,2,0,L|404:157,1,60.0000000000001,2|2,2:0|2:0,0:0:0:0:
346,235,4183,2,0,L|481:270,1,120,2|2,2:0|2:0,0:0:0:0:
500,359,4706,1,2,2:0:0:0:
372,328,4881,6,0,L|255:297,1,120,2|0,2:0|0:0,0:0:0:0:
176,232,5404,1,2,2:0:0:0:
90,275,5579,2,0,P|60:220|94:157,1,120,2|2,2:0|2:0,0:0:0:0:
250,73,6276,5,2,2:0:0:0:
250,73,6363,1,8,2:0:0:0:
250,73,6451,1,8,2:0:0:0:
177,215,6625,2,0,L|161:138,1,60.0000000000001,2|0,3:2|3:2,0:0:0:0:
136,22,6974,1,10,2:0:0:0:
136,22,7148,1,4,3:0:0:0:
170,138,7323,1,2,3:2:0:0:
66,102,7497,1,2,3:2:0:0:
250,73,7672,6,0,B|290:103|339:78|317:55|369:33|414:58,1,160,6|2,3:2|2:0,0:0:0:0:
423,145,8195,1,2,2:0:0:0:
284,0,8369,2,0,L|272:164,1,160,6|2,3:2|2:0,0:0:0:0:
210,242,8893,1,2,2:0:0:0:
371,286,9067,6,0,L|364:197,1,80,10|0,2:0|3:2,0:0:0:0:
242,77,9416,1,10,2:0:0:0:
381,127,9590,1,0,3:2:0:0:
198,235,9765,1,10,2:0:0:0:
198,235,10113,5,2,3:2:0:0:
243,349,10288,1,2,3:2:0:0:
342,204,10462,1,6,3:2:0:0:
342,204,10811,5,2,3:2:0:0:
366,318,10986,1,2,3:2:0:0:
233,207,11160,2,0,L|116:219,1,80,10|8,3:2|3:2,0:0:0:0:
43,294,11509,1,10,3:2:0:0:
98,139,11683,1,10,2:0:0:0:
204,318,11858,5,6,3:2:0:0:
315,250,12032,1,8,2:0:0:0:
315,250,12119,1,8,2:0:0:0:
315,250,12206,2,0,L|354:245,3,40,10|8|8|8,3:2|2:0|2:0|2:0,0:0:0:0:
428,304,12555,1,10,2:0:0:0:
498,125,12730,1,10,2:0:0:0:
498,125,14125,5,2,2:0:0:0:
268,37,14474,2,0,L|278:97,1,40,8|8,2:0|2:0,0:0:0:0:
306,161,14648,6,0,B|279:181|245:167|250:157|211:135|168:159,1,132,6|0,3:2|0:0,0:0:0:0:
163,173,14997,2,0,P|177:103|133:66,1,132,10|0,3:2|0:0,0:0:0:0:
112,57,15346,1,10,2:0:0:0:
148,202,15520,2,0,L|171:319,1,88,10|0,2:0|3:2,0:0:0:0:
267,375,15869,6,0,P|341:337|339:253,1,176,6|2,3:2|2:0,0:0:0:0:
282,170,16393,1,10,3:2:0:0:
272,297,16567,1,2,2:0:0:0:
402,204,16741,2,0,L|391:138,3,44,10|8|8|8,3:2|2:0|2:0|2:0,0:0:0:0:
308,104,17090,1,0,3:2:0:0:
306,114,17177,1,4,3:0:0:0:
304,125,17265,1,0,3:2:0:0:
302,136,17352,1,8,3:0:0:0:
300,147,17439,6,0,L|159:175,1,132,6|0,3:2|0:0,0:0:0:0:
244,84,17788,2,0,L|216:225,1,132,10|0,3:2|0:0,0:0:0:0:
214,241,18137,1,10,2:0:0:0:
93,99,18311,2,0,L|75:9,1,88,10|0,2:0|3:2,0:0:0:0:
186,235,18660,6,0,L|5:204,1,176,6|2,3:2|2:0,0:0:0:0:
84,128,19183,1,10,3:2:0:0:
145,307,19358,1,2,2:0:0:0:
280,194,19532,2,0,L|331:199,3,44,8|8|8|8,2:0|2:0|2:0|2:0,0:0:0:0:
409,270,19881,1,8,2:0:0:0:
398,271,19968,1,8,2:0:0:0:
387,272,20055,1,0,3:2:0:0:
376,273,20143,1,4,3:0:0:0:
365,275,20230,6,0,L|362:231,1,44,6|0,3:2|0:0,0:0:0:0:
237,293,20404,2,0,L|239:336,3,44,8|8|8|8,2:0|2:0|2:0|2:0,0:0:0:0:
286,219,20753,6,0,L|283:175,1,44,6|0,3:2|0:0,0:0:0:0:
158,237,20927,2,0,L|160:280,3,44,8|8|8|8,2:0|2:0|2:0|2:0,0:0:0:0:
207,163,21276,6,0,L|204:119,1,44,6|0,3:2|0:0,0:0:0:0:
79,181,21451,2,0,L|81:224,3,44,8|8|8|8,2:0|2:0|2:0|2:0,0:0:0:0:
128,107,21800,6,0,L|125:63,1,44,6|0,3:2|0:0,0:0:0:0:
0,125,21974,2,0,L|2:168,3,44,8|8|8|8,2:0|2:0|2:0|2:0,0:0:0:0:
82,37,22323,5,10,2:0:0:0:
194,224,22497,1,10,2:0:0:0:
194,224,22846,6,0,B|232:257|278:234|265:220|303:196|349:217,1,160,6|0,3:2|3:2,0:0:0:0:
326,369,23369,2,0,L|314:278,1,80,8|0,2:0|0:0,0:0:0:0:
235,155,23718,1,0,3:2:0:0:
396,278,23893,1,0,0:0:0:0:
358,89,24067,2,0,L|347:168,1,80,8|0,2:0|0:0,0:0:0:0:
228,328,24416,5,2,2:0:0:0:
109,184,24939,2,0,L|48:190,2,40,2|2|2,2:0|2:0|2:0,0:0:0:0:
43,355,25462,1,2,2:0:0:0:
181,275,25811,6,0,L|309:299,1,120,10|8,3:2|2:0,0:0:0:0:
364,364,26334,1,2,2:0:0:0:
364,364,26509,2,0,P|403:344|414:305,1,60.0000000000001,10|0,2:0|0:0,0:0:0:0:
493,327,26858,2,0,P|506:300|502:270,1,60.0000000000001,8|2,2:0|3:2,0:0:0:0:
394,181,27206,6,0,L|385:253,1,60.0000000000001,10|2,3:2|2:0,0:0:0:0:
258,346,27555,2,0,L|250:286,1,60.0000000000001,10|0,2:0|0:0,0:0:0:0:
189,170,27904,2,0,P|141:144|63:165,1,120,10|8,2:0|2:0,0:0:0:0:
122,229,28427,1,2,2:0:0:0:
250,111,28602,6,0,P|276:97|306:96,1,60.0000000000001,10|0,3:2|0:0,0:0:0:0:
333,21,28951,2,0,P|361:29|383:49,1,60.0000000000001,10|0,2:0|0:0,0:0:0:0:
415,153,29300,2,0,L|396:285,1,120,10|10,2:0|2:0,0:0:0:0:
282,338,29823,1,0,3:2:0:0:
282,338,29997,2,0,L|273:278,1,60.0000000000001,10|0,3:2|0:0,0:0:0:0:
186,185,30346,2,0,L|177:244,1,60.0000000000001,10|0,2:0|0:0,0:0:0:0:
131,88,30695,2,0,L|263:107,1,120,10|8,2:0|2:0,0:0:0:0:
323,154,31218,1,2,2:0:0:0:
440,86,31393,6,0,B|439:137|439:137|421:151|414:182,1,90.0000000000002,10|0,3:2|0:0,0:0:0:0:
419,207,31741,2,0,L|439:282,1,60.0000000000001,10|2,2:0|2:0,0:0:0:0:
361,358,32090,2,0,P|339:321|261:297,1,120,10|8,2:0|2:0,0:0:0:0:
191,348,32613,1,2,3:2:0:0:
92,248,32788,6,0,B|116:261|116:261|174:232,1,90.0000000000002,10|0,3:2|0:0,0:0:0:0:
189,195,33137,2,0,P|215:175|256:176,1,60.0000000000001,10|2,2:0|2:0,0:0:0:0:
337,146,33486,2,0,P|318:91|263:73,1,120,10|8,2:0|2:0,0:0:0:0:
176,105,34009,1,2,2:0:0:0:
97,60,34183,6,0,L|116:-3,1,60.0000000000001,10|0,3:2|0:0,0:0:0:0:
158,162,34532,2,0,L|177:99,1,60.0000000000001,10|0,2:0|0:0,0:0:0:0:
337,146,34881,2,0,L|318:83,1,60.0000000000001,10|0,2:0|0:0,0:0:0:0:
276,248,35230,2,0,L|257:185,1,60.0000000000001,10|0,2:0|0:0,0:0:0:0:
369,236,35579,1,2,2:0:0:0:
369,236,36276,6,0,L|377:264,1,30.0000000000001,2|0,3:2|0:0,0:0:0:0:
427,364,36451,1,0,3:2:0:0:
427,364,36538,1,8,2:0:0:0:
427,364,36625,2,0,P|442:338|467:322,1,60,8|0,2:0|0:0,0:0:0:0:
512,325,36974,6,0,B|477:353|432:326|439:312|399:289|349:323,1,160,6|8,3:2|2:0,0:0:0:0:
286,383,37497,1,2,2:0:0:0:
256,260,37672,2,0,L|241:181,1,80,2|0,3:2|3:2,0:0:0:0:
163,55,38020,1,8,2:0:0:0:
251,90,38195,1,2,2:0:0:0:
115,173,38369,2,0,P|77:180|31:194,1,80,2|2,2:0|3:2,0:0:0:0:
58,362,38718,2,0,P|102:342|77:266,1,120,10|0,2:0|0:0,0:0:0:0:
100,264,39067,2,0,P|138:271|184:285,1,80,2|0,3:2|3:2,0:0:0:0:
272,357,39416,5,8,2:0:0:0:
324,278,39590,1,2,2:0:0:0:
411,352,39765,2,0,P|450:350|478:324,1,80,2|0,3:2|0:0,0:0:0:0:
419,190,40113,2,0,P|400:224|409:262,1,80,10|0,2:0|0:0,0:0:0:0:
502,152,40462,2,0,P|481:118|443:107,1,80,2|0,3:2|3:2,0:0:0:0:
330,163,40811,2,0,P|276:169|238:176,1,80,10|0,2:0|0:0,0:0:0:0:
138,247,41160,6,0,P|125:200|114:161,1,80,2|0,3:2|3:2,0:0:0:0:
211,79,41509,2,0,P|221:117|232:156,1,80,10|0,2:0|0:0,0:0:0:0:
366,243,41858,2,0,P|327:253|288:264,1,80,2|0,3:2|3:2,0:0:0:0:
164,247,42206,1,10,2:0:0:0:
70,363,42381,1,2,3:2:0:0:
70,363,42468,1,0,3:2:0:0:
70,363,42555,2,0,P|43:329|46:285,1,90.0000000000002,2|0,3:2|0:0,0:0:0:0:
67,273,42904,6,0,P|79:234|56:184,1,80,12|2,2:0|2:0,0:0:0:0:
26,113,43253,1,2,3:2:0:0:
26,113,43427,1,2,3:2:0:0:
92,34,43602,2,0,P|136:42|179:52,1,80,14|0,2:0|0:0,0:0:0:0:
292,22,43951,2,0,L|268:137,1,90.0000000000002,2|0,3:2|0:0,0:0:0:0:
252,127,44300,6,0,L|276:242,1,80,12|2,2:0|2:0,0:0:0:0:
302,332,44648,1,2,3:2:0:0:
302,332,44823,1,2,3:2:0:0:
141,358,44997,2,0,L|159:269,1,90.0000000000002,14|0,2:0|0:0,0:0:0:0:
144,234,45346,6,0,L|127:155,1,80,6|0,3:2|0:0,0:0:0:0:
226,85,45695,2,0,L|242:163,1,80,10|0,2:0|0:0,0:0:0:0:
263,284,46044,1,2,3:2:0:0:
263,284,46218,1,0,3:2:0:0:
429,204,46393,2,0,P|388:169|333:174,1,90.0000000000002,10|0,2:0|0:0,0:0:0:0:
364,239,46741,6,0,L|406:63,1,168,6|0,3:2|0:0,0:0:0:0:
409,55,47439,1,10,2:0:0:0:
240,19,47613,2,0,L|262:112,1,95.9999999999998,0|2,3:2|3:2,0:0:0:0:
183,340,48137,6,0,P|141:315|131:285,1,72.0000000000001,6|2,3:2|2:0,0:0:0:0:
51,305,48486,2,0,P|38:257|53:229,1,72.0000000000001,2|0,2:0|3:2,0:0:0:0:
103,166,48834,2,0,B|140:155|170:175|161:194|194:216|234:198,1,132,10|0,2:0|0:0,0:0:0:0:
236,194,49183,2,0,P|209:232|214:277,1,72.0000000000001,2|0,2:0|0:0,0:0:0:0:
286,349,49532,5,2,3:2:0:0:
319,260,49706,1,8,2:0:0:0:
395,331,49881,2,0,P|447:343|479:350,1,72.0000000000001,2|0,2:0|3:2,0:0:0:0:
478,130,50230,2,0,P|441:183|479:246,1,132,10|0,2:0|0:0,0:0:0:0:
475,260,50579,2,0,P|439:252|404:243,1,72.0000000000001,2|2,2:0|3:2,0:0:0:0:
242,261,50927,5,6,3:2:0:0:
287,168,51102,1,2,2:0:0:0:
178,116,51276,2,0,L|183:204,1,72.0000000000001,2|0,2:0|3:2,0:0:0:0:
109,229,51538,1,2,2:0:0:0:
109,229,51625,2,0,L|100:86,1,132,10|0,2:0|0:0,0:0:0:0:
99,76,51974,2,0,P|69:101|14:104,1,72.0000000000001,2|0,2:0|3:2,0:0:0:0:
40,21,52323,5,2,3:2:0:0:
178,116,52497,1,8,2:0:0:0:
30,225,52672,2,0,L|24:133,1,71.9999978027344,2|0,2:0|3:2,0:0:0:0:
143,205,53020,2,0,L|132:346,1,132,10|0,2:0|0:0,0:0:0:0:
129,358,53369,1,2,3:2:0:0:
207,383,53544,1,0,3:2:0:0:
260,324,53718,5,4,3:2:0:0:
137,314,55113,1,2,2:0:0:0:
257,120,55637,1,2,2:0:0:0:
298,287,55811,1,8,2:0:0:0:
175,236,55986,1,0,3:2:0:0:
249,213,56160,1,4,3:0:0:0:
323,189,56334,1,8,3:0:0:0:
398,165,56509,6,0,L|387:252,1,80,8|8,2:0|2:0,0:0:0:0:
225,384,56858,2,0,L|214:304,1,80,8|8,2:0|2:0,0:0:0:0:
255,120,57206,1,8,2:0:0:0:
100,254,57381,1,8,2:0:0:0:
313,317,57555,2,0,L|322:254,1,40,8|4,3:2|3:0,0:0:0:0:
200,183,57730,2,0,L|205:222,1,40,8|4,3:2|3:0,0:0:0:0:
207,375,57904,1,10,2:0:0:0:
316,159,58079,1,10,2:0:0:0:
316,159,58602,6,0,L|277:170,1,40,2|0,3:2|0:0,0:0:0:0:
392,50,58776,1,8,2:0:0:0:
396,65,58863,1,8,2:0:0:0:
400,80,58951,2,0,L|458:98,3,40,10|8|8|8,2:0|2:0|2:0|2:0,0:0:0:0:
511,37,59300,5,6,3:2:0:0:
409,210,59474,1,2,2:0:0:0:
306,20,59648,1,10,2:0:0:0:
455,126,59823,1,2,2:0:0:0:
309,127,59997,2,0,L|204:154,1,96,2|0,3:2|0:0,0:0:0:0:
120,276,60346,2,0,L|225:303,1,96,10|2,2:0|2:0,0:0:0:0:
398,309,60695,5,2,3:2:0:0:
317,165,60869,1,2,2:0:0:0:
281,355,61044,1,10,2:0:0:0:
408,221,61218,1,2,2:0:0:0:
239,117,61393,2,0,P|188:95|121:113,1,96,2|0,3:2|0:0,0:0:0:0:
27,268,61741,2,0,P|78:290|145:272,1,96,10|2,2:0|2:0,0:0:0:0:
60,48,62090,6,0,L|82:200,1,144,2|0,3:2|0:0,0:0:0:0:
85,204,62439,2,0,P|127:183|175:185,1,96,8|2,2:0|2:0,0:0:0:0:
419,285,62788,2,0,B|377:268|348:283|361:297|324:318|277:290,1,144,2|0,3:2|0:0,0:0:0:0:
266,277,63137,2,0,L|250:380,1,96,10|0,2:0|0:0,0:0:0:0:
427,260,63486,6,0,L|412:165,1,96,2|0,3:2|0:0,0:0:0:0:
241,124,63834,2,0,P|272:169|321:181,1,96,10|0,2:0|0:0,0:0:0:0:
422,50,64183,2,0,P|367:54|332:90,1,96,2|0,3:2|0:0,0:0:0:0:
396,253,64532,2,0,P|419:203|405:155,1,96,8|2,2:0|2:0,0:0:0:0:
314,74,64881,5,2,3:2:0:0:
223,241,65055,1,2,2:0:0:0:
326,180,65230,1,10,2:0:0:0:
171,71,65404,5,2,2:0:0:0:
113,236,65579,2,0,L|136:341,1,96,2|2,3:2|2:0,0:0:0:0:
305,273,65927,2,0,L|325:179,1,96,10|2,2:0|2:0,0:0:0:0:
318,11,66276,5,2,3:2:0:0:
408,117,66451,1,2,2:0:0:0:
237,135,66625,1,10,2:0:0:0:
476,56,66800,6,0,P|493:103|475:161,1,96,2|0,2:0|3:2,0:0:0:0:
345,273,67148,2,0,P|328:226|346:168,1,96,2|8,2:0|2:0,0:0:0:0:
460,283,67497,1,2,2:0:0:0:
301,381,67672,1,2,3:2:0:0:
301,381,67846,1,2,3:2:0:0:
202,196,68020,5,10,2:0:0:0:
354,286,68195,1,2,3:2:0:0:
182,359,68369,1,10,2:0:0:0:
291,138,68544,1,2,3:2:0:0:
270,303,68718,1,10,2:0:0:0:
202,103,68893,6,0,B|127:112|127:112|107:147|107:147|14:164,1,192,6|0,3:2|3:2,0:0:0:0:
48,69,69416,1,8,2:0:0:0:
186,186,69590,2,0,L|173:282,1,96,6|2,3:2|2:0,0:0:0:0:
48,375,69939,2,0,L|34:279,2,96,0|8|0,3:2|2:0|3:2,0:0:0:0:
286,262,70462,5,6,3:2:0:0:
103,203,70637,1,2,2:0:0:0:
192,373,70811,2,0,L|205:277,1,96,10|0,2:0|0:0,0:0:0:0:
359,150,71160,2,0,L|372:245,1,96,2|0,3:2|0:0,0:0:0:0:
333,384,71509,1,10,2:0:0:0:
482,310,71683,1,2,2:0:0:0:
272,237,71858,5,2,3:2:0:0:
403,330,72032,1,2,2:0:0:0:
460,135,72206,1,10,2:0:0:0:
372,245,72381,1,2,2:0:0:0:
268,94,72555,2,0,L|168:75,1,96,2|2,3:2|2:0,0:0:0:0:
151,76,72817,1,2,2:0:0:0:
151,76,72904,1,10,2:0:0:0:
254,230,73079,1,2,2:0:0:0:
392,22,73253,5,2,3:2:0:0:
323,180,73427,1,2,2:0:0:0:
269,57,73602,1,10,2:0:0:0:
435,133,73776,1,2,2:0:0:0:
254,230,73951,6,0,L|268:324,1,95.9999970703126,2|2,3:2|2:0,0:0:0:0:
439,373,74300,2,0,L|453:278,1,95.9999970703126,10|2,2:0|2:0,0:0:0:0:
463,126,74648,5,2,3:2:0:0:
362,260,74823,1,2,2:0:0:0:
225,135,74997,2,0,L|236:39,1,96,10|0,2:0|0:0,0:0:0:0:
36,185,75346,6,0,L|48:281,1,96,10|0,2:0|0:0,0:0:0:0:
141,188,75695,1,2,3:2:0:0:
48,76,75869,1,0,3:2:0:0:
166,63,76044,6,0,B|257:111|257:111|295:93|301:50,1,160,2|2,3:2|2:0,0:0:0:0:
402,0,76567,1,2,3:2:0:0:
392,104,76741,2,0,L|385:211,1,80,10|0,2:0|0:0,0:0:0:0:
377,316,77090,1,2,2:0:0:0:
377,316,77265,1,2,3:2:0:0:
271,243,77439,6,0,L|177:233,1,80,10|0,2:0|3:2,0:0:0:0:
58,222,77788,1,10,2:0:0:0:
58,222,77962,1,2,3:2:0:0:
165,348,78137,6,0,L|259:338,1,80,10|0,2:0|3:2,0:0:0:0:
375,293,78486,1,2,3:2:0:0:
375,293,78660,1,2,3:2:0:0:
276,170,78834,6,0,L|263:230,3,44,8|8|8|8,3:2|2:0|2:0|2:0,0:0:0:0:
368,144,79183,2,0,L|358:100,1,44,10|8,3:2|2:0,0:0:0:0:
195,152,79358,2,0,L|185:195,1,44,10|8,2:0|2:0,0:0:0:0:
285,78,79532,2,0,L|275:34,3,44,10|8|8|8,3:2|2:0|2:0|2:0,0:0:0:0:
108,127,79881,2,0,L|98:170,1,44,10|8,3:2|2:0,0:0:0:0:
198,53,80055,2,0,L|188:9,1,44,10|8,2:0|2:0,0:0:0:0:
26,110,80230,5,10,2:0:0:0:
129,290,80579,6,0,L|176:278,3,44.0000013427735,8|8|8|8,2:0|2:0|2:0|2:0,0:0:0:0:
193,255,80927,5,10,2:0:0:0:
353,376,81102,1,10,2:0:0:0:
353,376,81625,6,0,B|441:343|441:343|478:372,1,132,6|0,3:2|0:0,0:0:0:0:
475,378,81974,2,0,P|446:311|491:270,1,132,10|0,3:2|0:0,0:0:0:0:
510,273,82323,1,10,2:0:0:0:
328,206,82497,2,0,L|343:309,1,88,10|0,2:0|3:2,0:0:0:0:
401,116,82846,6,0,B|359:90|310:107|326:126|277:150|216:113,1,176,6|2,3:2|2:0,0:0:0:0:
151,9,83369,1,10,3:2:0:0:
273,51,83544,1,2,2:0:0:0:
137,167,83718,2,0,L|140:210,3,44,10|8|8|8,3:2|2:0|2:0|2:0,0:0:0:0:
214,279,84067,1,0,3:2:0:0:
213,289,84154,1,4,3:0:0:0:
212,300,84241,1,0,3:2:0:0:
211,311,84329,1,8,3:0:0:0:
210,322,84416,6,0,L|130:309,1,44,6|0,3:2|0:0,0:0:0:0:
59,354,84590,2,0,L|72:274,3,44,8|8|8|8,2:0|2:0|2:0|2:0,0:0:0:0:
177,233,84939,6,0,L|257:241,1,44,6|0,3:2|0:0,0:0:0:0:
314,302,85113,2,0,L|322:221,3,44,8|8|8|8,2:0|2:0|2:0|2:0,0:0:0:0:
227,161,85462,6,0,L|146:148,1,44,6|0,3:2|0:0,0:0:0:0:
75,191,85637,2,0,L|88:111,3,44,8|8|8|8,2:0|2:0|2:0|2:0,0:0:0:0:
191,78,85986,6,0,L|271:86,1,44,6|0,3:2|0:0,0:0:0:0:
328,147,86160,2,0,L|336:66,3,44,8|8|8|8,2:0|2:0|2:0|2:0,0:0:0:0:
244,0,86509,5,10,2:0:0:0:
61,77,86683,1,10,2:0:0:0:
61,77,87032,6,0,B|143:58|207:132|111:204|162:265|322:253|370:119|268:59|159:79|90:178|95:248,1,540.000000000001,6|0,3:2|0:0,0:0:0:0:
