osu file format v14

[General]
AudioFilename: audio.mp3
AudioLeadIn: 0
PreviewTime: 58165
Countdown: 0
SampleSet: Soft
StackLeniency: 0.7
Mode: 0
LetterboxInBreaks: 0
WidescreenStoryboard: 1

[Editor]
Bookmarks: 7715,14692,20259,25855,37018,48180,59343,70491,81654,84459,87061,88631
DistanceSpacing: 1
BeatDivisor: 4
GridSize: 4
TimelineZoom: 1.5

[Metadata]
Title:Omoide Shiritori (TV Size)
TitleUnicode:おもいでしりとり (TV Size)
Artist:DIALOGUE+
ArtistUnicode:DIALOGUE+
Creator:Airiesu
Version:Expert
Source:ひげを剃る。そして女子高生を拾う。
Tags:I Shaved Then I Brought Kibbleru Home Higehiro Hige wo Soru Soshite Joshikousei wo Hirou anime japanese pop jpop j-pop idol group opening op 荻原 沙優 ogiwara sayu a High School Girl
BeatmapID:2932945
BeatmapSetID:1424129

[Difficulty]
HPDrainRate:5.5
CircleSize:3.8
OverallDifficulty:8.5
ApproachRate:9.2
SliderMultiplier:1.65
SliderTickRate:1

[Events]
//Background and Video events
Video,0,"HigehiroE.mp4"
0,0,"sayubgPOG.jpg",0,0
//Break Periods
//Storyboard Layer 0 (Background)
//Storyboard Layer 1 (Fail)
//Storyboard Layer 2 (Pass)
//Storyboard Layer 3 (Foreground)
//Storyboard Layer 4 (Overlay)
//Storyboard Sound Samples

[TimingPoints]
-700,348.837209302326,4,2,1,40,1,0
2090,-133.333333333333,4,2,1,40,0,0
6363,-133.333333333333,4,2,1,30,0,0
6451,-133.333333333333,4,2,1,60,0,0
7672,-100,4,2,20,70,0,0
7758,-100,4,2,20,70,0,0
8020,-100,4,2,1,70,0,0
14125,-100,4,2,3,70,0,0
14474,-100,4,2,1,70,0,0
14648,-90.9090909090909,4,2,20,70,0,0
14909,-90.9090909090909,4,2,20,5,0,0
14997,-90.9090909090909,4,2,1,70,0,0
15258,-90.9090909090909,4,2,1,5,0,0
15346,-90.9090909090909,4,2,1,70,0,0
17700,-90.9090909090909,4,2,1,5,0,0
17788,-90.9090909090909,4,2,1,70,0,0
18049,-90.9090909090909,4,2,1,5,0,0
18137,-90.9090909090909,4,2,1,70,0,0
22846,-100,4,2,1,70,0,0
25811,-133.333333333333,4,2,20,40,0,0
25898,-133.333333333333,4,2,20,40,0,0
26334,-133.333333333333,4,2,2,40,0,0
31654,-133.333333333333,4,2,2,5,0,0
31741,-133.333333333333,4,2,2,40,0,0
33049,-133.333333333333,4,2,2,5,0,0
33137,-133.333333333333,4,2,2,40,0,0
36276,-133.333333333333,4,2,2,70,0,0
36538,-133.333333333333,4,2,1,70,0,0
36625,-200,4,2,1,70,0,0
36886,-200,4,2,1,5,0,0
36974,-100,4,2,20,60,0,0
37060,-100,4,2,20,60,0,0
37323,-100,4,2,1,60,0,0
38979,-100,4,2,1,5,0,0
39067,-100,4,2,1,60,0,0
42555,-133.333333333333,4,2,1,60,0,0
42816,-133.333333333333,4,2,1,5,0,0
42904,-100,4,2,1,60,0,0
43951,-133.333333333333,4,2,1,60,0,0
44212,-133.333333333333,4,2,1,5,0,0
44300,-100,4,2,1,60,0,0
44997,-133.333333333333,4,2,1,60,0,0
45258,-133.333333333333,4,2,1,5,0,0
45346,-100,4,2,1,60,0,0
46393,-133.333333333333,4,2,1,60,0,0
46654,-133.333333333333,4,2,1,5,0,0
46741,-166.666666666667,4,2,1,60,0,0
47351,-166.666666666667,4,2,1,5,0,0
47439,-166.666666666667,4,2,1,60,0,0
48137,-111.111111111111,4,2,20,60,0,0
48223,-111.111111111111,4,2,20,60,0,0
48311,-111.111111111111,4,2,1,60,0,0
48834,-90.9090909090909,4,2,1,60,0,0
49095,-90.9090909090909,4,2,1,5,0,0
49183,-111.111111111111,4,2,1,60,0,0
50230,-90.9090909090909,4,2,1,60,0,0
50491,-90.9090909090909,4,2,1,5,0,0
50579,-90.9090909090909,4,2,1,60,0,0
51276,-111.111111111111,4,2,1,60,0,0
51625,-90.9090909090909,4,2,1,60,0,0
51886,-90.9090909090909,4,2,1,5,0,0
51974,-111.111111111111,4,2,1,60,0,0
53020,-90.9090909090909,4,2,1,60,0,0
53281,-90.9090909090909,4,2,1,5,0,0
53369,-90.9090909090909,4,2,1,60,0,0
53718,-133.333333333333,4,2,1,60,0,0
55026,-133.333333333333,4,2,1,5,0,0
55113,-133.333333333333,4,2,1,60,0,0
55723,-133.333333333333,4,2,1,5,0,0
55811,-133.333333333333,4,2,1,60,0,0
56509,-133.333333333333,4,2,1,50,0,0
56683,-133.333333333333,4,2,1,55,0,0
56858,-133.333333333333,4,2,1,60,0,0
57032,-133.333333333333,4,2,1,65,0,0
57206,-133.333333333333,4,2,1,70,0,0
57381,-133.333333333333,4,2,1,75,0,0
57555,-100,4,2,1,80,0,0
57730,-100,4,2,1,85,0,0
57904,-100,4,2,1,90,0,0
58602,-100,4,2,1,70,0,0
59300,-100,4,2,20,90,0,1
59474,-100,4,2,1,90,0,1
59997,-83.3333333333333,4,2,1,90,0,1
62351,-83.3333333333333,4,2,1,5,0,1
62439,-83.3333333333333,4,2,1,90,0,1
63049,-83.3333333333333,4,2,1,5,0,1
63137,-83.3333333333333,4,2,1,90,0,1
76044,-100,4,2,1,80,0,0
78834,-90.9090909090909,4,2,1,50,0,1
79183,-90.9090909090909,4,2,1,60,0,1
79532,-90.9090909090909,4,2,1,70,0,1
79881,-90.9090909090909,4,2,1,80,0,1
80230,-90.9090909090909,4,2,1,90,0,0
80579,-90.9090909090909,4,2,1,90,0,1
81102,-90.9090909090909,4,2,1,90,0,0
81625,-90.9090909090909,4,2,20,70,0,0
81886,-90.9090909090909,4,2,20,5,0,0
81974,-90.9090909090909,4,2,1,70,0,0
82235,-90.9090909090909,4,2,1,5,0,0
82323,-90.9090909090909,4,2,1,70,0,0
88602,-90.9090909090909,4,2,1,5,0,0

[Colours]
Combo1 : 148,116,119
Combo2 : 236,204,105
Combo3 : 160,87,70
Combo4 : 165,61,50
Combo5 : 245,236,205
Combo6 : 131,134,123
Combo7 : 201,115,114
Combo8 : 213,170,92

[HitObjects]
78,165,2090,6,0,P|89:202|96:238,1,61.8750000000002,2|2,2:0|2:0,0:0:0:0:
185,284,2439,2,0,P|191:253|200:224,1,61.8750000000002,2|2,2:0|2:0,0:0:0:0:
291,154,2788,2,0,P|278:95|210:77,1,123.75,2|2,2:0|2:0,0:0:0:0:
157,129,3311,1,2,2:0:0:0:
288,244,3486,6,0,P|297:273|303:303,1,61.8750000000002,2|2,2:0|2:0,0:0:0:0:
392,345,3834,2,0,P|398:314|407:285,1,61.8750000000002,2|2,2:0|2:0,0:0:0:0:
397,135,4183,2,0,P|410:194|478:212,1,123.75,2|2,2:0|2:0,0:0:0:0:
511,138,4706,1,2,2:0:0:0:
423,37,4881,6,0,P|362:50|291:67,1,123.75,2|0,2:0|0:0,0:0:0:0:
222,126,5404,1,2,2:0:0:0:
141,75,5579,2,0,P|126:135|113:195,1,123.75,2|2,2:0|2:0,0:0:0:0:
130,350,6276,5,2,2:0:0:0:
130,350,6363,1,8,2:0:0:0:
130,350,6451,1,8,2:0:0:0:
233,227,6625,2,0,P|193:212|151:204,1,61.8750000000002,2|0,3:2|3:2,0:0:0:0:
39,252,6974,1,10,2:0:0:0:
142,215,7148,1,4,3:0:0:0:
105,112,7323,1,2,3:2:0:0:
2,149,7497,1,2,3:2:0:0:
199,301,7672,6,0,B|243:326|286:305|272:286|319:263|372:302,1,165,6|2,3:2|2:0,0:0:0:0:
436,348,8195,1,2,2:0:0:0:
336,195,8369,2,0,L|320:363,1,165,6|2,3:2|2:0,0:0:0:0:
231,227,8893,1,2,2:0:0:0:
462,155,9067,5,10,2:0:0:0:
427,240,9241,1,0,3:2:0:0:
313,114,9416,5,10,2:0:0:0:
350,280,9590,1,0,3:2:0:0:
136,196,9765,5,10,2:0:0:0:
136,196,10113,5,2,3:2:0:0:
269,323,10288,1,2,3:2:0:0:
400,100,10462,5,6,3:2:0:0:
400,100,10811,5,2,3:2:0:0:
300,203,10986,1,2,3:2:0:0:
313,38,11160,5,10,3:2:0:0:
285,210,11334,1,8,3:2:0:0:
171,32,11509,5,10,3:2:0:0:
264,226,11683,1,10,2:0:0:0:
44,268,11858,5,6,3:2:0:0:
82,65,12032,2,0,L|96:140,1,41.25,8|8,2:0|2:0,0:0:0:0:
201,348,12206,2,0,L|208:307,3,41.25,10|8|8|8,3:2|2:0|2:0|2:0,0:0:0:0:
188,286,12555,5,10,2:0:0:0:
384,115,12730,1,10,2:0:0:0:
384,115,14125,5,2,2:0:0:0:
220,213,14474,2,0,L|200:163,1,41.25,8|8,2:0|2:0,0:0:0:0:
135,58,14648,6,0,B|111:45|70:50|51:96|51:96|81:86,1,136.125,6|0,3:2|0:0,0:0:0:0:
49,189,14997,2,0,B|72:201|113:196|133:151|133:151|102:160,1,136.125,10|0,3:2|0:0,0:0:0:0:
32,215,15346,1,10,2:0:0:0:
239,294,15520,2,0,L|250:383,1,90.75,10|0,2:0|3:2,0:0:0:0:
332,205,15869,6,0,P|319:109|235:95,1,181.5,6|2,3:2|2:0,0:0:0:0:
154,265,16393,1,10,3:2:0:0:
265,169,16567,1,2,2:0:0:0:
146,33,16741,1,10,3:2:0:0:
142,66,16829,1,8,2:0:0:0:
138,100,16916,1,8,2:0:0:0:
133,134,17003,1,8,2:0:0:0:
128,166,17090,1,0,3:2:0:0:
106,165,17177,1,4,3:0:0:0:
84,173,17265,1,0,3:2:0:0:
68,188,17352,1,8,3:0:0:0:
59,208,17439,6,0,B|39:246|49:284|49:284|80:292|97:323,1,136.125,6|0,3:2|0:0,0:0:0:0:
181,352,17788,2,0,B|201:314|191:276|191:276|160:268|143:237,1,136.125,10|0,3:2|0:0,0:0:0:0:
223,190,18137,1,10,2:0:0:0:
361,326,18311,2,0,L|249:346,1,90.75,10|0,2:0|3:2,0:0:0:0:
326,218,18660,6,0,L|503:255,1,181.5,6|2,3:2|2:0,0:0:0:0:
459,139,19183,1,10,3:2:0:0:
348,299,19358,1,2,2:0:0:0:
287,104,19532,1,8,2:0:0:0:
260,82,19619,1,8,2:0:0:0:
227,71,19706,1,8,2:0:0:0:
194,71,19794,1,8,2:0:0:0:
162,81,19881,1,8,0:0:0:0:
142,108,19968,1,8,0:0:0:0:
111,122,20055,1,0,3:2:0:0:
78,122,20143,1,4,3:0:0:0:
48,108,20230,6,0,L|61:64,1,45.375,6|0,3:2|0:0,0:0:0:0:
210,161,20404,2,0,L|196:204,3,45.375,8|8|8|8,2:0|2:0|2:0|2:0,0:0:0:0:
99,294,20753,6,0,L|79:231,1,45.375,6|0,3:2|0:0,0:0:0:0:
287,104,20927,2,0,L|300:147,3,45.375,8|8|8|8,2:0|2:0|2:0|2:0,0:0:0:0:
142,108,21276,6,0,L|155:64,1,45.375,6|0,3:2|0:0,0:0:0:0:
330,262,21451,2,0,L|317:306,3,45.375,8|8|8|8,2:0|2:0|2:0|2:0,0:0:0:0:
178,266,21800,6,0,L|165:223,1,45.375,6|0,3:2|0:0,0:0:0:0:
384,41,21974,2,0,L|397:84,3,45.375,8|8|8|8,2:0|2:0|2:0|2:0,0:0:0:0:
225,139,22323,6,0,L|238:95,1,45.375,10|0,2:0|0:0,0:0:0:0:
484,272,22497,1,10,2:0:0:0:
484,272,22846,6,0,B|450:259|408:283|408:283|403:336|336:352,1,165,6|0,3:2|3:2,0:0:0:0:
161,348,23369,2,0,L|171:249,1,82.5,8|0,2:0|0:0,0:0:0:0:
183,112,23718,1,0,3:2:0:0:
280,220,23893,1,0,0:0:0:0:
68,298,24067,2,0,L|58:199,1,82.5,8|0,2:0|0:0,0:0:0:0:
42,67,24416,5,2,2:0:0:0:
270,131,24939,2,0,L|321:116,2,41.25,2|2|2,2:0|2:0|2:0,0:0:0:0:
204,287,25462,1,2,2:0:0:0:
385,350,25811,6,0,L|368:222,1,123.75,10|8,3:2|2:0,0:0:0:0:
423,155,26334,1,2,2:0:0:0:
398,73,26509,2,0,P|379:48|351:36,1,61.8750000000002,10|0,2:0|0:0,0:0:0:0:
273,2,26858,2,0,P|242:-1|213:8,1,61.8750000000002,8|2,2:0|3:2,0:0:0:0:
132,133,27206,5,10,3:2:0:0:
212,185,27381,1,2,2:0:0:0:
200,274,27555,2,0,L|212:344,1,61.8750000000002,10|0,2:0|0:0,0:0:0:0:
83,317,27904,2,0,P|82:254|145:223,1,123.75,10|8,2:0|2:0,0:0:0:0:
285,246,28427,1,2,2:0:0:0:
285,246,28602,6,0,P|328:235|368:230,1,61.8750000000002,10|0,3:2|0:0,0:0:0:0:
381,368,28951,2,0,P|349:336|325:304,1,61.8750000000002,10|0,2:0|0:0,0:0:0:0:
438,223,29300,2,0,P|426:265|410:302,1,61.8750000000002,10|0,2:0|0:0,0:0:0:0:
318,149,29648,2,0,P|360:137|401:132,1,61.8750000000002,10|0,2:0|3:2,0:0:0:0:
474,66,29997,6,0,P|433:22|376:37,2,123.75,10|10|10,3:2|2:0|2:0,0:0:0:0:
299,166,31044,1,8,2:0:0:0:
241,84,31218,1,2,2:0:0:0:
161,165,31393,6,0,B|106:183|106:183|87:168|62:157,1,92.8125000000002,10|0,3:2|0:0,0:0:0:0:
55,149,31741,2,0,P|45:94|37:69,1,61.8750000000002,10|2,2:0|2:0,0:0:0:0:
205,76,32090,2,0,P|145:70|111:21,1,123.75,10|8,2:0|2:0,0:0:0:0:
270,14,32613,1,2,3:2:0:0:
371,136,32788,6,0,P|429:155|466:169,1,92.8125000000002,10|0,3:2|0:0,0:0:0:0:
483,180,33137,2,0,P|483:217|478:253,1,61.8750000000002,10|2,2:0|2:0,0:0:0:0:
403,337,33486,2,0,P|388:280|323:257,1,123.75,10|8,2:0|2:0,0:0:0:0:
225,337,34009,1,2,2:0:0:0:
153,222,34183,6,0,L|80:245,1,61.8750000000002,10|0,3:2|0:0,0:0:0:0:
108,318,34532,2,0,L|35:341,1,61.8750000000002,10|0,2:0|0:0,0:0:0:0:
223,147,34881,2,0,L|296:170,1,61.8750000000002,10|0,2:0|0:0,0:0:0:0:
268,243,35230,2,0,L|341:266,1,61.8750000000002,10|0,2:0|0:0,0:0:0:0:
129,77,35579,1,2,2:0:0:0:
129,77,36276,6,0,L|80:92,1,30.9375000000001,2|0,3:2|0:0,0:0:0:0:
287,143,36451,1,0,3:2:0:0:
287,143,36538,1,8,2:0:0:0:
287,143,36625,2,0,L|351:162,1,61.875,8|0,2:0|0:0,0:0:0:0:
331,81,36974,6,0,L|314:253,1,165,6|8,3:2|2:0,0:0:0:0:
371,363,37497,1,2,2:0:0:0:
230,281,37672,2,0,P|190:288|150:298,1,82.5,2|0,3:2|3:2,0:0:0:0:
27,331,38020,1,8,2:0:0:0:
130,384,38195,1,2,2:0:0:0:
14,231,38369,6,0,P|6:191|23:153,1,82.5,2|2,2:0|3:2,0:0:0:0:
215,120,38718,2,0,B|179:135|152:113|166:101|134:78|91:95,1,123.75,10|0,2:0|0:0,0:0:0:0:
92,105,39067,2,0,P|100:65|83:27,1,82.5,2|0,3:2|3:2,0:0:0:0:
22,153,39416,1,8,2:0:0:0:
135,198,39590,1,2,2:0:0:0:
221,42,39765,6,0,P|274:31|314:33,1,82.5,2|0,3:2|0:0,0:0:0:0:
387,178,40113,2,0,P|334:189|294:187,1,82.5,10|0,2:0|0:0,0:0:0:0:
398,11,40462,2,0,L|389:101,1,82.5,2|0,3:2|3:2,0:0:0:0:
227,239,40811,2,0,L|218:156,1,82.5,10|0,2:0|0:0,0:0:0:0:
311,341,41160,6,0,P|266:372|217:363,1,82.5,2|0,3:2|3:2,0:0:0:0:
369,202,41509,2,0,P|418:225|435:272,1,82.5,10|0,2:0|0:0,0:0:0:0:
482,369,41858,1,2,3:2:0:0:
482,369,42032,1,0,3:2:0:0:
506,163,42206,1,10,2:0:0:0:
363,278,42381,2,0,L|354:333,1,41.25,2|0,3:2|3:2,0:0:0:0:
295,120,42555,2,0,P|265:88|204:82,1,92.8125000000002,2|0,3:2|0:0,0:0:0:0:
160,92,42904,6,0,P|190:62|246:64,1,82.5,12|2,2:0|2:0,0:0:0:0:
394,182,43253,1,2,3:2:0:0:
224,163,43427,1,2,3:2:0:0:
376,5,43602,2,0,L|365:111,1,82.5,14|0,2:0|0:0,0:0:0:0:
237,317,43951,2,0,P|199:292|190:247,1,92.8125000000002,2|0,3:2|0:0,0:0:0:0:
215,182,44300,6,0,P|182:206|169:244,1,82.5,12|2,2:0|2:0,0:0:0:0:
301,233,44648,1,2,3:2:0:0:
264,92,44823,1,2,3:2:0:0:
136,139,44997,2,0,P|81:150|31:175,1,92.8125000000002,14|0,2:0|0:0,0:0:0:0:
64,196,45346,6,0,L|52:91,1,82.5,6|0,3:2|0:0,0:0:0:0:
169,244,45695,2,0,L|159:325,1,82.5,10|0,2:0|0:0,0:0:0:0:
48,303,46044,1,2,3:2:0:0:
48,303,46218,1,0,3:2:0:0:
227,172,46393,2,0,B|267:190|267:190|276:206|276:206|307:221,1,92.8125000000002,10|0,2:0|0:0,0:0:0:0:
338,164,46741,6,0,B|273:184|273:184|260:214|260:214|181:238,1,173.25,6|0,3:2|0:0,0:0:0:0:
169,244,47439,1,10,2:0:0:0:
184,25,47613,2,0,L|200:140,1,98.9999999999998,0|2,3:2|3:2,0:0:0:0:
237,356,48137,6,0,P|265:318|315:315,1,74.2500000000001,6|2,3:2|2:0,0:0:0:0:
285,228,48486,2,0,P|320:218|354:233,1,74.2500000000001,2|0,2:0|3:2,0:0:0:0:
468,298,48834,2,0,L|480:152,1,136.125,10|0,2:0|0:0,0:0:0:0:
459,145,49183,2,0,L|452:219,1,74.2500000000001,2|0,2:0|0:0,0:0:0:0:
376,323,49532,5,2,3:2:0:0:
273,216,49706,1,8,2:0:0:0:
362,87,49881,2,0,L|369:161,1,74.2500000000001,2|0,2:0|3:2,0:0:0:0:
196,295,50230,2,0,P|159:243|191:170,1,136.125,10|0,2:0|0:0,0:0:0:0:
208,158,50579,1,2,2:0:0:0:
297,312,50753,1,2,3:2:0:0:
108,345,50927,5,6,3:2:0:0:
196,295,51102,1,2,2:0:0:0:
142,137,51276,2,0,L|151:235,1,74.2500000000001,2|0,2:0|3:2,0:0:0:0:
241,230,51538,1,2,2:0:0:0:
241,230,51625,2,0,L|255:74,1,136.125,10|0,2:0|0:0,0:0:0:0:
274,71,51974,2,0,L|267:145,1,74.2500000000001,2|0,2:0|3:2,0:0:0:0:
156,169,52323,5,2,3:2:0:0:
141,47,52497,1,8,2:0:0:0:
267,144,52672,2,0,P|317:151|350:163,1,74.2500000000001,2|0,2:0|3:2,0:0:0:0:
469,234,53020,2,0,P|402:246|345:282,1,136.125,10|0,2:0|0:0,0:0:0:0:
332,312,53369,1,2,3:2:0:0:
251,298,53544,1,0,3:2:0:0:
210,223,53718,6,0,B|163:171|48:182|-10:236|11:323|118:354|172:293|152:221|66:128|-21:163,1,464.062500000001,4|0,3:2|0:0,0:0:0:0:
6,188,55113,2,0,P|98:150|76:53,1,216.562500000001,2|0,2:0|0:0,0:0:0:0:
50,44,55811,1,8,2:0:0:0:
125,14,55986,1,0,3:2:0:0:
194,53,56160,1,4,3:0:0:0:
194,133,56334,1,8,3:0:0:0:
100,184,56509,5,8,2:0:0:0:
270,89,56683,1,8,2:0:0:0:
111,82,56858,1,8,2:0:0:0:
256,236,57032,1,8,2:0:0:0:
217,2,57206,1,8,2:0:0:0:
165,281,57381,1,8,2:0:0:0:
408,155,57555,2,0,L|461:142,1,41.25,8|4,3:2|3:0,0:0:0:0:
104,66,57730,2,0,L|51:53,1,41.25,8|4,3:2|3:0,0:0:0:0:
242,320,57904,5,10,2:0:0:0:
328,19,58079,1,10,2:0:0:0:
328,19,58602,6,0,L|339:82,1,41.25,2|0,3:2|0:0,0:0:0:0:
301,217,58776,1,8,2:0:0:0:
320,236,58863,1,8,2:0:0:0:
350,242,58951,1,10,2:0:0:0:
387,230,59038,1,8,2:0:0:0:
415,198,59125,1,8,2:0:0:0:
458,181,59212,1,8,2:0:0:0:
512,195,59300,5,6,3:2:0:0:
402,368,59474,1,2,2:0:0:0:
336,118,59648,1,10,2:0:0:0:
502,303,59823,1,2,2:0:0:0:
244,375,59997,2,0,L|225:277,1,99,2|0,3:2|0:0,0:0:0:0:
159,64,60346,1,10,2:0:0:0:
80,277,60520,1,2,2:0:0:0:
250,91,60695,5,2,3:2:0:0:
34,28,60869,1,2,2:0:0:0:
222,202,61044,1,10,2:0:0:0:
14,221,61218,1,2,2:0:0:0:
131,3,61393,2,0,L|150:106,1,98.9999969787599,2|0,3:2|0:0,0:0:0:0:
319,236,61741,2,0,L|336:138,1,99,10|2,2:0|2:0,0:0:0:0:
172,79,62090,6,0,B|215:80|247:108|247:108|259:71|307:49,1,148.5,2|0,3:2|0:0,0:0:0:0:
336,139,62439,2,0,L|454:164,1,99,8|2,2:0|2:0,0:0:0:0:
249,323,62788,2,0,P|196:275|231:198,1,148.5,2|0,3:2|0:0,0:0:0:0:
279,180,63137,2,0,P|227:181|190:220,1,99,10|0,2:0|0:0,0:0:0:0:
41,359,63486,6,0,L|31:261,1,99,2|0,3:2|0:0,0:0:0:0:
204,112,63834,2,0,L|194:210,1,99,10|0,2:0|0:0,0:0:0:0:
38,75,64183,2,0,B|7:34|7:34|110:9|165:66,1,198,2|8,3:2|2:0,0:0:0:0:
284,174,64706,1,2,2:0:0:0:
129,273,64881,5,2,3:2:0:0:
132,89,65055,1,2,2:0:0:0:
199,197,65230,1,10,2:0:0:0:
104,177,65404,5,2,2:0:0:0:
292,90,65579,1,2,3:2:0:0:
262,266,65753,1,2,2:0:0:0:
213,115,65927,1,10,2:0:0:0:
349,236,66102,1,2,2:0:0:0:
198,323,66276,5,2,3:2:0:0:
284,174,66451,1,2,2:0:0:0:
330,328,66625,1,10,2:0:0:0:
199,197,66800,6,0,L|187:88,1,99,2|0,2:0|3:2,0:0:0:0:
447,166,67148,2,0,L|436:264,1,99,2|8,2:0|2:0,0:0:0:0:
262,266,67497,1,2,2:0:0:0:
421,80,67672,1,2,3:2:0:0:
421,80,67846,1,2,3:2:0:0:
348,291,68020,5,10,2:0:0:0:
227,65,68195,1,2,3:2:0:0:
473,200,68369,1,10,2:0:0:0:
146,191,68544,1,2,3:2:0:0:
376,4,68718,1,10,2:0:0:0:
256,260,68893,6,0,L|224:44,1,198,6|0,3:2|3:2,0:0:0:0:
326,168,69416,1,8,2:0:0:0:
107,30,69590,2,0,L|91:131,1,99,6|2,3:2|2:0,0:0:0:0:
66,303,69939,1,0,3:2:0:0:
0,132,70113,2,0,L|16:233,1,99,8|0,2:0|3:2,0:0:0:0:
225,370,70462,5,6,3:2:0:0:
192,155,70637,1,2,2:0:0:0:
66,303,70811,2,0,P|131:307|186:314,1,99,10|0,2:0|0:0,0:0:0:0:
384,150,71160,2,0,P|319:154|264:161,1,99,2|0,3:2|0:0,0:0:0:0:
140,212,71509,1,10,2:0:0:0:
365,274,71683,1,2,2:0:0:0:
159,115,71858,5,2,3:2:0:0:
266,323,72032,1,2,2:0:0:0:
301,99,72206,1,10,2:0:0:0:
140,212,72381,1,2,2:0:0:0:
365,274,72555,2,0,L|380:167,1,99,2|2,3:2|2:0,0:0:0:0:
387,147,72817,1,2,2:0:0:0:
387,147,72904,1,10,2:0:0:0:
266,323,73079,1,2,2:0:0:0:
488,252,73253,5,2,3:2:0:0:
272,72,73427,1,2,2:0:0:0:
361,340,73602,1,10,2:0:0:0:
298,58,73776,1,2,2:0:0:0:
388,250,73951,5,2,3:2:0:0:
104,179,74125,1,2,2:0:0:0:
403,104,74300,1,10,2:0:0:0:
133,295,74474,1,2,2:0:0:0:
381,345,74648,5,2,3:2:0:0:
185,92,74823,1,2,2:0:0:0:
272,367,74997,2,0,L|285:256,1,99,10|0,2:0|0:0,0:0:0:0:
92,85,75346,6,0,L|103:183,1,99,10|0,2:0|0:0,0:0:0:0:
157,318,75695,1,2,3:2:0:0:
37,255,75869,1,0,3:2:0:0:
213,180,76044,6,0,B|302:231|302:231|352:210|337:159,1,165,2|2,3:2|2:0,0:0:0:0:
288,117,76567,1,2,3:2:0:0:
407,248,76741,2,0,P|401:308|397:356,1,82.5,10|0,2:0|0:0,0:0:0:0:
230,280,77090,1,2,2:0:0:0:
372,154,77265,1,2,3:2:0:0:
195,76,77439,6,0,P|201:136|205:184,1,82.5,10|0,2:0|3:2,0:0:0:0:
190,365,77788,1,10,2:0:0:0:
105,243,77962,1,2,3:2:0:0:
308,127,78137,6,0,P|302:187|298:235,1,82.5,10|0,2:0|3:2,0:0:0:0:
360,332,78486,1,2,3:2:0:0:
445,210,78660,1,2,3:2:0:0:
205,181,78834,6,0,L|210:241,3,45.375,8|8|8|8,3:2|2:0|2:0|2:0,0:0:0:0:
330,98,79183,2,0,L|333:52,1,45.375,10|8,3:2|2:0,0:0:0:0:
118,138,79358,2,0,L|121:183,1,45.375,10|8,2:0|2:0,0:0:0:0:
320,249,79532,5,10,3:2:0:0:
320,237,79619,1,8,2:0:0:0:
321,226,79706,1,8,2:0:0:0:
322,214,79794,1,8,2:0:0:0:
322,203,79881,5,10,3:2:0:0:
355,208,79968,1,8,2:0:0:0:
389,213,80055,1,10,2:0:0:0:
422,219,80143,1,8,2:0:0:0:
456,224,80230,5,10,2:0:0:0:
277,331,80579,5,8,2:0:0:0:
235,346,80666,1,8,2:0:0:0:
193,331,80753,1,8,2:0:0:0:
171,293,80840,1,8,2:0:0:0:
179,249,80927,6,0,L|236:261,1,45.375,10|0,2:0|0:0,0:0:0:0:
446,310,81102,1,10,2:0:0:0:
446,310,81625,6,0,B|426:282|388:271|388:271|364:305|307:309,1,136.125,6|0,3:2|0:0,0:0:0:0:
251,288,81974,2,0,B|205:200|205:200|264:216,1,136.125,10|0,3:2|0:0,0:0:0:0:
323,230,82323,1,10,2:0:0:0:
135,121,82497,2,0,L|115:220,1,90.75,10|0,2:0|3:2,0:0:0:0:
221,117,82846,6,0,P|183:40|79:47,1,181.5,6|2,3:2|2:0,0:0:0:0:
18,246,83369,1,10,3:2:0:0:
135,121,83544,1,2,2:0:0:0:
180,288,83718,1,10,3:2:0:0:
213,295,83805,1,8,2:0:0:0:
246,303,83893,1,8,2:0:0:0:
279,311,83980,1,8,2:0:0:0:
312,319,84067,1,0,3:2:0:0:
267,329,84154,1,4,3:0:0:0:
223,339,84241,1,0,3:2:0:0:
179,349,84329,1,8,3:0:0:0:
135,359,84416,6,0,L|118:290,1,45.375,6|0,3:2|0:0,0:0:0:0:
278,158,84590,2,0,L|288:202,3,45.375,8|8|8|8,2:0|2:0|2:0|2:0,0:0:0:0:
184,136,84939,6,0,L|173:180,1,45.375,6|0,3:2|0:0,0:0:0:0:
359,291,85113,2,0,L|369:246,3,45.375,8|8|8|8,2:0|2:0|2:0|2:0,0:0:0:0:
233,365,85462,6,0,L|222:320,1,45.375,6|0,3:2|0:0,0:0:0:0:
427,155,85637,2,0,L|437:199,3,45.375,8|8|8|8,2:0|2:0|2:0|2:0,0:0:0:0:
285,103,85986,6,0,L|274:147,1,45.375,6|0,3:2|0:0,0:0:0:0:
469,321,86160,2,0,L|479:276,3,45.375,8|8|8|8,2:0|2:0|2:0|2:0,0:0:0:0:
328,288,86509,6,0,L|318:244,1,45.375,10|0,2:0|0:0,0:0:0:0:
497,54,86683,1,10,2:0:0:0:
256,192,87032,5,6,3:2:0:0:
256,192,87119,12,0,88602,0:0:0:0:
