osu file format v14

[General]
AudioFilename: audio.mp3
AudioLeadIn: 0
PreviewTime: 58216
Countdown: 0
SampleSet: Soft
StackLeniency: 0.6
Mode: 0
LetterboxInBreaks: 0
WidescreenStoryboard: 1

[Editor]
Bookmarks: 59307,70469,81632
DistanceSpacing: 1
BeatDivisor: 4
GridSize: 32
TimelineZoom: 1.5

[Metadata]
Title:Omoide Shiritori (TV Size)
TitleUnicode:おもいでしりとり (TV Size)
Artist:DIALOGUE+
ArtistUnicode:DIALOGUE+
Creator:-karUpA-
Version:Normal
Source:ひげを剃る。そして女子高生を拾う。
Tags:shirokumocha soue Kumocha Yuuma2 Yuuma nisinYAKUZA Hige wo Soru Soshite Joshikousei wo Hirou I Shaved Then I Brought a High School Girl Home Higehiro Japanese TV Anime Opening 1 1st First Female Vocals j pop jpop j-pop
BeatmapID:3317926
BeatmapSetID:1624315

[Difficulty]
HPDrainRate:3
CircleSize:3.3
OverallDifficulty:4.2
ApproachRate:5
SliderMultiplier:1.02
SliderTickRate:1

[Events]
//Background and Video events
Video,0,"video.mp4"
0,0,"sayu.jpg",0,0
//Break Periods
2,53925,54595
//Storyboard Layer 0 (Background)
//Storyboard Layer 1 (Fail)
//Storyboard Layer 2 (Pass)
//Storyboard Layer 3 (Foreground)
//Storyboard Layer 4 (Overlay)
//Storyboard Sound Samples

[TimingPoints]
-693,348.837209302326,4,2,1,50,1,0
702,-111.111111111111,4,2,1,50,0,0
2097,-111.111111111111,4,2,1,60,0,0
6283,-111.111111111111,4,2,1,65,0,0
7679,-100,4,2,1,70,0,0
11865,-99.9999999999999,4,2,1,70,0,0
14307,-99.9999999999999,4,2,1,70,0,0
14481,-99.9999999999999,4,2,1,70,0,0
24423,-111.111111111111,4,2,1,60,0,0
25818,-111.111111111111,4,2,1,50,0,0
35586,-111.111111111111,4,2,1,50,0,0
36283,-111.111111111111,4,2,1,50,0,0
36981,-100,4,2,1,60,0,0
42562,-100,4,2,1,65,0,0
46748,-100,4,2,1,60,0,0
47620,-100,4,2,1,60,0,0
48144,-111.111111111111,4,2,1,55,0,0
53725,-111.111111111111,4,2,1,55,0,0
55818,-111.111111111111,4,2,1,60,0,0
56516,-111.111111111111,4,2,1,65,0,0
57213,-111.111111111111,4,2,1,70,0,0
57911,-111.111111111111,4,2,1,75,0,0
58609,-111.111111111111,4,2,1,75,0,0
59307,-100,4,2,1,80,0,1
70469,-100,4,2,1,80,0,1
75353,-100,4,2,1,80,0,1
76051,-111.111111111111,4,2,1,80,0,1
77446,-100,4,2,1,80,0,1
78841,-100,4,2,1,70,0,1
79539,-100,4,2,1,80,0,1
80237,-100,4,2,1,80,0,1
80498,-100,4,2,1,5,0,1
80586,-100,4,2,1,80,0,1
81632,-100,4,2,1,70,0,0
87039,-100,4,2,1,70,0,0
87911,-100,4,2,1,50,0,0
88609,-100,4,2,1,30,0,0

[Colours]
Combo1 : 0,255,64
Combo2 : 255,255,0
Combo3 : 255,128,128
Combo4 : 128,128,255

[HitObjects]
53,42,2097,6,0,P|41:96|148:154,1,183.599994396973,2|2,0:0|0:0,0:0:0:0:
207,100,3144,1,2,0:0:0:0:
272,164,3493,2,0,P|321:133|442:154,1,183.599994396973,2|2,0:0|0:0,0:0:0:0:
500,221,4539,2,0,L|490:279,1,45.8999985992432,2|2,0:0|0:0,0:0:0:0:
457,296,4888,6,0,P|426:340|350:314,1,137.69999579773,2|2,1:2|0:0,0:0:0:0:
313,297,5586,2,0,P|254:302|230:339,1,91.7999971984864,2|2,0:0|0:0,0:0:0:0:
150,360,6283,2,0,L|96:344,1,45.8999985992432,10|8,0:0|0:0,0:0:0:0:
62,331,6632,1,10,0:3:0:0:
8,256,6981,2,0,L|25:195,2,45.8999985992432,10|8|2,0:0|0:3|1:2,0:0:0:0:
110,252,7679,6,0,P|164:201|236:216,1,153,6|2,1:2|0:0,0:0:0:0:
262,259,8376,1,6,1:2:0:0:
325,64,9074,2,0,L|395:81,1,51,14|0,0:0|1:2,0:0:0:0:
424,67,9423,2,0,L|473:79,1,51,10|2,0:0|1:2,0:0:0:0:
497,124,9772,2,0,P|511:187|486:229,1,102,14|10,0:0|0:3,0:0:0:0:
453,311,10469,5,14,0:0:0:0:
382,236,10818,2,0,L|318:247,1,51,2|2,1:2|1:2,0:0:0:0:
301,285,11167,1,2,1:2:0:0:
237,205,11516,2,0,L|254:135,1,51,2|2,1:2|1:2,0:0:0:0:
218,114,11865,6,0,P|181:67|133:69,1,102,14|10,0:0|0:3,0:0:0:0:
62,127,12562,1,10,0:0:0:0:
62,127,12737,1,8,0:0:0:0:
487,262,14132,5,2,0:0:0:0:
460,95,14655,6,0,B|412:108|422:69|361:89,1,102,6|2,1:2|1:2,0:0:0:0:
290,176,15353,1,10,1:2:0:0:
290,176,15527,1,10,1:2:0:0:
233,79,15876,2,0,P|202:49|139:64,1,102,6|0,1:2|0:0,0:0:0:0:
107,82,16400,1,0,1:2:0:0:
107,82,16574,2,0,P|117:122|85:182,1,102,0|8,0:0|0:0,0:0:0:0:
43,190,17097,1,8,0:3:0:0:
47,291,17446,6,0,P|90:358|126:361,1,102,6|2,1:2|1:2,0:0:0:0:
170,283,18144,1,10,1:2:0:0:
170,283,18318,1,10,1:2:0:0:
223,376,18667,2,0,L|342:353,1,102,6|2,1:2|0:0,0:0:0:0:
347,311,19190,1,2,1:2:0:0:
347,311,19365,2,0,P|365:236|341:203,1,102,2|8,1:2|0:0,0:0:0:0:
307,200,19888,1,8,0:3:0:0:
372,121,20237,6,0,P|421:84|467:91,1,102,14|8,1:2|0:0,0:0:0:0:
505,108,20760,1,14,1:2:0:0:
498,260,21283,2,0,P|489:289|422:310,1,102,14|8,1:2|0:0,0:0:0:0:
378,292,21807,1,14,1:2:0:0:
246,370,22330,1,10,1:2:0:0:
246,370,22504,1,10,1:2:0:0:
184,288,22853,6,0,P|152:264|73:280,1,102,6|0,1:2|1:2,0:0:0:0:
50,236,23376,2,0,P|48:209|23:136,1,102,8|0,0:0|1:2,0:0:0:0:
72,47,24074,1,8,0:0:0:0:
157,79,24423,6,0,L|306:42,1,137.69999579773,6|2,1:2|0:0,0:0:0:0:
319,81,25120,2,0,P|396:104|416:96,1,91.7999971984864,2|2,0:0|0:0,0:0:0:0:
477,155,25818,6,0,P|505:196|496:246,1,91.7999971984864,2|0,1:2|0:0,0:0:0:0:
443,308,26516,2,0,L|347:279,1,91.7999971984864,2|0,0:0|0:0,0:0:0:0:
317,306,27039,1,2,1:2:0:0:
317,306,27213,2,0,L|254:328,1,45.8999985992432,2|2,1:2|0:0,0:0:0:0:
239,351,27562,1,2,0:0:0:0:
163,298,27911,2,0,L|148:194,1,91.7999971984864,2|0,0:0|0:0,0:0:0:0:
117,182,28434,1,2,0:0:0:0:
117,182,28609,6,0,P|121:143|183:127,1,91.7999971984864,2|2,1:2|0:0,0:0:0:0:
256,116,29307,2,0,P|287:81|280:31,1,91.7999971984864,2|2,0:0|0:0,0:0:0:0:
317,6,29830,1,0,1:2:0:0:
317,6,30004,2,0,L|422:49,1,91.7999971984864,2|2,1:2|0:0,0:0:0:0:
483,84,30702,2,0,P|516:136|487:215,1,137.69999579773,2|2,0:0|0:0,0:0:0:0:
465,239,31400,6,0,L|374:204,1,91.7999971984864,2|2,1:2|0:0,0:0:0:0:
310,269,32097,1,2,0:0:0:0:
209,175,32620,1,2,1:2:0:0:
209,175,32795,2,0,L|105:206,1,91.7999971984864,2|2,1:2|0:0,0:0:0:0:
42,153,33493,1,2,0:0:0:0:
37,336,34190,6,0,P|86:312|128:329,1,91.7999971984864,2|2,1:2|0:0,0:0:0:0:
187,260,34888,1,2,0:0:0:0:
251,325,35237,1,2,0:0:0:0:
305,250,35586,5,2,0:0:0:0:
479,307,36283,2,0,L|506:197,1,91.7999971984864,2|8,1:2|0:0,0:0:0:0:
428,145,36981,6,0,P|411:106|345:91,1,102,6|8,1:2|0:0,0:0:0:0:
326,54,37504,1,2,0:0:0:0:
326,54,37679,1,2,1:2:0:0:
211,155,38202,1,10,0:0:0:0:
211,155,38376,2,0,L|146:139,1,51,2|2,0:0|1:2,0:0:0:0:
112,128,38725,2,0,P|70:149|62:214,1,102,10|2,0:0|1:2,0:0:0:0:
19,350,39597,1,2,0:0:0:0:
19,350,39772,6,0,L|120:328,1,102,2|10,1:2|0:0,0:0:0:0:
208,279,40469,2,0,L|309:301,1,102,2|10,1:2|0:0,0:0:0:0:
397,349,41167,2,0,L|412:286,1,51,2|0,1:2|1:2,0:0:0:0:
448,267,41516,2,0,L|422:159,1,102,10|2,0:0|1:2,0:0:0:0:
391,128,42039,1,0,1:2:0:0:
391,128,42213,2,0,P|353:143|330:142,1,51,10|2,0:0|1:2,0:0:0:0:
295,124,42562,6,0,P|250:98|231:99,1,51,6|0,1:2|1:2,0:0:0:0:
225,55,42911,1,10,1:0:0:0:
141,113,43260,2,0,L|160:177,1,51,2|2,1:2|1:2,0:0:0:0:
128,205,43609,1,10,1:0:0:0:
36,249,43958,2,0,L|53:302,1,51,2|0,1:2|1:2,0:0:0:0:
29,343,44307,1,10,1:0:0:0:
130,352,44655,2,0,L|180:359,1,51,2|2,1:2|1:2,0:0:0:0:
218,325,45004,1,10,1:0:0:0:
309,369,45353,6,0,L|420:346,1,102,2|10,1:2|0:0,0:0:0:0:
497,296,46051,2,0,L|508:232,1,51,2|0,1:2|1:2,0:0:0:0:
486,198,46400,1,10,0:0:0:0:
401,255,46748,6,0,B|311:280|333:210|232:243,1,153,6|2,1:2|0:0,0:0:0:0:
225,279,47446,1,10,0:0:0:0:
225,279,47620,1,12,1:2:0:0:
103,343,48144,6,0,L|61:202,1,137.69999579773,6|2,1:2|1:2,0:0:0:0:
30,179,48841,1,10,0:0:0:0:
149,39,49539,1,2,1:2:0:0:
149,39,49713,2,0,P|182:73|275:69,1,137.69999579773,8|10,0:0|0:0,0:0:0:0:
354,41,50586,2,0,L|416:61,1,45.8999985992432,2|2,0:0|1:2,0:0:0:0:
418,95,50934,6,0,P|456:133|430:219,1,137.69999579773,4|0,1:2|1:2,0:0:0:0:
457,252,51632,1,10,0:0:0:0:
306,357,52330,1,10,0:0:0:0:
306,357,52504,2,0,L|287:218,1,137.69999579773,8|10,0:0|0:0,0:0:0:0:
219,158,53376,2,0,L|165:170,1,45.8999985992432,2|2,1:2|1:2,0:0:0:0:
147,205,53725,5,6,1:2:0:0:
304,65,55818,6,0,L|360:85,1,45.8999985992432,10|2,0:0|1:2,0:0:0:0:
388,59,56167,1,10,0:3:0:0:
445,130,56516,6,0,L|416:238,1,91.7999971984864,6|0,1:2|1:2,0:0:0:0:
444,258,57039,1,0,1:2:0:0:
444,258,57213,2,0,L|459:318,1,45.8999985992432,0|0,1:2|1:2,0:0:0:0:
437,345,57562,2,0,P|393:360|382:352,1,45.8999985992432,8|4,0:3|0:3,0:0:0:0:
352,368,57911,5,10,0:0:0:0:
352,368,58086,1,10,0:0:0:0:
250,274,58609,2,0,L|276:173,1,91.7999971984864,6|10,1:2|0:0,0:0:0:0:
213,101,59307,6,0,L|107:132,1,102,6|10,1:2|0:0,0:0:0:0:
82,169,59830,1,2,0:0:0:0:
82,169,60004,1,2,1:2:0:0:
26,254,60353,2,0,L|39:313,1,51,10|2,0:0|0:0,0:0:0:0:
65,345,60702,2,0,P|106:366|127:359,1,51,2|2,1:2|0:0,0:0:0:0:
156,347,61051,2,0,L|224:328,1,51,10|2,0:0|0:0,0:0:0:0:
235,292,61400,2,0,P|303:262|346:280,1,102,2|10,1:2|0:0,0:0:0:0:
406,331,62097,6,0,L|441:226,1,102,2|8,1:2|0:0,0:0:0:0:
415,188,62620,1,2,0:0:0:0:
415,188,62795,2,0,P|361:158|303:176,1,102,2|10,1:2|0:0,0:0:0:0:
226,130,63493,2,0,L|167:153,1,51,2|0,1:2|0:0,0:0:0:0:
152,192,63841,2,0,L|86:182,1,51,10|0,0:0|0:0,0:0:0:0:
55,161,64190,2,0,P|62:109|120:70,1,102,2|8,1:2|0:0,0:0:0:0:
185,25,64888,6,0,L|251:44,1,51,6|2,1:2|0:0,0:0:0:0:
276,67,65237,2,0,P|336:95|385:76,1,102,10|2,0:0|1:2,0:0:0:0:
444,155,65934,2,0,L|428:219,1,51,10|2,0:0|0:0,0:0:0:0:
396,242,66283,2,0,L|413:302,2,51,2|2|10,1:2|0:0|0:0,0:0:0:0:
350,217,66807,2,0,P|316:205|250:229,1,102,2|2,0:0|0:0,0:0:0:0:
215,256,67330,2,0,P|175:280|156:283,1,51,8|2,0:0|0:0,0:0:0:0:
122,294,67679,6,0,L|90:184,2,102,14|10|10,2:2|0:0|1:2,0:0:0:0:
196,364,68725,1,10,0:0:0:0:
196,364,68900,2,0,P|235:333|337:371,1,153,6|8,1:2|0:0,0:0:0:0:
373,334,69597,1,6,1:2:0:0:
373,334,69772,2,0,L|398:227,1,102,2|8,0:0|0:0,0:0:0:0:
461,155,70469,6,0,P|425:127|350:138,1,102,6|10,1:2|0:0,0:0:0:0:
334,163,70993,1,2,0:0:0:0:
334,163,71167,1,2,1:2:0:0:
261,90,71516,2,0,L|198:109,1,51,10|2,0:0|0:0,0:0:0:0:
177,142,71865,2,0,L|199:207,1,51,2|2,1:2|0:0,0:0:0:0:
164,232,72213,2,0,L|142:297,1,51,10|2,0:0|0:0,0:0:0:0:
158,330,72562,2,0,B|206:323|206:323|230:335|230:335|278:332,1,102,2|10,1:2|0:0,0:0:0:0:
316,250,73260,6,0,P|353:272|382:283,1,51,2|2,1:2|0:0,0:0:0:0:
388,318,73609,2,0,P|440:298|447:298,1,51,10|2,0:0|0:0,0:0:0:0:
463,256,73958,2,0,L|526:276,2,51,2|2|10,1:2|0:0|0:0,0:0:0:0:
444,208,74481,1,2,0:0:0:0:
444,208,74655,2,0,P|455:159|457:151,1,51,2|2,1:2|0:0,0:0:0:0:
438,110,75004,1,10,0:0:0:0:
365,37,75353,2,0,P|329:79|269:81,1,102,2|10,1:2|0:3,0:0:0:0:
210,31,76051,6,0,P|149:27|124:52,1,91.7999971984864,6|2,1:2|1:2,0:0:0:0:
95,76,76574,1,2,1:2:0:0:
95,76,76748,2,0,L|124:176,1,91.7999971984864,10|2,0:0|1:2,0:0:0:0:
52,240,77446,2,0,L|70:298,1,51,10|0,0:0|1:2,0:0:0:0:
88,335,77795,2,0,P|128:339|153:353,1,51,10|2,0:0|1:2,0:0:0:0:
182,318,78144,2,0,P|227:346|287:321,1,102,10|10,0:0|0:0,0:0:0:0:
326,248,78841,6,0,L|432:277,1,102,6|2,1:2|1:2,0:0:0:0:
459,237,79365,1,2,0:0:0:0:
459,237,79539,2,0,P|479:190|456:133,1,102,0|10,1:2|1:2,0:0:0:0:
405,59,80237,6,0,B|342:98|342:98|307:80,1,102,6|10,1:2|0:0,0:0:0:0:
240,26,80934,1,8,0:0:0:0:
240,26,81109,1,10,0:0:0:0:
127,129,81632,6,0,L|247:161,1,102,6|2,1:2|1:2,0:0:0:0:
309,95,82330,1,10,1:2:0:0:
309,95,82504,1,10,1:2:0:0:
372,181,82853,2,0,L|349:289,1,102,6|0,1:2|0:0,0:0:0:0:
321,322,83376,1,0,1:2:0:0:
321,322,83551,2,0,P|283:300|214:316,1,102,0|8,0:0|0:0,0:0:0:0:
195,347,84074,2,0,P|168:342|130:333,1,51,8|4,0:3|0:3,0:0:0:0:
95,324,84423,6,0,P|62:273|84:226,1,102,14|8,1:2|0:0,0:0:0:0:
107,198,84946,1,14,1:2:0:0:
222,97,85469,2,0,L|337:124,1,102,14|8,1:2|0:0,0:0:0:0:
371,133,85993,1,14,1:2:0:0:
412,280,86516,1,10,1:2:0:0:
412,280,86690,1,10,1:2:0:0:
476,200,87039,1,6,1:2:0:0:
256,192,87213,12,0,88609,0:0:0:0:
