osu file format v14

[General]
AudioFilename: audio.mp3
AudioLeadIn: 0
PreviewTime: 58216
Countdown: 0
SampleSet: Soft
StackLeniency: 0.6
Mode: 0
LetterboxInBreaks: 0
WidescreenStoryboard: 1

[Editor]
Bookmarks: 16748,59307,81632
DistanceSpacing: 0.7
BeatDivisor: 4
GridSize: 16
TimelineZoom: 1.5

[Metadata]
Title:Omoide Shiritori (TV Size)
TitleUnicode:おもいでしりとり (TV Size)
Artist:DIALOGUE+
ArtistUnicode:DIALOGUE+
Creator:-karUpA-
Version:Insane
Source:ひげを剃る。そして女子高生を拾う。
Tags:shirokumocha soue Kumocha Yuuma2 Yuuma nisinYAKUZA Hige wo Soru Soshite Joshikousei wo Hirou I Shaved Then I Brought a High School Girl Home Higehiro Japanese TV Anime Opening 1 1st First Female Vocals j pop jpop j-pop
BeatmapID:3322004
BeatmapSetID:1624315

[Difficulty]
HPDrainRate:5
CircleSize:3.8
OverallDifficulty:8
ApproachRate:9
SliderMultiplier:1.62
SliderTickRate:1

[Events]
//Background and Video events
Video,0,"video.mp4"
0,0,"sayu.jpg",0,0
//Break Periods
2,53925,55218
//Storyboard Layer 0 (Background)
//Storyboard Layer 1 (Fail)
//Storyboard Layer 2 (Pass)
//Storyboard Layer 3 (Foreground)
//Storyboard Layer 4 (Overlay)
//Storyboard Sound Samples

[TimingPoints]
-693,348.837209302326,4,2,1,50,1,0
702,-125,4,2,1,50,0,0
2097,-125,4,2,1,60,0,0
6283,-111.111111111111,4,2,1,65,0,0
7679,-111.111111111111,4,2,1,70,0,0
11865,-99.9999999999999,4,2,1,70,0,0
14307,-99.9999999999999,4,2,1,70,0,0
14481,-99.9999999999999,4,2,1,70,0,0
24423,-142.857142857143,4,2,1,60,0,0
25818,-125,4,2,1,50,0,0
35586,-153.846153846154,4,2,1,50,0,0
36283,-111.111111111111,4,2,1,50,0,0
36981,-113.636363636364,4,2,1,60,0,0
40033,-113.636363636364,4,2,1,5,0,0
40120,-113.636363636364,4,2,1,60,0,0
41429,-113.636363636364,4,2,1,5,0,0
41516,-113.636363636364,4,2,1,60,0,0
42562,-113.636363636364,4,2,1,65,0,0
46748,-113.636363636364,4,2,1,60,0,0
47620,-125,4,2,1,60,0,0
48144,-147.058823529412,4,2,1,55,0,0
53725,-125,4,2,1,55,0,0
55818,-125,4,2,1,60,0,0
56516,-125,4,2,1,65,0,0
57213,-125,4,2,1,70,0,0
57911,-125,4,2,1,75,0,0
58609,-100,4,2,1,75,0,0
59307,-83.3333333333333,4,2,1,80,0,1
70469,-83.3333333333333,4,2,1,80,0,1
75266,-83.3333333333333,4,2,1,5,0,1
75353,-83.3333333333333,4,2,1,80,0,1
76051,-100,4,2,1,80,0,1
77446,-83.3333333333333,4,2,1,80,0,1
78841,-100,4,2,1,70,0,1
79539,-83.3333333333333,4,2,1,80,0,1
80237,-83.3333333333333,4,2,1,80,0,1
80498,-83.3333333333333,4,2,1,5,0,1
80586,-83.3333333333333,4,2,1,80,0,1
81109,-250,4,2,1,80,0,1
81545,-250,4,2,1,5,0,1
81632,-100,4,2,1,70,0,0
87039,-100,4,2,1,70,0,0
87911,-100,4,2,1,50,0,0
88609,-100,4,2,1,30,0,0

[Colours]
Combo1 : 0,255,64
Combo2 : 255,255,0
Combo3 : 255,128,128
Combo4 : 128,128,255

[HitObjects]
427,341,527,5,2,0:0:0:0:
427,341,615,1,2,0:0:0:0:
427,341,702,2,0,P|442:301|455:276,1,64.8,2|0,0:0|0:0,0:0:0:0:
319,216,1051,2,0,P|333:245|343:275,1,64.8
424,196,1400,2,0,P|439:156|452:131,1,64.8,2|0,0:0|0:0,0:0:0:0:
316,71,1749,2,0,P|330:100|340:130,1,64.8
225,222,2097,5,2,0:0:0:0:
248,132,2272,1,2,0:0:0:0:
141,175,2446,1,2,0:0:0:0:
164,85,2621,1,2,0:0:0:0:
124,190,2795,2,0,P|82:227|80:316,1,129.6,2|2,0:0|0:0,0:0:0:0:
151,268,3318,1,2,0:0:0:0:
30,169,3493,5,2,0:0:0:0:
48,262,3667,1,2,0:0:0:0:
106,97,3841,1,2,0:0:0:0:
124,190,4015,1,2,0:0:0:0:
116,76,4190,2,0,P|155:44|235:69,1,129.6,2|2,0:0|0:0,0:0:0:0:
281,169,4713,1,2,0:0:0:0:
355,77,4888,6,0,P|408:100|492:136,1,129.6,2|0,1:2|0:0,0:0:0:0:
428,273,5411,1,2,0:0:0:0:
351,172,5586,2,0,B|272:170|304:219|219:214,1,129.6,2|2,0:0|0:0,0:0:0:0:
398,251,6283,6,0,L|405:296,2,36.4499988876343,10|8|8,0:0|0:0|0:0,0:0:0:0:
460,155,6632,1,10,0:3:0:0:
512,254,6807,1,0,1:2:0:0:
368,158,6981,2,0,L|409:87,1,72.8999977752686,10|8,0:0|0:3,0:0:0:0:
281,19,7330,2,0,L|313:84,1,72.8999977752686,2|6,1:2|0:3,0:0:0:0:
260,175,7679,6,0,P|227:226|134:216,1,145.799995550537,6|0,1:2|0:0,0:0:0:0:
23,161,8202,1,2,0:0:0:0:
87,319,8376,2,0,P|102:272|136:171,1,145.799995550537,6|0,1:2|0:0,0:0:0:0:
0,78,8900,1,2,0:0:0:0:
156,20,9074,5,14,0:0:0:0:
104,176,9248,1,0,1:2:0:0:
249,71,9423,5,10,0:0:0:0:
301,227,9597,1,2,1:2:0:0:
388,109,9772,6,0,L|359:36,1,72.8999977752686,14|0,0:0|0:0,0:0:0:0:
286,201,10120,2,0,L|259:268,1,72.8999977752686,10|6,0:3|0:3,0:0:0:0:
480,282,10469,6,0,P|458:220|369:205,1,145.799995550537,14|2,0:0|1:2,0:0:0:0:
286,115,10993,1,2,1:2:0:0:
398,281,11167,1,2,1:2:0:0:
452,88,11341,1,0,1:2:0:0:
298,222,11516,1,2,1:2:0:0:
252,29,11690,1,2,1:2:0:0:
420,169,11865,5,14,0:0:0:0:
420,169,11952,1,8,0:0:0:0:
420,169,12039,2,0,L|474:187,1,40.5,8|8,0:0|0:0,0:0:0:0:
319,105,12213,1,10,0:3:0:0:
319,105,12300,1,8,0:3:0:0:
319,105,12387,2,0,L|265:123,1,40.5,4|4,0:3|0:3,0:0:0:0:
199,147,12562,5,10,0:0:0:0:
402,80,12737,1,8,0:0:0:0:
256,192,13260,12,2,14132,0:0:0:0:
65,70,14481,5,8,0:0:0:0:
65,70,14568,1,8,0:0:0:0:
65,70,14655,2,0,L|99:178,1,81,6|0,1:2|0:0,0:0:0:0:
259,163,15004,2,0,P|239:99|138:95,1,162,2|10,1:2|1:2,0:0:0:0:
219,243,15527,1,10,1:2:0:0:
380,153,15876,6,0,B|369:215|369:215|379:243|379:243|360:330,1,162,6|0,1:2|0:0,0:0:0:0:
511,203,16400,2,0,L|482:114,1,81,0|0,1:2|0:0,0:0:0:0:
376,32,16748,2,0,L|416:44,3,40.5,8|8|8|8,0:0|0:0|0:0|0:0,0:0:0:0:
315,121,17097,1,8,0:3:0:0:
315,121,17184,1,8,0:3:0:0:
315,121,17272,2,0,L|261:147,1,40.5,4|4,0:3|0:3,0:0:0:0:
169,29,17446,6,0,L|246:56,1,81,6|0,1:2|0:0,0:0:0:0:
142,135,17795,2,0,P|92:143|35:44,1,162,2|10,1:2|1:2,0:0:0:0:
225,130,18318,1,10,1:2:0:0:
20,209,18667,6,0,B|2:305|62:261|44:372,1,162,6|2,1:2|0:0,0:0:0:0:
184,233,19190,2,0,P|145:257|103:276,1,81,2|2,1:2|1:2,0:0:0:0:
201,358,19539,2,0,P|241:368|258:363,3,40.5,8|8|8|8,0:0|0:0|0:0|0:0,0:0:0:0:
345,295,19888,1,8,0:3:0:0:
345,295,19975,1,8,0:3:0:0:
345,295,20062,2,0,P|326:303|306:305,1,40.5,4|4,0:3|0:3,0:0:0:0:
445,222,20237,5,14,1:2:0:0:
440,245,20324,1,8,0:0:0:0:
437,269,20411,1,8,0:0:0:0:
434,293,20498,1,8,0:0:0:0:
431,317,20586,2,0,L|482:305,1,40.5,8|8,0:0|0:0,0:0:0:0:
357,212,20760,6,0,L|307:195,5,40.5,14|8|8|8|8|8,1:2|0:0|0:0|0:0|0:0|0:0,0:0:0:0:
231,354,21283,5,14,1:2:0:0:
253,346,21370,1,8,0:0:0:0:
276,338,21458,1,8,0:0:0:0:
299,331,21545,1,8,0:0:0:0:
322,324,21632,2,0,L|339:254,1,40.5,8|8,0:0|0:0,0:0:0:0:
212,205,21807,6,0,L|227:259,5,40.5,14|8|8|8|8|8,1:2|0:0|0:0|0:0|0:0|0:0,0:0:0:0:
245,125,22330,5,10,1:2:0:0:
74,232,22504,1,10,1:2:0:0:
58,222,22853,6,0,P|43:270|128:334,1,162,6|0,1:2|1:2,0:0:0:0:
191,177,23376,2,0,P|166:223|137:240,1,81,8|0,0:0|0:0,0:0:0:0:
261,366,23725,2,0,P|245:319|236:278,1,81,0|0,1:2|0:0,0:0:0:0:
355,215,24074,2,0,P|345:254|331:292,1,81,8|0,0:0|0:0,0:0:0:0:
445,206,24423,6,0,P|427:158|306:140,1,170.09999480896,6|2,1:2|0:0,0:0:0:0:
306,124,25033,1,2,0:0:0:0:
306,124,25120,1,2,0:0:0:0:
426,54,25469,1,2,0:0:0:0:
280,4,25818,6,0,P|225:16|194:97,1,129.6,2|0,1:2|0:0,0:0:0:0:
124,148,26341,1,2,0:0:0:0:
124,148,26516,2,0,P|47:117|-3:117,1,129.6,2|0,0:0|0:0,0:0:0:0:
53,243,27039,1,2,1:2:0:0:
53,243,27213,6,0,P|89:234|118:234,1,64.8,2|2,1:2|0:0,0:0:0:0:
173,312,27562,2,0,P|205:311|236:302,1,64.8,2|0,0:0|0:0,0:0:0:0:
309,238,27911,2,0,B|318:165|261:188|276:109,1,129.6,2|0,0:0|0:0,0:0:0:0:
295,30,28434,1,2,0:0:0:0:
295,30,28609,6,0,P|337:53|419:27,2,129.6,2|2|2,1:2|0:0|0:0,0:0:0:0:
205,107,29481,1,0,0:0:0:0:
302,157,29655,2,0,L|325:237,1,64.8,2|0,0:0|1:2,0:0:0:0:
406,253,30004,6,0,P|367:309|295:314,1,129.6,2|2,1:2|0:0,0:0:0:0:
240,247,30527,1,0,0:0:0:0:
208,348,30702,1,2,0:0:0:0:
211,126,31225,1,2,0:0:0:0:
211,126,31400,6,0,L|82:162,1,129.6,2|2,1:2|0:0,0:0:0:0:
183,24,31923,1,2,0:0:0:0:
183,24,32097,2,0,L|312:60,1,129.6,2|0,0:0|0:0,0:0:0:0:
359,153,32620,1,2,1:2:0:0:
436,40,32795,6,0,B|413:116|463:94|450:166,1,129.6,2|2,1:2|0:0,0:0:0:0:
457,266,33318,1,2,0:0:0:0:
372,235,33493,2,0,P|340:281|247:283,1,129.6,2|0,0:0|0:0,0:0:0:0:
196,216,34016,1,2,0:0:0:0:
150,309,34190,6,0,L|166:377,1,64.8,2|0,1:2|0:0,0:0:0:0:
74,242,34539,2,0,L|58:310,1,64.8,2|0,0:0|0:0,0:0:0:0:
141,162,34888,2,0,L|157:230,1,64.8,2|0,0:0|0:0,0:0:0:0:
65,95,35237,2,0,L|49:163,1,64.8,2|0,0:0|0:0,0:0:0:0:
155,59,35586,1,2,0:0:0:0:
155,59,36283,6,0,P|199:33|237:42,1,72.8999977752686,2|0,1:2|1:2,0:0:0:0:
254,12,36545,1,8,0:0:0:0:
254,12,36632,1,8,0:0:0:0:
154,152,36807,5,4,0:3:0:0:
154,152,36894,1,4,0:3:0:0:
154,152,36981,2,0,P|125:195|38:188,1,142.560004350586,6|8,1:2|0:0,0:0:0:0:
131,56,37504,1,2,0:0:0:0:
228,201,37679,1,2,1:2:0:0:
288,61,37853,2,0,B|365:41|353:97|433:90,1,142.560004350586,0|10,1:2|0:0,0:0:0:0:
476,233,38376,5,2,0:0:0:0:
344,162,38551,1,2,1:2:0:0:
494,258,38725,2,0,P|465:292|446:323,1,71.280002175293,10|0,0:0|0:0,0:0:0:0:
264,161,39074,2,0,P|288:226|354:246,1,142.560004350586,2|8,1:2|0:0,0:0:0:0:
249,324,39597,1,2,0:0:0:0:
170,222,39772,6,0,P|108:292|50:275,1,142.560004350586,2|10,1:2|0:0,0:0:0:0:
0,186,40295,1,0,0:0:0:0:
100,115,40469,2,0,L|75:39,1,71.280002175293,2|0,1:2|1:2,0:0:0:0:
213,108,40818,2,0,L|190:175,1,71.280002175293,10|0,0:0|0:0,0:0:0:0:
309,33,41167,5,2,1:2:0:0:
309,33,41341,1,0,1:2:0:0:
415,144,41516,2,0,L|443:67,1,71.280002175293,10|0,0:0|0:0,0:0:0:0:
299,186,41865,2,0,L|323:252,1,71.280002175293,2|0,1:2|1:2,0:0:0:0:
444,354,42213,1,10,0:0:0:0:
444,354,42388,1,2,1:2:0:0:
419,221,42562,5,6,1:2:0:0:
316,344,42737,1,0,1:2:0:0:
230,227,42911,2,0,L|254:136,1,71.280002175293,10|0,1:0|0:0,0:0:0:0:
169,299,43260,5,2,1:2:0:0:
324,198,43434,1,2,1:2:0:0:
162,134,43609,2,0,L|144:62,1,71.280002175293,10|0,1:0|0:0,0:0:0:0:
65,179,43958,5,2,1:2:0:0:
3,36,44132,1,0,1:2:0:0:
85,187,44307,2,0,P|56:236|45:258,1,71.280002175293,10|0,1:0|0:0,0:0:0:0:
143,57,44655,5,2,1:2:0:0:
0,119,44829,1,2,1:2:0:0:
151,37,45004,2,0,P|200:66|222:77,1,71.280002175293,10|0,1:0|0:0,0:0:0:0:
334,35,45353,6,0,P|283:62|214:130,1,142.560004350586,2|10,1:2|0:0,0:0:0:0:
285,248,45876,1,0,0:0:0:0:
387,147,46051,2,0,P|436:179|454:184,1,71.280002175293,2|0,1:2|1:2,0:0:0:0:
368,294,46400,2,0,P|340:316|307:329,1,71.280002175293,10|0,0:0|1:2,0:0:0:0:
251,155,46748,6,0,B|300:244|300:244|300:211|312:193,1,142.560004350586,6|2,1:2|0:0,0:0:0:0:
244,60,47272,1,2,0:0:0:0:
155,188,47446,1,10,0:0:0:0:
155,188,47620,2,0,P|126:222|30:197,1,129.6,12|2,1:2|1:2,0:0:0:0:
190,46,48144,6,0,P|235:58|269:60,1,55.0800003361816,6|2,1:2|0:0,0:0:0:0:
328,110,48493,2,0,P|373:98|407:96,1,55.0800003361816,2|2,0:0|1:2,0:0:0:0:
450,20,48841,2,0,P|483:57|469:134,1,110.160000672363,10|2,0:0|0:0,0:0:0:0:
359,206,49365,1,0,0:0:0:0:
485,255,49539,5,2,1:2:0:0:
485,255,49713,2,0,P|461:199|412:155,1,110.160000672363,8|0,0:0|1:2,0:0:0:0:
349,263,50237,2,0,L|425:240,1,55.0800003361816,10|0,0:0|0:0,0:0:0:0:
314,354,50586,2,0,L|261:338,1,55.0800003361816,2|2,0:0|1:2,0:0:0:0:
147,276,50934,6,0,P|164:324|167:337,1,55.0800003361816,4|2,1:2|0:0,0:0:0:0:
237,251,51283,2,0,P|244:225|255:200,1,55.0800003361816,2|0,0:0|1:2,0:0:0:0:
188,140,51545,1,2,0:0:0:0:
188,140,51632,2,0,P|240:106|295:126,1,110.160000672363,10|2,0:0|0:0,0:0:0:0:
375,25,52155,1,0,1:2:0:0:
422,152,52330,5,10,0:0:0:0:
422,152,52504,2,0,B|403:192|403:192|409:221|409:221|383:271,1,110.160000672363,8|0,0:0|1:2,0:0:0:0:
512,318,53027,2,0,L|497:253,1,55.0800003361816,10|0,0:0|0:0,0:0:0:0:
409,384,53376,2,0,L|424:319,1,55.0800003361816,2|2,1:2|1:2,0:0:0:0:
357,260,53725,5,6,1:2:0:0:
105,210,55818,5,10,0:0:0:0:
264,145,55993,1,2,1:2:0:0:
116,66,56167,2,0,L|140:140,1,64.8,10|4,0:3|0:3,0:0:0:0:
258,220,56516,6,0,L|277:158,1,64.8,6|0,1:2|0:0,0:0:0:0:
441,248,56865,1,0,1:2:0:0:
380,86,57039,1,0,1:2:0:0:
322,289,57213,1,0,1:2:0:0:
486,153,57388,1,0,1:2:0:0:
508,362,57562,1,8,0:3:0:0:
508,362,57650,1,8,0:3:0:0:
508,362,57737,2,0,L|468:355,1,32.4,4|4,0:3|0:3,0:0:0:0:
383,196,57911,5,10,0:0:0:0:
305,383,58086,1,10,0:0:0:0:
403,184,58609,6,0,L|362:162,1,40.5,6|0,1:2|0:0,0:0:0:0:
496,104,58783,1,8,0:0:0:0:
496,104,58870,1,8,0:0:0:0:
496,104,58958,2,0,L|481:150,1,40.5,10|8,0:0|0:0,0:0:0:0:
393,51,59132,2,0,L|380:12,1,40.5,8|8,0:0|0:0,0:0:0:0:
240,118,59307,6,0,P|294:145|334:141,1,97.1999970336915,6|2,1:2|0:0,0:0:0:0:
159,20,59655,2,0,P|110:19|69:44,1,97.1999970336915,10|2,0:0|0:0,0:0:0:0:
0,226,60004,2,0,B|95:183|93:267|196:220,1,194.399994067383,2|10,1:2|0:0,0:0:0:0:
86,126,60527,1,2,0:0:0:0:
65,298,60702,5,2,1:2:0:0:
203,152,60876,1,2,0:0:0:0:
244,323,61051,1,10,0:0:0:0:
124,207,61225,1,2,0:0:0:0:
303,116,61400,2,0,L|282:219,1,97.1999970336915,2|0,1:2|0:0,0:0:0:0:
461,234,61748,2,0,P|420:195|370:190,1,97.1999970336915,10|2,0:0|0:0,0:0:0:0:
257,307,62097,6,0,B|380:267|380:267|336:261|309:242,1,194.399994067383,2|8,1:2|0:0,0:0:0:0:
221,208,62620,1,2,0:0:0:0:
164,360,62795,2,0,P|115:336|69:331,1,97.1999970336915,2|0,1:2|0:0,0:0:0:0:
0,224,63144,2,0,P|47:217|90:194,1,97.1999970336915,10|0,0:0|0:0,0:0:0:0:
186,78,63493,6,0,P|140:55|76:62,1,97.1999970336915,2|0,1:2|0:0,0:0:0:0:
259,157,63841,2,0,P|281:114|281:66,1,97.1999970336915,10|0,0:0|0:0,0:0:0:0:
177,215,64190,2,0,P|239:252|348:201,1,194.399994067383,2|8,1:2|0:0,0:0:0:0:
450,110,64713,5,2,0:0:0:0:
310,68,64888,2,0,P|264:92|218:105,1,97.1999970336915,6|2,1:2|0:0,0:0:0:0:
100,227,65237,1,10,0:0:0:0:
73,76,65411,5,2,0:0:0:0:
230,179,65586,2,0,P|212:248|202:289,1,97.1999970336915,2|2,1:2|0:0,0:0:0:0:
331,384,65934,2,0,P|319:336|306:289,1,97.1999970336915,10|2,0:0|0:0,0:0:0:0:
370,179,66283,1,2,1:2:0:0:
224,262,66458,1,2,0:0:0:0:
400,319,66632,1,10,0:0:0:0:
213,269,66807,6,0,L|183:171,1,97.1999970336915,2|0,0:0|1:2,0:0:0:0:
136,335,67155,1,2,0:0:0:0:
301,247,67330,2,0,P|295:303|253:344,1,97.1999970336915,8|2,0:0|0:0,0:0:0:0:
424,196,67679,6,0,P|375:184|331:154,1,97.1999970336915,14|0,2:2|1:0,0:0:0:0:
243,13,68027,5,10,0:0:0:0:
413,115,68202,1,2,1:2:0:0:
210,191,68376,5,10,0:2:0:0:
339,17,68551,1,2,1:2:0:0:
404,223,68725,1,10,0:0:0:0:
226,105,68900,6,0,P|175:87|68:185,1,194.399994067383,6|0,1:2|1:2,0:0:0:0:
106,353,69423,1,8,0:0:0:0:
210,191,69597,2,0,B|317:172|284:241|406:224,1,194.399994067383,6|0,1:2|1:2,0:0:0:0:
499,330,70120,1,8,0:0:0:0:
499,330,70295,1,0,1:2:0:0:
455,98,70469,6,0,L|358:138,1,97.1999970336915,6|2,1:2|0:0,0:0:0:0:
248,4,70818,2,0,L|337:41,1,97.1999970336915,10|2,0:0|0:0,0:0:0:0:
175,92,71167,2,0,P|133:139|5:111,1,194.399994067383,2|10,1:2|0:0,0:0:0:0:
159,226,71690,1,2,0:0:0:0:
88,45,71865,5,2,1:2:0:0:
0,209,72039,1,2,0:0:0:0:
175,92,72213,1,10,0:0:0:0:
204,294,72388,1,2,0:0:0:0:
51,145,72562,2,0,L|88:40,1,97.1999970336915,2|0,1:2|0:0,0:0:0:0:
244,164,72911,2,0,L|276:255,1,97.1999970336915,10|2,0:0|0:0,0:0:0:0:
376,144,73260,5,2,1:2:0:0:
228,65,73434,1,2,0:0:0:0:
352,246,73609,5,10,0:0:0:0:
434,65,73783,1,2,0:0:0:0:
254,185,73958,5,2,1:2:0:0:
334,23,74132,1,2,0:0:0:0:
476,162,74307,2,0,L|446:261,1,97.1999970336915,10|2,0:0|0:0,0:0:0:0:
376,144,74655,5,2,1:2:0:0:
376,144,74830,1,2,0:0:0:0:
484,339,75004,2,0,B|394:349|439:292|305:298,1,145.799995550537,10|0,0:0|0:0,0:0:0:0:
321,321,75353,1,2,1:2:0:0:
302,215,75527,1,0,0:0:0:0:
199,234,75702,1,10,0:3:0:0:
218,340,75876,1,4,0:3:0:0:
114,207,76051,6,0,P|136:161|252:165,1,162,6|2,1:2|1:2,0:0:0:0:
305,53,76574,1,2,1:2:0:0:
395,150,76748,2,0,L|347:317,1,162,10|2,0:0|1:2,0:0:0:0:
298,170,77272,1,2,1:2:0:0:
357,371,77446,5,10,0:0:0:0:
478,197,77620,1,0,1:2:0:0:
291,314,77795,5,10,0:0:0:0:
347,108,77969,1,2,1:2:0:0:
201,306,78144,5,10,0:0:0:0:
176,108,78318,1,8,0:3:0:0:
97,307,78493,5,10,0:0:0:0:
42,185,78667,1,6,0:3:0:0:
80,337,78841,6,0,B|168:294|151:358|245:325,1,162,6|2,1:2|1:2,0:0:0:0:
295,162,79365,1,2,0:0:0:0:
200,253,79539,1,0,1:2:0:0:
200,253,79626,1,0,1:2:0:0:
200,253,79713,2,0,L|179:197,1,48.5999985168458,8|8,0:0|0:0,0:0:0:0:
94,146,79888,1,10,1:2:0:0:
94,146,79975,1,8,0:0:0:0:
94,146,80062,2,0,L|73:202,1,48.5999985168458,10|8,0:0|0:0,0:0:0:0:
20,81,80237,6,0,P|77:49|172:104,1,145.799995550537,6|0,1:2|0:0,0:0:0:0:
184,89,80586,2,0,L|194:42,3,48.5999985168458,10|8|8|8,0:0|0:0|0:0|0:0,0:0:0:0:
290,132,80934,1,8,0:0:0:0:
379,11,81109,6,0,L|463:30,1,81,10|0,0:0|0:0,0:0:0:0:
478,44,81632,6,0,P|449:104|430:142,1,81,6|0,1:2|0:0,0:0:0:0:
290,132,81981,2,0,P|311:186|425:193,1,162,2|10,1:2|1:2,0:0:0:0:
316,47,82504,1,10,1:2:0:0:
225,230,82853,6,0,B|137:246|160:174|48:203,1,162,6|0,1:2|0:0,0:0:0:0:
226,74,83376,2,0,L|204:152,1,81,0|0,1:2|0:0,0:0:0:0:
97,274,83725,2,0,P|80:218|60:175,1,81,8|8,0:0|0:0,0:0:0:0:
42,180,83987,1,8,0:0:0:0:
42,180,84074,2,0,L|-2:172,1,40.5,8|8,0:3|0:3,0:0:0:0:
86,85,84248,2,0,L|130:77,1,40.5,4|4,0:3|0:3,0:0:0:0:
222,236,84423,5,14,1:2:0:0:
229,212,84510,1,8,0:0:0:0:
235,188,84597,1,8,0:0:0:0:
242,165,84684,1,8,0:0:0:0:
250,142,84772,2,0,L|186:163,1,40.5,8|8,0:0|0:0,0:0:0:0:
333,73,84946,6,0,L|343:33,5,40.5,14|8|8|8|8|8,1:2|0:0|0:0|0:0|0:0|0:0,0:0:0:0:
411,156,85469,5,14,1:2:0:0:
418,180,85556,1,8,0:0:0:0:
424,204,85643,1,8,0:0:0:0:
431,227,85730,1,8,0:0:0:0:
439,250,85818,2,0,L|375:229,1,40.5,8|8,0:0|0:0,0:0:0:0:
321,343,85993,6,0,L|374:326,5,40.5,14|8|8|8|8|8,1:2|0:0|0:0|0:0|0:0|0:0,0:0:0:0:
234,309,86516,5,10,1:2:0:0:
440,357,86690,1,10,1:2:0:0:
322,194,87039,1,6,1:2:0:0:
256,192,87126,12,0,88609,0:0:0:0:
