osu file format v14

[General]
AudioFilename: audio.mp3
AudioLeadIn: 0
PreviewTime: 58216
Countdown: 0
SampleSet: Soft
StackLeniency: 0.6
Mode: 0
LetterboxInBreaks: 0
WidescreenStoryboard: 1

[Editor]
Bookmarks: 16748,59307,70469,81632
DistanceSpacing: 1
BeatDivisor: 4
GridSize: 32
TimelineZoom: 1.5

[Metadata]
Title:Omoide Shiritori (TV Size)
TitleUnicode:おもいでしりとり (TV Size)
Artist:DIALOGUE+
ArtistUnicode:DIALOGUE+
Creator:-karUpA-
Version:Hard
Source:ひげを剃る。そして女子高生を拾う。
Tags:shirokumocha soue Kumocha Yuuma2 Yuuma nisinYAKUZA Hige wo Soru Soshite Joshikousei wo Hirou I Shaved Then I Brought a High School Girl Home Higehiro Japanese TV Anime Opening 1 1st First Female Vocals j pop jpop j-pop
BeatmapID:3328032
BeatmapSetID:1624315

[Difficulty]
HPDrainRate:4.5
CircleSize:3.8
OverallDifficulty:6
ApproachRate:8
SliderMultiplier:1.34
SliderTickRate:1

[Events]
//Background and Video events
Video,0,"video.mp4"
0,0,"sayu4.png",0,0
//Break Periods
2,53925,55068
//Storyboard Layer 0 (Background)
//Storyboard Layer 1 (Fail)
//Storyboard Layer 2 (Pass)
//Storyboard Layer 3 (Foreground)
//Storyboard Layer 4 (Overlay)
//Storyboard Sound Samples

[TimingPoints]
-693,348.837209302326,4,2,1,50,1,0
702,-125,4,2,1,50,0,0
2097,-125,4,2,1,60,0,0
6283,-111.111111111111,4,2,1,65,0,0
7679,-111.111111111111,4,2,1,70,0,0
11865,-99.9999999999999,4,2,1,70,0,0
14307,-99.9999999999999,4,2,1,70,0,0
14481,-99.9999999999999,4,2,1,70,0,0
24423,-142.857142857143,4,2,1,60,0,0
25818,-125,4,2,1,50,0,0
35586,-153.846153846154,4,2,1,50,0,0
36283,-111.111111111111,4,2,1,50,0,0
36981,-113.636363636364,4,2,1,60,0,0
42562,-113.636363636364,4,2,1,65,0,0
43173,-113.636363636364,4,2,1,5,0,0
43260,-113.636363636364,4,2,1,65,0,0
44568,-113.636363636364,4,2,1,5,0,0
44655,-113.636363636364,4,2,1,65,0,0
46748,-113.636363636364,4,2,1,60,0,0
47620,-125,4,2,1,60,0,0
48144,-147.058823529412,4,2,1,55,0,0
53725,-125,4,2,1,55,0,0
55818,-125,4,2,1,60,0,0
56516,-125,4,2,1,65,0,0
57213,-125,4,2,1,70,0,0
57911,-125,4,2,1,75,0,0
58609,-100,4,2,1,75,0,0
59307,-100,4,2,1,80,0,1
70469,-100,4,2,1,80,0,1
75353,-100,4,2,1,80,0,1
76051,-100,4,2,1,80,0,1
77446,-100,4,2,1,80,0,1
78841,-100,4,2,1,70,0,1
79539,-100,4,2,1,80,0,1
80237,-100,4,2,1,80,0,1
80498,-100,4,2,1,5,0,1
80586,-100,4,2,1,80,0,1
81109,-166.666666666667,4,2,1,80,0,1
81545,-166.666666666667,4,2,1,5,0,1
81632,-100,4,2,1,70,0,0
87039,-100,4,2,1,70,0,0
87911,-100,4,2,1,50,0,0
88609,-100,4,2,1,30,0,0

[Colours]
Combo1 : 0,255,64
Combo2 : 255,255,0
Combo3 : 255,128,128
Combo4 : 128,128,255

[HitObjects]
429,326,527,6,0,L|464:309,2,33.5,2|2|2,0:0|0:0|0:0,0:0:0:0:
357,277,876,1,0,0:0:0:0:
423,227,1051,2,0,L|408:151,1,53.6
328,145,1400,2,0,L|338:197,1,53.6,2|0,0:0|0:0,0:0:0:0:
269,247,1748,2,0,L|254:171,1,53.6
183,153,2097,6,0,P|158:176|123:182,1,53.6,2|2,0:0|0:0,0:0:0:0:
47,165,2446,2,0,P|30:108|24:98,1,53.6,2|2,0:0|0:0,0:0:0:0:
82,36,2795,2,0,P|122:14|188:41,1,107.2,2|2,0:0|0:0,0:0:0:0:
245,94,3318,1,2,0:0:0:0:
245,94,3493,6,0,L|268:31,2,53.6,2|2|2,0:0|0:0|0:0,0:0:0:0:
173,148,4016,1,2,0:0:0:0:
239,201,4190,2,0,B|311:197|276:157|355:166,1,107.2,2|2,0:0|0:0,0:0:0:0:
429,274,4888,6,0,P|396:247|325:265,1,107.2,2|0,1:2|0:0,0:0:0:0:
309,339,5411,1,2,0:0:0:0:
309,339,5586,2,0,P|258:350|215:320,1,107.2,2|2,0:0|0:0,0:0:0:0:
150,206,6283,6,0,L|161:179,2,30.149999079895,10|8|8,0:0|0:0|0:0,0:0:0:0:
124,288,6632,2,0,P|92:294|64:304,1,60.2999981597901,10|0,0:3|1:2,0:0:0:0:
0,250,6981,1,10,0:0:0:0:
0,250,7155,1,8,0:3:0:0:
68,199,7330,1,2,1:2:0:0:
68,199,7504,1,6,0:3:0:0:
1,138,7679,6,0,P|35:97|165:112,1,180.89999447937,6|2,1:2|0:0,0:0:0:0:
230,152,8376,2,0,P|315:170|382:115,1,180.89999447937,6|2,1:2|0:0,0:0:0:0:
460,46,9074,5,14,0:0:0:0:
460,46,9248,1,0,1:2:0:0:
507,126,9423,2,0,L|481:192,1,60.2999981597901,10|2,0:0|1:2,0:0:0:0:
425,247,9772,2,0,P|395:237|359:233,1,60.2999981597901,14|0,0:0|0:0,0:0:0:0:
299,291,10120,2,0,P|270:299|240:304,1,60.2999981597901,10|6,0:3|0:3,0:0:0:0:
186,235,10469,6,0,B|107:231|143:285|63:273,1,120.59999631958,14|2,0:0|1:2,0:0:0:0:
13,212,10993,1,2,1:2:0:0:
13,212,11167,2,0,L|24:144,1,60.2999981597901,2|0,1:2|1:2,0:0:0:0:
109,114,11516,2,0,L|99:173,1,60.2999981597901,2|2,1:2|1:2,0:0:0:0:
173,230,11865,6,0,L|214:217,3,33.5,14|8|8|8,0:0|0:0|0:0|0:0,0:0:0:0:
231,198,12213,2,0,L|272:211,3,33.5,10|8|4|4,0:3|0:3|0:3|0:3,0:0:0:0:
297,225,12562,1,10,0:0:0:0:
297,225,12737,1,8,0:0:0:0:
438,232,14132,5,2,0:0:0:0:
296,152,14481,1,8,0:0:0:0:
296,152,14568,1,8,0:0:0:0:
296,152,14655,2,0,P|308:105|316:83,1,67,6|0,1:2|0:0,0:0:0:0:
246,28,15004,2,0,P|235:59|227:92,1,67,2|0,1:2|0:0,0:0:0:0:
209,179,15353,1,10,1:2:0:0:
209,179,15527,1,10,1:2:0:0:
75,51,15876,6,0,B|50:145|105:107|87:206,1,134,6|0,1:2|0:0,0:0:0:0:
28,246,16400,2,0,L|52:319,1,67,0|0,1:2|0:0,0:0:0:0:
118,365,16748,2,0,P|140:351|157:347,3,33.5,8|8|8|8,0:0|0:0|0:0|0:0,0:0:0:0:
186,328,17097,2,0,P|199:337|214:344,3,33.5,8|8|4|4,0:3|0:3|0:3|0:3,0:0:0:0:
263,366,17446,6,0,L|291:291,1,67,6|0,1:2|0:0,0:0:0:0:
355,243,17795,2,0,L|327:168,1,67,2|0,1:2|0:0,0:0:0:0:
304,97,18144,1,10,1:2:0:0:
304,97,18318,1,10,1:2:0:0:
433,214,18667,6,0,P|448:265|365:312,1,134,6|2,1:2|0:0,0:0:0:0:
323,369,19190,2,0,P|279:349|238:335,1,67,2|2,1:2|1:2,0:0:0:0:
188,291,19539,2,0,L|202:239,3,33.5,8|8|8|8,0:0|0:0|0:0|0:0,0:0:0:0:
234,222,19888,2,0,L|220:170,3,33.5,8|8|4|4,0:3|0:3|0:3|0:3,0:0:0:0:
208,143,20237,6,0,P|179:112|96:126,1,134,14|8,1:2|0:0,0:0:0:0:
24,186,20760,2,0,L|47:328,1,134,14|8,1:2|0:0,0:0:0:0:
117,378,21283,6,0,B|138:369|156:365|156:365|180:334|180:334|204:334|232:322,1,134,14|8,1:2|0:0,0:0:0:0:
312,276,21807,2,0,B|349:298|354:328|354:328|370:301|432:293,1,134,14|8,1:2|0:0,0:0:0:0:
503,359,22330,1,10,1:2:0:0:
503,359,22504,1,10,1:2:0:0:
512,171,22853,6,0,P|491:127|402:122,1,134,6|0,1:2|1:2,0:0:0:0:
347,175,23376,2,0,P|306:183|265:164,1,67,8|0,0:0|0:0,0:0:0:0:
220,119,23725,2,0,P|187:111|155:120,1,67,0|0,1:2|0:0,0:0:0:0:
79,78,24074,1,8,0:0:0:0:
4,235,24423,6,0,P|34:190|117:197,1,140.699995706177,6|2,1:2|0:0,0:0:0:0:
77,275,25120,2,0,P|104:310|156:309,1,93.7999971374513,2|2,0:0|0:0,0:0:0:0:
299,369,25818,6,0,P|315:310|329:253,1,107.2,2|0,1:2|0:0,0:0:0:0:
421,136,26516,2,0,P|437:195|451:252,1,107.2,2|0,0:0|0:0,0:0:0:0:
411,323,27039,1,2,1:2:0:0:
411,323,27213,6,0,P|363:313|351:311,1,53.6,2|2,1:2|0:0,0:0:0:0:
296,363,27562,2,0,P|248:373|236:375,1,53.6,2|0,0:0|0:0,0:0:0:0:
162,336,27911,2,0,B|136:268|188:283|172:213,1,107.2,2|0,0:0|0:0,0:0:0:0:
112,172,28434,1,2,0:0:0:0:
112,172,28609,6,0,P|94:202|6:202,1,107.2,2|2,1:2|0:0,0:0:0:0:
114,57,29307,2,0,P|166:59|198:100,1,107.2,2|2,0:0|0:0,0:0:0:0:
236,173,29830,1,0,1:2:0:0:
236,173,30004,6,0,P|268:213|320:216,1,107.2,2|2,1:2|0:0,0:0:0:0:
442,109,30702,2,0,P|420:169|406:236,1,107.2,2|0,0:0|0:0,0:0:0:0:
463,289,31225,1,2,0:0:0:0:
463,289,31400,6,0,P|427:328|372:332,1,107.2,2|2,1:2|0:0,0:0:0:0:
244,275,32097,2,0,P|279:236|331:230,1,107.2,2|0,0:0|0:0,0:0:0:0:
391,162,32620,1,2,1:2:0:0:
391,162,32795,6,0,P|376:62|377:46,1,107.2,2|2,1:2|0:0,0:0:0:0:
235,3,33493,2,0,P|232:56|220:108,1,107.2,2|0,0:0|0:0,0:0:0:0:
145,164,34016,1,2,0:0:0:0:
145,164,34190,6,0,P|117:130|48:118,1,107.2,2|2,1:2|0:0,0:0:0:0:
136,259,34888,2,0,P|187:249|223:211,1,107.2,2|2,0:0|0:0,0:0:0:0:
237,348,35586,5,2,0:0:0:0:
489,303,36283,6,0,P|479:263|472:228,1,60.2999981597901,2|0,1:2|1:2,0:0:0:0:
493,214,36545,1,8,0:0:0:0:
493,214,36632,2,0,P|503:174|510:139,1,60.2999981597901,8|4,0:0|0:3,0:0:0:0:
467,63,36981,6,0,B|395:73|421:28|346:44,1,117.920003598633,6|8,1:2|0:0,0:0:0:0:
288,118,37504,1,2,0:0:0:0:
288,118,37679,1,2,1:2:0:0:
227,43,37853,2,0,B|203:68|181:98|181:98|154:86|118:83,1,117.920003598633,0|10,1:2|0:0,0:0:0:0:
51,54,38376,6,0,L|67:132,1,58.9600017993165,2|2,0:0|1:2,0:0:0:0:
131,172,38725,2,0,L|115:250,1,58.9600017993165,10|0,0:0|0:0,0:0:0:0:
49,283,39074,2,0,P|151:323|165:315,1,117.920003598633,2|8,1:2|0:0,0:0:0:0:
225,262,39597,1,2,0:0:0:0:
295,337,39772,6,0,P|322:323|416:314,2,117.920003598633,2|10|2,1:2|0:0|1:2,0:0:0:0:
212,384,40644,1,0,1:2:0:0:
212,384,40818,1,10,0:0:0:0:
118,271,41167,6,0,L|128:198,1,58.9600017993165,2|0,1:2|1:2,0:0:0:0:
47,167,41516,2,0,P|101:173|143:121,1,117.920003598633,10|2,0:0|1:2,0:0:0:0:
234,164,42039,1,0,1:2:0:0:
234,164,42213,2,0,L|299:142,1,58.9600017993165,10|2,0:0|1:2,0:0:0:0:
341,58,42562,5,6,1:2:0:0:
341,58,42737,1,0,1:2:0:0:
424,118,42911,2,0,L|402:208,1,88.4400026989747,10|0,1:0|0:0,0:0:0:0:
402,241,43260,2,0,P|363:254|343:265,1,58.9600017993165,2|2,1:2|1:2,0:0:0:0:
272,323,43609,2,0,P|245:310|217:301,1,58.9600017993165,10|0,1:0|0:0,0:0:0:0:
123,271,43958,5,2,1:2:0:0:
123,271,44132,1,0,1:2:0:0:
199,207,44307,2,0,P|188:155|183:114,1,88.4400026989747,10|0,1:0|0:0,0:0:0:0:
172,89,44655,2,0,P|138:110|111:106,1,58.9600017993165,2|2,1:2|1:2,0:0:0:0:
26,44,45004,2,0,L|40:107,1,58.9600017993165,10|0,1:0|0:0,0:0:0:0:
57,192,45353,6,0,B|45:250|45:250|53:276|53:276|47:314,1,117.920003598633,2|10,1:2|0:0,0:0:0:0:
104,384,45876,1,0,0:0:0:0:
169,317,46051,2,0,B|238:294|225:350|296:331,1,117.920003598633,2|10,1:2|0:0,0:0:0:0:
393,221,46748,6,0,L|258:250,1,117.920003598633,6|2,1:2|0:0,0:0:0:0:
191,197,47272,1,2,0:0:0:0:
261,136,47446,1,10,0:0:0:0:
261,136,47620,2,0,B|329:123|312:156|381:145,1,107.2,12|2,1:2|1:2,0:0:0:0:
423,78,48144,6,0,P|434:42|444:22,2,45.5600002780762,6|2|2,1:2|0:0|0:0,0:0:0:0:
475,157,48667,1,2,1:2:0:0:
475,157,48841,2,0,B|450:249|500:213|481:299,1,136.680000834229,10|0,0:0|0:0,0:0:0:0:
420,361,49539,5,2,1:2:0:0:
420,361,49713,2,0,P|389:323|331:321,1,91.1200005561523,8|0,0:0|1:2,0:0:0:0:
277,367,50237,2,0,L|265:304,1,45.5600002780762,10|0,0:0|0:0,0:0:0:0:
206,259,50586,2,0,L|218:196,1,45.5600002780762,2|2,0:0|1:2,0:0:0:0:
286,157,50934,6,0,P|320:166|342:170,2,45.5600002780762,4|2|2,1:2|0:0|0:0,0:0:0:0:
219,98,51458,1,0,1:2:0:0:
219,98,51545,1,2,0:0:0:0:
219,98,51632,2,0,P|189:66|101:96,1,136.680000834229,10|0,0:0|1:2,0:0:0:0:
31,138,52330,5,10,0:0:0:0:
31,138,52504,2,0,L|47:245,1,91.1200005561523,8|0,0:0|1:2,0:0:0:0:
11,313,53027,2,0,P|46:323|66:332,1,45.5600002780762,10|0,0:0|0:0,0:0:0:0:
124,274,53376,2,0,P|159:264|179:255,1,45.5600002780762,2|2,1:2|1:2,0:0:0:0:
248,309,53725,5,6,1:2:0:0:
62,96,55818,6,0,L|50:40,2,53.6,10|2|10,0:0|1:2|0:3,0:0:0:0:
0,161,56341,1,4,0:3:0:0:
69,221,56516,6,0,P|101:206|125:205,1,53.6,6|0,1:2|0:0,0:0:0:0:
180,281,56865,1,0,1:2:0:0:
180,281,57039,1,0,1:2:0:0:
242,202,57213,1,0,1:2:0:0:
288,292,57388,1,0,1:2:0:0:
336,211,57562,2,0,L|330:171,3,26.8,8|8|4|4,0:3|0:3|0:3|0:3,0:0:0:0:
358,144,57911,5,10,0:0:0:0:
261,93,58086,1,10,0:0:0:0:
447,205,58609,6,0,L|428:279,1,67,6|8,1:2|0:0,0:0:0:0:
412,297,58870,1,8,0:0:0:0:
412,297,58958,2,0,L|361:308,3,33.5,10|8|8|8,0:0|0:0|0:0|0:0,0:0:0:0:
354,327,59307,6,0,L|283:296,1,67,6|2,1:2|0:0,0:0:0:0:
209,244,59655,2,0,L|147:270,1,67,10|2,0:0|0:0,0:0:0:0:
66,324,60004,2,0,B|50:278|50:278|65:246|65:246|44:172,1,134,2|10,1:2|0:0,0:0:0:0:
0,115,60527,1,2,0:0:0:0:
82,65,60702,6,0,L|96:-1,2,67,2|2|10,1:2|0:0|0:0,0:0:0:0:
142,148,61225,1,2,0:0:0:0:
202,60,61400,2,0,B|288:37|261:96|345:82,1,134,2|10,1:2|0:0,0:0:0:0:
413,151,61923,1,2,0:0:0:0:
413,151,62097,6,0,L|388:295,1,134,2|8,1:2|0:0,0:0:0:0:
310,351,62620,1,2,0:0:0:0:
310,351,62795,2,0,P|243:348|211:282,1,134,2|10,1:2|0:0,0:0:0:0:
84,194,63493,6,0,L|101:114,1,67,2|0,1:2|0:0,0:0:0:0:
195,82,63841,2,0,L|181:147,1,67,10|0,0:0|0:0,0:0:0:0:
253,218,64190,2,0,B|340:218|293:169|391:174,1,134,2|8,1:2|0:0,0:0:0:0:
419,84,64713,5,2,0:0:0:0:
419,84,64888,2,0,L|441:10,2,67,6|2|10,1:2|0:0|0:0,0:0:0:0:
488,153,65411,5,2,0:0:0:0:
420,233,65586,1,2,1:2:0:0:
327,186,65760,1,2,0:0:0:0:
330,90,65934,2,0,P|282:111|260:117,1,67,10|2,0:0|0:0,0:0:0:0:
194,46,66283,2,0,P|163:31|132:20,1,67,2|2,1:2|0:0,0:0:0:0:
47,75,66632,1,10,0:0:0:0:
123,133,66807,6,0,P|108:191|90:273,1,134,2|2,0:0|0:0,0:0:0:0:
153,336,67330,2,0,P|181:361|234:347,1,67,8|2,0:0|0:0,0:0:0:0:
290,298,67679,6,0,L|269:211,1,67,14|0,2:2|1:0,0:0:0:0:
197,153,68027,1,10,0:0:0:0:
270,67,68202,1,2,1:2:0:0:
344,139,68376,2,0,P|393:158|419:163,1,67,10|2,0:2|1:2,0:0:0:0:
467,240,68725,1,10,0:0:0:0:
467,240,68900,6,0,P|442:314|386:328,1,134,6|0,1:2|1:2,0:0:0:0:
307,264,69423,1,8,0:0:0:0:
274,359,69597,2,0,B|183:366|226:321|138:328,1,134,6|0,1:2|1:2,0:0:0:0:
64,373,70120,1,8,0:0:0:0:
10,211,70469,6,0,L|30:139,1,67,6|2,1:2|0:0,0:0:0:0:
82,74,70818,2,0,P|115:97|171:101,1,67,10|2,0:0|0:0,0:0:0:0:
215,38,71167,2,0,B|301:27|263:80|361:69,1,134,2|10,1:2|0:0,0:0:0:0:
429,139,71690,1,2,0:0:0:0:
329,187,71865,6,0,P|289:199|257:205,2,67,2|2|10,1:2|0:0|0:0,0:0:0:0:
410,254,72388,1,2,0:0:0:0:
410,254,72562,2,0,P|393:314|303:329,1,134,2|10,1:2|0:0,0:0:0:0:
262,267,73086,1,2,0:0:0:0:
210,357,73260,5,2,1:2:0:0:
126,303,73434,1,2,0:0:0:0:
145,209,73609,1,10,0:0:0:0:
73,143,73783,1,2,0:0:0:0:
18,221,73958,2,0,L|33:291,1,67,2|2,1:2|0:0,0:0:0:0:
100,350,74307,2,0,P|152:337|179:338,1,67,10|2,0:0|0:0,0:0:0:0:
230,268,74655,6,0,P|263:265|295:254,1,67,2|2,1:2|0:0,0:0:0:0:
366,311,75004,1,10,0:0:0:0:
481,229,75353,2,0,P|484:168|414:124,1,134,2|10,1:2|0:3,0:0:0:0:
369,37,75876,1,4,0:3:0:0:
316,113,76051,6,0,B|236:120|260:73|172:77,1,134,6|2,1:2|1:2,0:0:0:0:
110,15,76574,1,2,1:2:0:0:
54,101,76748,2,0,B|40:162|40:162|55:193|55:193|41:254,1,134,10|2,0:0|1:2,0:0:0:0:
95,328,77272,1,2,1:2:0:0:
181,276,77446,5,10,0:0:0:0:
249,347,77620,1,0,1:2:0:0:
321,274,77795,2,0,P|368:296|393:306,1,67,10|2,0:0|1:2,0:0:0:0:
465,243,78144,2,0,P|434:229|404:215,1,67,10|8,0:0|0:3,0:0:0:0:
466,129,78493,1,10,0:0:0:0:
466,129,78667,1,6,0:3:0:0:
361,126,78841,6,0,B|276:126|318:84|208:89,1,134,6|2,1:2|1:2,0:0:0:0:
153,149,79365,1,2,0:0:0:0:
233,207,79539,2,0,L|214:262,3,33.5,0|0|8|8,1:2|1:2|0:0|0:0,0:0:0:0:
234,270,79888,2,0,L|253:325,3,33.5,10|8|10|8,1:2|0:0|0:0|0:0,0:0:0:0:
235,334,80237,5,6,1:2:0:0:
105,294,80586,6,0,P|61:304|52:306,3,33.5,10|8|8|8,0:0|0:0|0:0|0:0,0:0:0:0:
47,324,80934,1,8,0:0:0:0:
1,230,81109,6,0,L|105:205,1,100.499996932983,10|0,0:0|0:0,0:0:0:0:
122,183,81632,6,0,P|110:145|107:105,1,67,6|0,1:2|0:0,0:0:0:0:
179,47,81981,2,0,P|183:80|194:111,1,67,2|0,1:2|0:0,0:0:0:0:
261,178,82330,1,10,1:2:0:0:
261,178,82504,1,10,1:2:0:0:
343,63,82853,6,0,P|385:75|397:173,1,134,6|0,1:2|0:0,0:0:0:0:
489,215,83376,2,0,P|455:234|427:250,1,67,0|0,1:2|0:0,0:0:0:0:
368,326,83725,2,0,P|334:306|297:299,1,67,8|8,0:0|0:0,0:0:0:0:
276,311,83987,1,8,0:0:0:0:
276,311,84074,2,0,L|239:328,3,33.5,8|8|4|4,0:3|0:3|0:3|0:3,0:0:0:0:
228,360,84423,6,0,P|179:382|110:334,1,134,14|8,1:2|0:0,0:0:0:0:
42,276,84946,2,0,B|48:246|50:222|50:222|82:197|82:197|86:172|90:155,1,134,14|8,1:2|0:0,0:0:0:0:
139,77,85469,6,0,B|181:89|186:123|186:123|200:96|251:91,1,134,14|8,1:2|0:0,0:0:0:0:
327,139,85993,2,0,B|305:218|362:201|334:288,1,134,14|8,1:2|0:0,0:0:0:0:
248,245,86516,1,10,1:2:0:0:
248,245,86690,1,10,1:2:0:0:
405,166,87039,1,6,1:2:0:0:
256,192,87213,12,0,88609,0:0:0:0:
