osu file format v14

[General]
AudioFilename: audio.mp3
AudioLeadIn: 0
PreviewTime: 58165
Countdown: 0
SampleSet: Soft
StackLeniency: 0.7
Mode: 0
LetterboxInBreaks: 0
WidescreenStoryboard: 0

[Editor]
Bookmarks: 7715,14692,20259,25855,37018,48180,59343,70491,81654,84459,87061,88631
DistanceSpacing: 1
BeatDivisor: 4
GridSize: 4
TimelineZoom: 1.5

[Metadata]
Title:Omoide Shiritori (TV Size)
TitleUnicode:おもいでしりとり (TV Size)
Artist:DIALOGUE+
ArtistUnicode:DIALOGUE+
Creator:Airiesu
Version:Sayu
Source:ひげを剃る。そして女子高生を拾う。
Tags:I Shaved Then I Brought Kibbleru Home Higehiro Hige wo Soru Soshite Joshikousei wo Hirou anime japanese pop jpop j-pop idol group opening op 荻原 沙優 ogiwara sayu a High School Girl
BeatmapID:2932817
BeatmapSetID:1424129

[Difficulty]
HPDrainRate:6
CircleSize:4
OverallDifficulty:9
ApproachRate:9.3
SliderMultiplier:1.7
SliderTickRate:1

[Events]
//Background and Video events
Video,0,"HigehiroE.mp4"
0,0,"sayubgbest.jpg",0,0
//Break Periods
//Storyboard Layer 0 (Background)
//Storyboard Layer 1 (Fail)
//Storyboard Layer 2 (Pass)
//Storyboard Layer 3 (Foreground)
//Storyboard Layer 4 (Overlay)
//Storyboard Sound Samples

[TimingPoints]
-700,348.837209302326,4,2,1,40,1,0
2439,-133.333333333333,4,2,1,40,0,0
6363,-133.333333333333,4,2,1,30,0,0
6451,-133.333333333333,4,2,1,60,0,0
7672,-100,4,2,20,70,0,0
7758,-100,4,2,20,70,0,0
8020,-100,4,2,1,70,0,0
14125,-100,4,2,3,70,0,0
14474,-100,4,2,1,70,0,0
14648,-90.9090909090909,4,2,20,70,0,0
14909,-90.9090909090909,4,2,20,5,0,0
14997,-90.9090909090909,4,2,1,70,0,0
15258,-90.9090909090909,4,2,1,5,0,0
15346,-90.9090909090909,4,2,1,70,0,0
17700,-90.9090909090909,4,2,1,5,0,0
17788,-90.9090909090909,4,2,1,70,0,0
18049,-90.9090909090909,4,2,1,5,0,0
18137,-90.9090909090909,4,2,1,70,0,0
22846,-100,4,2,1,70,0,0
25811,-133.333333333333,4,2,20,40,0,0
25898,-133.333333333333,4,2,20,40,0,0
26334,-133.333333333333,4,2,2,40,0,0
31654,-133.333333333333,4,2,2,5,0,0
31741,-133.333333333333,4,2,2,40,0,0
33049,-133.333333333333,4,2,2,5,0,0
33137,-133.333333333333,4,2,2,40,0,0
36276,-133.333333333333,4,2,2,70,0,0
36538,-133.333333333333,4,2,1,70,0,0
36625,-200,4,2,1,70,0,0
36886,-200,4,2,1,5,0,0
36974,-100,4,2,20,60,0,0
37060,-100,4,2,20,60,0,0
37323,-100,4,2,1,60,0,0
42555,-133.333333333333,4,2,1,60,0,0
42816,-133.333333333333,4,2,1,5,0,0
42904,-100,4,2,1,60,0,0
43951,-133.333333333333,4,2,1,60,0,0
44212,-133.333333333333,4,2,1,5,0,0
44300,-100,4,2,1,60,0,0
44997,-133.333333333333,4,2,1,60,0,0
45258,-133.333333333333,4,2,1,5,0,0
45346,-100,4,2,1,60,0,0
46393,-133.333333333333,4,2,1,60,0,0
46654,-133.333333333333,4,2,1,5,0,0
46741,-166.666666666667,4,2,1,60,0,0
47351,-166.666666666667,4,2,1,5,0,0
47439,-166.666666666667,4,2,1,60,0,0
48137,-111.111111111111,4,2,20,60,0,0
48223,-111.111111111111,4,2,20,60,0,0
48311,-111.111111111111,4,2,1,60,0,0
48834,-90.9090909090909,4,2,1,60,0,0
49095,-90.9090909090909,4,2,1,5,0,0
49183,-111.111111111111,4,2,1,60,0,0
50230,-90.9090909090909,4,2,1,60,0,0
50491,-90.9090909090909,4,2,1,5,0,0
50579,-90.9090909090909,4,2,1,60,0,0
51276,-111.111111111111,4,2,1,60,0,0
51625,-90.9090909090909,4,2,1,60,0,0
51886,-90.9090909090909,4,2,1,5,0,0
51974,-111.111111111111,4,2,1,60,0,0
53020,-90.9090909090909,4,2,1,60,0,0
53281,-90.9090909090909,4,2,1,5,0,0
53369,-90.9090909090909,4,2,1,60,0,0
53718,-133.333333333333,4,2,1,60,0,0
55026,-133.333333333333,4,2,1,5,0,0
55113,-133.333333333333,4,2,1,60,0,0
55723,-133.333333333333,4,2,1,5,0,0
55811,-133.333333333333,4,2,1,60,0,0
56509,-133.333333333333,4,2,1,50,0,0
56683,-133.333333333333,4,2,1,55,0,0
56858,-133.333333333333,4,2,1,60,0,0
57032,-133.333333333333,4,2,1,65,0,0
57206,-133.333333333333,4,2,1,70,0,0
57381,-133.333333333333,4,2,1,75,0,0
57555,-100,4,2,1,80,0,0
57730,-100,4,2,1,85,0,0
57904,-100,4,2,1,90,0,0
58602,-100,4,2,1,70,0,0
59300,-100,4,2,20,90,0,1
59474,-100,4,2,1,90,0,1
59997,-83.3333333333333,4,2,1,90,0,1
62351,-83.3333333333333,4,2,1,5,0,1
62439,-83.3333333333333,4,2,1,90,0,1
63049,-83.3333333333333,4,2,1,5,0,1
63137,-83.3333333333333,4,2,1,90,0,1
76044,-100,4,2,1,80,0,0
78834,-90.9090909090909,4,2,1,50,0,1
79183,-90.9090909090909,4,2,1,60,0,1
79532,-90.9090909090909,4,2,1,70,0,1
79881,-90.9090909090909,4,2,1,80,0,1
80230,-90.9090909090909,4,2,1,90,0,0
80579,-90.9090909090909,4,2,1,90,0,1
81102,-90.9090909090909,4,2,1,90,0,0
81625,-90.9090909090909,4,2,20,70,0,0
81886,-90.9090909090909,4,2,20,5,0,0
81974,-90.9090909090909,4,2,1,70,0,0
82235,-90.9090909090909,4,2,1,5,0,0
82323,-90.9090909090909,4,2,1,70,0,0
87032,-133.333333333333,4,2,1,70,0,0
88601,-133.333333333333,4,2,1,5,0,0

[Colours]
Combo1 : 148,116,119
Combo2 : 246,246,186
Combo3 : 170,166,79
Combo4 : 125,96,92
Combo5 : 225,204,115
Combo6 : 126,143,171
Combo7 : 193,79,79
Combo8 : 186,188,91

[HitObjects]
93,194,2090,5,2,2:0:0:0:
93,194,2265,1,2,2:0:0:0:
198,263,2439,2,0,P|190:220|181:188,1,63.7500000000002,2|2,2:0|2:0,0:0:0:0:
147,98,2788,2,0,B|222:81|202:125|290:102,1,127.5,2|2,2:0|2:0,0:0:0:0:
352,192,3311,1,2,2:0:0:0:
436,76,3486,5,2,2:0:0:0:
368,28,3660,1,2,2:0:0:0:
441,165,3834,1,2,2:0:0:0:
509,117,4009,1,2,2:0:0:0:
367,204,4183,2,0,B|358:272|401:256|381:346,1,127.5,2|2,2:0|2:0,0:0:0:0:
303,303,4706,1,2,2:0:0:0:
449,217,4881,6,0,P|477:163|445:111,1,127.5,2|0,2:0|0:0,0:0:0:0:
338,128,5404,1,2,2:0:0:0:
338,128,5579,2,0,P|285:133|195:152,1,127.5,2|2,2:0|2:0,0:0:0:0:
315,291,6276,5,2,2:0:0:0:
315,291,6363,1,8,2:0:0:0:
315,291,6451,1,8,2:0:0:0:
373,108,6625,1,2,3:2:0:0:
437,222,6800,1,0,3:2:0:0:
292,35,6974,1,10,2:0:0:0:
481,148,7148,1,4,3:0:0:0:
273,194,7323,5,2,3:2:0:0:
456,0,7497,1,2,3:2:0:0:
208,123,7672,6,0,B|168:148|122:126|132:106|79:84|36:114,1,170,6|2,3:2|2:0,0:0:0:0:
234,111,8195,1,2,2:0:0:0:
127,0,8369,2,0,L|127:182,1,170,6|2,3:2|2:0,0:0:0:0:
126,308,8893,1,2,2:0:0:0:
1,145,9067,5,10,2:0:0:0:
221,239,9241,1,0,3:2:0:0:
10,360,9416,1,10,2:0:0:0:
157,128,9590,1,0,3:2:0:0:
334,311,9765,2,0,B|421:351|421:351|470:342|473:282,1,170,10|2,2:0|3:2,0:0:0:0:
408,215,10288,1,2,3:2:0:0:
212,362,10462,5,6,3:2:0:0:
212,362,10811,5,2,3:2:0:0:
181,239,10986,1,2,3:2:0:0:
298,291,11160,1,10,3:2:0:0:
104,347,11334,1,8,3:2:0:0:
265,157,11509,1,10,3:2:0:0:
374,365,11683,1,10,2:0:0:0:
147,101,11858,5,6,3:2:0:0:
386,218,12032,2,0,P|418:219|443:209,1,42.5,8|8,2:0|2:0,0:0:0:0:
469,65,12206,1,10,3:2:0:0:
447,28,12294,1,8,2:0:0:0:
411,7,12381,1,8,2:0:0:0:
369,6,12468,1,8,2:0:0:0:
332,25,12555,6,0,L|336:86,1,42.5,10|0,2:0|0:0,0:0:0:0:
364,384,12730,1,10,2:0:0:0:
374,365,14125,5,2,2:0:0:0:
145,96,14474,2,0,L|131:149,1,42.5,8|8,2:0|2:0,0:0:0:0:
46,251,14648,6,0,B|16:261|10:230|41:211|75:218|115:236|139:299,1,140.25,6|0,3:2|0:0,0:0:0:0:
188,361,14997,2,0,P|211:306|292:338,1,140.25,10|0,3:2|0:0,0:0:0:0:
349,361,15346,1,10,2:0:0:0:
252,105,15520,2,0,P|217:93|149:74,1,93.5,10|0,2:0|3:2,0:0:0:0:
417,262,15869,6,0,P|467:232|424:120,1,187,6|2,3:2|2:0,0:0:0:0:
239,226,16393,1,10,3:2:0:0:
372,47,16567,1,2,2:0:0:0:
151,97,16741,1,10,3:2:0:0:
128,123,16829,1,8,2:0:0:0:
95,134,16916,1,8,2:0:0:0:
61,129,17003,1,8,2:0:0:0:
33,107,17090,1,0,3:2:0:0:
35,119,17177,1,4,3:0:0:0:
36,131,17265,1,0,3:2:0:0:
37,142,17352,1,8,3:0:0:0:
38,154,17439,6,0,L|55:303,1,140.25,6|0,3:2|0:0,0:0:0:0:
123,361,17788,2,0,P|167:312|130:258,1,140.25,10|0,3:2|0:0,0:0:0:0:
34,314,18137,1,10,2:0:0:0:
255,128,18311,2,0,P|307:145|353:159,1,93.5,10|0,2:0|3:2,0:0:0:0:
143,209,18660,6,0,P|78:149|113:69,1,187,6|2,3:2|2:0,0:0:0:0:
344,156,19183,1,10,3:2:0:0:
265,11,19358,1,2,2:0:0:0:
419,171,19532,1,8,2:0:0:0:
415,205,19619,1,8,2:0:0:0:
411,240,19706,1,8,2:0:0:0:
407,275,19794,1,8,2:0:0:0:
403,310,19881,1,8,2:0:0:0:
386,280,19968,1,8,2:0:0:0:
359,258,20055,1,0,3:2:0:0:
326,246,20142,1,4,3:0:0:0:
292,247,20230,6,0,L|231:234,1,46.75,6|0,3:2|0:0,0:0:0:0:
60,83,20404,1,8,2:0:0:0:
71,79,20491,1,8,2:0:0:0:
82,78,20579,1,8,2:0:0:0:
94,79,20666,1,8,2:0:0:0:
105,82,20753,6,0,L|113:147,1,46.75,6|0,3:2|0:0,0:0:0:0:
163,369,20927,1,8,2:0:0:0:
186,368,21015,1,8,2:0:0:0:
207,359,21102,1,8,2:0:0:0:
223,342,21189,1,8,2:0:0:0:
231,320,21276,6,0,L|225:273,1,46.75,6|0,3:2|0:0,0:0:0:0:
186,52,21451,1,8,2:0:0:0:
218,39,21538,1,8,2:0:0:0:
253,37,21625,1,8,2:0:0:0:
287,46,21712,1,8,2:0:0:0:
316,65,21800,6,0,L|310:111,1,46.75,6|0,3:2|0:0,0:0:0:0:
325,347,21974,1,8,2:0:0:0:
367,365,22061,1,8,2:0:0:0:
413,358,22148,1,8,2:0:0:0:
449,329,22236,1,8,2:0:0:0:
465,286,22323,6,0,L|408:266,1,46.75,10|0,2:0|0:0,0:0:0:0:
88,165,22497,1,10,2:0:0:0:
88,165,22846,6,0,B|129:194|179:171|163:153|215:129|267:164,1,170,6|0,3:2|3:2,0:0:0:0:
231,323,23369,2,0,L|217:224,1,85,8|0,2:0|0:0,0:0:0:0:
146,77,23718,1,0,3:2:0:0:
303,143,23893,1,0,0:0:0:0:
125,301,24067,2,0,L|139:202,1,85,8|0,2:0|0:0,0:0:0:0:
268,24,24416,5,2,2:0:0:0:
381,178,24939,2,0,L|427:187,2,42.5,2|2|2,2:0|2:0|2:0,0:0:0:0:
231,232,25462,1,2,2:0:0:0:
119,66,25811,6,0,L|130:202,1,127.5,10|8,3:2|2:0,0:0:0:0:
108,294,26334,1,2,2:0:0:0:
193,351,26509,2,0,P|234:352|260:331,1,63.7500000000002,10|0,2:0|0:0,0:0:0:0:
327,372,26858,1,8,2:0:0:0:
250,252,27032,1,2,3:2:0:0:
349,177,27206,6,0,L|358:264,1,63.7500000000002,10|2,3:2|2:0,0:0:0:0:
443,290,27555,2,0,L|449:226,1,63.7500000000002,10|0,2:0|0:0,0:0:0:0:
407,85,27904,2,0,P|343:84|280:95,1,127.5,10|8,2:0|2:0,0:0:0:0:
168,80,28427,1,2,2:0:0:0:
168,80,28602,6,0,P|116:61|85:57,1,63.7500000000002,10|0,3:2|0:0,0:0:0:0:
206,163,28951,2,0,P|150:167|121:177,1,63.7500000000002,10|0,2:0|0:0,0:0:0:0:
266,227,29300,2,0,P|190:270|154:303,1,127.5,10|10,2:0|2:0,0:0:0:0:
129,384,29823,1,0,3:2:0:0:
48,258,29997,2,0,L|35:119,2,127.5,10|10|10,3:2|2:0|2:0,0:0:0:0:
233,357,31044,1,8,2:0:0:0:
278,289,31218,1,2,2:0:0:0:
370,366,31393,6,0,P|427:353|477:337,1,95.6250000000002,10|0,3:2|0:0,0:0:0:0:
492,342,31741,2,0,P|490:302|464:275,1,63.7500000000002,10|2,2:0|2:0,0:0:0:0:
399,239,32090,2,0,P|373:201|417:132,1,127.5,10|8,2:0|2:0,0:0:0:0:
501,146,32613,1,2,3:2:0:0:
374,56,32788,6,0,B|319:77|319:77|299:58|264:40,1,95.6250000000002,10|0,3:2|0:0,0:0:0:0:
271,36,33137,2,0,P|231:48|197:57,1,63.7500000000002,10|2,2:0|2:0,0:0:0:0:
130,150,33486,2,0,P|122:104|46:94,1,127.5,10|8,2:0|2:0,0:0:0:0:
45,189,34009,1,2,2:0:0:0:
139,309,34183,6,0,L|132:387,1,63.7500000000002,10|0,3:2|0:0,0:0:0:0:
229,333,34532,2,0,L|223:269,1,63.7500000000002,10|0,2:0|0:0,0:0:0:0:
340,192,34881,2,0,P|307:225|272:228,1,63.7500000000002,10|0,2:0|0:0,0:0:0:0:
231,132,35230,2,0,P|264:99|299:96,1,63.7500000000002,10|0,2:0|0:0,0:0:0:0:
368,112,35579,1,2,2:0:0:0:
368,112,36276,6,0,L|341:148,1,31.8750000000001,2|0,3:2|0:0,0:0:0:0:
252,291,36451,1,0,3:2:0:0:
252,291,36538,1,8,2:0:0:0:
252,291,36625,2,0,P|228:263|194:256,1,63.75,8|0,2:0|0:0,0:0:0:0:
147,266,36974,6,0,B|183:293|232:271|226:248|272:232|326:271,1,170,6|8,3:2|2:0,0:0:0:0:
392,318,37497,1,2,2:0:0:0:
482,158,37672,2,0,P|439:164|397:169,1,85,2|0,3:2|3:2,0:0:0:0:
307,259,38020,1,8,2:0:0:0:
397,169,38195,1,2,2:0:0:0:
262,61,38369,6,0,P|276:106|292:154,1,85,2|2,2:0|3:2,0:0:0:0:
118,259,38718,2,0,P|104:218|92:178,1,85,10|0,2:0|0:0,0:0:0:0:
180,19,39067,2,0,P|167:59|154:99,1,85,2|0,3:2|3:2,0:0:0:0:
15,229,39416,1,8,2:0:0:0:
10,46,39590,1,2,2:0:0:0:
197,203,39765,6,0,P|231:226|273:224,1,85,2|0,3:2|0:0,0:0:0:0:
417,78,40113,2,0,P|382:54|340:56,1,85,10|0,2:0|0:0,0:0:0:0:
368,234,40462,2,0,L|360:140,1,85,2|0,3:2|3:2,0:0:0:0:
512,70,40811,2,0,L|504:154,1,85,10|0,2:0|0:0,0:0:0:0:
411,359,41160,5,2,3:2:0:0:
411,359,41334,1,0,3:2:0:0:
247,223,41509,2,0,P|210:200|166:200,1,85,10|0,2:0|0:0,0:0:0:0:
19,255,41858,1,2,3:2:0:0:
19,255,42032,1,0,3:2:0:0:
69,349,42206,1,10,2:0:0:0:
112,146,42381,2,0,P|101:126|88:108,1,42.5,2|0,3:2|3:2,0:0:0:0:
132,295,42555,2,0,B|169:330|169:330|164:281,1,95.6250000000002,2|0,3:2|0:0,0:0:0:0:
186,271,42904,6,0,L|197:365,1,85,12|2,2:0|2:0,0:0:0:0:
269,217,43253,1,2,3:2:0:0:
125,158,43427,1,2,3:2:0:0:
273,96,43602,2,0,P|325:109|381:127,1,85,14|0,2:0|0:0,0:0:0:0:
455,285,43951,2,0,P|492:253|485:191,1,95.6250000000002,2|0,3:2|0:0,0:0:0:0:
468,189,44300,6,0,P|417:197|364:208,1,85,12|2,2:0|2:0,0:0:0:0:
317,294,44648,1,2,3:2:0:0:
281,194,44823,1,2,3:2:0:0:
139,277,44997,2,0,P|94:290|51:271,1,95.6250000000002,14|0,2:0|0:0,0:0:0:0:
29,250,45346,6,0,L|41:149,1,85,6|0,3:2|0:0,0:0:0:0:
163,76,45695,2,0,L|173:160,1,85,10|0,2:0|0:0,0:0:0:0:
196,378,46044,1,2,3:2:0:0:
196,378,46218,1,0,3:2:0:0:
273,247,46393,2,0,P|317:276|368:277,1,95.6250000000002,10|0,2:0|0:0,0:0:0:0:
407,276,46741,6,0,B|359:252|311:281|323:300|275:324|221:289,1,178.5,6|0,3:2|0:0,0:0:0:0:
209,286,47439,1,10,2:0:0:0:
377,60,47613,2,0,L|365:165,1,102,0|2,3:2|3:2,0:0:0:0:
406,365,48137,6,0,P|450:361|476:324,1,76.5000000000001,6|2,3:2|2:0,0:0:0:0:
416,206,48486,2,0,P|397:246|416:287,1,76.5000000000001,2|0,2:0|3:2,0:0:0:0:
494,153,48834,2,0,P|490:83|420:47,1,140.25,10|0,2:0|0:0,0:0:0:0:
349,66,49183,2,0,P|336:109|325:140,1,76.5000000000001,2|0,2:0|0:0,0:0:0:0:
238,267,49532,1,2,3:2:0:0:
133,149,49706,1,8,2:0:0:0:
51,280,49881,6,0,P|42:325|59:363,1,76.5000000000001,2|0,2:0|3:2,0:0:0:0:
262,345,50230,2,0,P|251:263|229:194,1,140.25,10|0,2:0|0:0,0:0:0:0:
207,186,50579,1,2,2:0:0:0:
145,302,50753,1,2,3:2:0:0:
303,147,50927,5,6,3:2:0:0:
387,339,51102,1,2,2:0:0:0:
392,254,51276,2,0,P|354:256|323:277,1,76.5000000000001,2|0,2:0|3:2,0:0:0:0:
280,365,51538,1,2,2:0:0:0:
280,365,51625,2,0,P|228:321|233:254,1,140.25,10|0,2:0|0:0,0:0:0:0:
264,175,51974,2,0,P|264:218|232:259,1,76.5000000000001,2|0,2:0|3:2,0:0:0:0:
70,353,52323,1,2,3:2:0:0:
37,188,52497,1,8,2:0:0:0:
153,252,52672,6,0,P|202:265|252:275,1,76.5000000000001,2|0,2:0|3:2,0:0:0:0:
349,102,53020,2,0,P|270:108|213:147,1,140.25,10|0,2:0|0:0,0:0:0:0:
203,166,53369,1,2,3:2:0:0:
141,98,53544,1,0,3:2:0:0:
57,97,53718,6,0,B|15:152|50:215|87:197|130:262|108:347|19:365|-41:310|-28:215|41:185|135:157|192:210,1,478.125000000001,4|0,3:2|0:0,0:0:0:0:
232,244,55113,2,0,B|264:270|311:257|305:220|360:199|398:250|384:288|332:304|299:273|306:224,1,223.125000000001,2|0,2:0|0:0,0:0:0:0:
287,172,55811,5,8,2:0:0:0:
382,166,55986,1,0,3:2:0:0:
436,244,56160,1,4,3:0:0:0:
402,333,56334,1,8,3:0:0:0:
231,255,56509,5,8,2:0:0:0:
391,142,56683,1,8,2:0:0:0:
316,362,56858,1,8,2:0:0:0:
223,113,57032,1,8,2:0:0:0:
455,254,57206,1,8,2:0:0:0:
187,352,57381,1,8,2:0:0:0:
301,51,57555,2,0,L|291:-1,1,42.5,8|4,3:2|3:0,0:0:0:0:
402,333,57730,2,0,L|393:374,1,42.5,8|4,3:2|3:0,0:0:0:0:
101,199,57904,5,10,2:0:0:0:
494,80,58079,1,10,2:0:0:0:
227,311,58602,6,0,L|220:250,1,42.5,2|0,3:2|0:0,0:0:0:0:
276,145,58776,1,8,2:0:0:0:
252,169,58863,1,8,2:0:0:0:
215,181,58951,1,10,2:0:0:0:
173,171,59038,1,8,2:0:0:0:
147,131,59125,1,8,2:0:0:0:
102,104,59212,1,8,2:0:0:0:
48,115,59300,5,6,3:2:0:0:
138,312,59474,1,2,2:0:0:0:
230,67,59648,1,10,2:0:0:0:
83,211,59823,1,2,2:0:0:0:
272,328,59997,2,0,P|318:335|377:300,1,101.999996887207,2|0,3:2|0:0,0:0:0:0:
344,91,60346,1,10,2:0:0:0:
231,222,60520,1,2,2:0:0:0:
485,301,60695,5,2,3:2:0:0:
416,56,60869,1,2,2:0:0:0:
310,256,61044,1,10,2:0:0:0:
497,151,61218,1,2,2:0:0:0:
263,65,61393,2,0,P|216:39|163:42,1,102,2|0,3:2|0:0,0:0:0:0:
122,239,61741,1,10,2:0:0:0:
201,127,61916,1,2,2:0:0:0:
20,0,62090,6,0,L|38:167,1,153,2|0,3:2|0:0,0:0:0:0:
24,266,62439,2,0,P|53:224|103:213,1,102,8|2,2:0|2:0,0:0:0:0:
249,364,62788,2,0,P|196:313|222:247,1,153,2|0,3:2|0:0,0:0:0:0:
309,237,63137,2,0,B|358:261|358:261|399:232,1,102,10|0,2:0|0:0,0:0:0:0:
323,23,63486,2,0,L|342:138,1,102,2|0,3:2|0:0,0:0:0:0:
496,302,63834,2,0,L|512:200,1,102,10|0,2:0|0:0,0:0:0:0:
335,121,64183,2,0,B|290:94|234:124|245:136|191:163|139:134,1,204,2|8,3:2|2:0,0:0:0:0:
30,22,64706,1,2,2:0:0:0:
170,240,64881,5,2,3:2:0:0:
183,66,65055,1,2,2:0:0:0:
41,158,65230,1,10,2:0:0:0:
271,218,65404,5,2,2:0:0:0:
128,142,65579,1,2,3:2:0:0:
52,285,65753,1,2,2:0:0:0:
195,361,65927,1,10,2:0:0:0:
162,253,66102,1,2,2:0:0:0:
59,384,66276,5,2,3:2:0:0:
250,299,66451,1,2,2:0:0:0:
57,180,66625,1,10,2:0:0:0:
285,50,66800,6,0,P|276:100|271:150,1,101.999996887207,2|0,2:0|3:2,0:0:0:0:
95,299,67148,2,0,P|89:248|80:197,1,101.999996887207,2|8,2:0|2:0,0:0:0:0:
92,31,67497,1,2,2:0:0:0:
306,163,67672,1,2,3:2:0:0:
306,163,67846,1,2,3:2:0:0:
145,370,68020,5,10,2:0:0:0:
218,152,68194,1,2,3:2:0:0:
386,368,68369,1,10,2:0:0:0:
67,192,68544,1,2,3:2:0:0:
371,48,68718,1,10,2:0:0:0:
265,333,68893,6,0,L|246:120,1,204,6|0,3:2|3:2,0:0:0:0:
345,256,69416,1,8,2:0:0:0:
169,87,69590,2,0,P|132:50|82:39,1,102,6|2,3:2|2:0,0:0:0:0:
27,252,69939,1,0,3:2:0:0:
218,152,70113,1,8,2:0:0:0:
0,75,70288,1,0,3:2:0:0:
162,326,70462,5,6,3:2:0:0:
305,116,70637,1,2,2:0:0:0:
367,260,70811,2,0,P|389:310|371:365,1,102,10|0,2:0|0:0,0:0:0:0:
207,250,71160,2,0,P|185:200|203:145,1,102,2|0,3:2|0:0,0:0:0:0:
357,36,71509,1,10,2:0:0:0:
286,256,71683,1,2,2:0:0:0:
236,40,71858,5,2,3:2:0:0:
460,176,72032,1,2,2:0:0:0:
286,256,72206,1,10,2:0:0:0:
354,10,72381,1,2,2:0:0:0:
387,221,72555,2,0,P|396:279|405:330,1,102,2|2,3:2|2:0,0:0:0:0:
408,343,72817,1,2,2:0:0:0:
408,343,72904,1,10,2:0:0:0:
233,156,73079,1,2,2:0:0:0:
475,65,73253,5,2,3:2:0:0:
273,283,73427,1,2,2:0:0:0:
378,25,73602,1,10,2:0:0:0:
511,258,73776,1,2,2:0:0:0:
268,85,73951,5,2,3:2:0:0:
214,358,74125,1,2,2:0:0:0:
419,173,74300,1,10,2:0:0:0:
100,107,74474,1,2,2:0:0:0:
273,283,74648,5,2,3:2:0:0:
334,30,74823,1,2,2:0:0:0:
133,228,74997,2,0,L|31:238,1,101.999996887207,10|0,2:0|0:0,0:0:0:0:
326,355,75346,5,10,2:0:0:0:
273,283,75520,1,0,0:0:0:0:
345,229,75695,1,2,3:2:0:0:
398,301,75869,1,0,3:2:0:0:
155,366,76044,6,0,B|142:328|166:298|166:298|154:275|154:275|176:237|156:187,1,170,2|2,3:2|2:0,0:0:0:0:
69,61,76567,1,2,3:2:0:0:
170,54,76741,2,0,L|261:73,1,85,10|0,2:0|0:0,0:0:0:0:
405,138,77090,1,2,2:0:0:0:
355,39,77265,1,2,3:2:0:0:
263,188,77439,6,0,L|278:285,1,85,10|0,2:0|3:2,0:0:0:0:
387,368,77788,1,10,2:0:0:0:
421,252,77962,1,2,3:2:0:0:
188,147,78137,2,0,L|173:244,1,85,10|0,2:0|3:2,0:0:0:0:
64,327,78486,1,2,3:2:0:0:
19,168,78660,1,2,3:2:0:0:
249,308,78834,6,0,L|239:357,3,46.75,8|8|8|8,3:2|2:0|2:0|2:0,0:0:0:0:
133,291,79183,2,0,L|123:245,1,46.75,10|8,3:2|2:0,0:0:0:0:
326,187,79358,2,0,L|316:232,1,46.75,10|8,2:0|2:0,0:0:0:0:
113,49,79532,5,10,3:2:0:0:
116,60,79619,1,8,2:0:0:0:
118,71,79706,1,8,2:0:0:0:
121,83,79794,1,8,2:0:0:0:
123,94,79881,5,10,3:2:0:0:
157,90,79968,1,8,2:0:0:0:
192,86,80055,1,10,2:0:0:0:
227,82,80143,1,8,2:0:0:0:
262,78,80230,5,10,2:0:0:0:
450,182,80579,5,8,2:0:0:0:
474,221,80666,1,8,2:0:0:0:
474,267,80753,1,8,2:0:0:0:
451,307,80840,1,8,2:0:0:0:
410,329,80927,6,0,L|402:259,1,46.75,10|0,2:0|0:0,0:0:0:0:
382,24,81102,1,10,2:0:0:0:
382,24,81625,6,0,B|396:49|400:75|400:75|354:99|348:165,1,140.25,6|0,3:2|0:0,0:0:0:0:
368,222,81974,2,0,P|370:271|278:290,1,140.25,10|0,3:2|0:0,0:0:0:0:
233,259,82323,1,10,2:0:0:0:
442,153,82497,2,0,P|453:198|464:243,1,93.5,10|0,2:0|3:2,0:0:0:0:
193,339,82846,6,0,P|138:275|188:184,1,187,6|2,3:2|2:0,0:0:0:0:
359,120,83369,1,10,3:2:0:0:
233,259,83544,1,2,2:0:0:0:
246,33,83718,1,10,3:2:0:0:
237,66,83805,1,8,2:0:0:0:
211,89,83893,1,8,2:0:0:0:
176,94,83980,1,8,2:0:0:0:
145,78,84067,1,0,3:2:0:0:
98,80,84154,1,4,3:0:0:0:
62,108,84241,1,0,3:2:0:0:
46,151,84329,1,8,3:0:0:0:
57,196,84416,6,0,L|119:206,1,46.75,6|0,3:2|0:0,0:0:0:0:
397,240,84590,1,8,2:0:0:0:
400,228,84677,1,8,2:0:0:0:
404,217,84765,1,8,2:0:0:0:
407,206,84852,1,8,2:0:0:0:
411,195,84939,6,0,L|398:132,1,46.75,6|0,3:2|0:0,0:0:0:0:
208,25,85113,1,8,2:0:0:0:
200,47,85201,1,8,2:0:0:0:
193,69,85288,1,8,2:0:0:0:
186,91,85375,1,8,2:0:0:0:
179,114,85462,6,0,L|201:184,1,46.75,6|0,3:2|0:0,0:0:0:0:
353,314,85637,1,8,2:0:0:0:
333,285,85724,1,8,2:0:0:0:
303,267,85811,1,8,2:0:0:0:
268,264,85898,1,8,2:0:0:0:
236,277,85986,6,0,L|223:327,1,46.75,6|0,3:2|0:0,0:0:0:0:
457,350,86160,1,8,2:0:0:0:
478,308,86247,1,8,2:0:0:0:
482,262,86334,1,8,2:0:0:0:
470,217,86422,1,8,2:0:0:0:
442,180,86509,6,0,L|375:188,1,46.75,10|0,2:0|0:0,0:0:0:0:
64,214,86683,1,10,2:0:0:0:
64,214,87032,6,0,B|133:160|224:184|192:231|302:317|377:198|341:50|224:53|129:103|120:232|168:303|211:316,1,573.750000000001,6|0,3:2|0:0,0:0:0:0:
