osu file format v14

[General]
AudioFilename: audio.mp3
AudioLeadIn: 0
PreviewTime: 204643
Countdown: 0
SampleSet: Soft
StackLeniency: 0.9
Mode: 0
LetterboxInBreaks: 0
WidescreenStoryboard: 1

[Editor]
DistanceSpacing: 0.8
BeatDivisor: 4
GridSize: 16
TimelineZoom: 2.899999

[Metadata]
Title:Omoide Shiritori
TitleUnicode:おもいでしりとり
Artist:DIALOGUE+
ArtistUnicode:DIALOGUE+
Creator:Keqing
Version:Sayu
Source:ひげを剃る。そして女子高生を拾う。
Tags:-Aqua Shaved. Then Brought High School Girl iljaaz Home. ひげひろ higehiro home I a shizuku- After Being Rejected newton- Shaved and Took In shikibe mayu Runaway kazato asa amateurre ajisai- hige wo soru soshite joshikousei wo hirou anime op opening full ver version jpop j-pop japanese pop female vocals sayu ogiwara 荻原沙優
BeatmapID:2961262
BeatmapSetID:1439210

[Difficulty]
HPDrainRate:5.5
CircleSize:4
OverallDifficulty:8.4
ApproachRate:9.2
SliderMultiplier:1.74
SliderTickRate:1

[Events]
//Background and Video events
0,0,"sayu owo.jpg",0,0
//Break Periods
2,183694,193262
//Storyboard Layer 0 (Background)
//Storyboard Layer 1 (Fail)
//Storyboard Layer 2 (Pass)
//Storyboard Layer 3 (Foreground)
//Storyboard Layer 4 (Overlay)
//Storyboard Sound Samples

[TimingPoints]
2100,348.837209302326,4,2,4,45,1,0
2100,-135.135135135135,4,2,4,45,0,0
7681,-87.719298245614,4,2,4,65,0,0
10472,-185.185185185185,4,2,4,65,0,0
11867,-87.719298245614,4,2,4,65,0,0
14134,-294.117647058824,4,2,4,65,0,0
14658,-80.6451612903226,4,2,4,75,0,0
15006,-96.1538461538461,4,2,4,75,0,0
15355,-69.4444444444444,4,2,4,75,0,0
15879,-80.6451612903226,4,2,4,75,0,0
16227,-96.1538461538461,4,2,4,75,0,0
17448,-80.6451612903226,4,2,4,75,0,0
17796,-96.1538461538461,4,2,4,75,0,0
18146,-69.4444444444444,4,2,4,75,0,0
18669,-80.6451612903226,4,2,4,75,0,0
19017,-96.1538461538461,4,2,4,75,0,0
20239,-80.6451612903226,4,2,4,75,0,0
25820,-119.047619047619,4,2,4,55,0,0
35588,-227.272727272727,4,2,4,55,0,0
36983,-135.135135135135,4,2,4,65,0,0
37332,-80.6451612903226,4,2,4,65,0,0
37855,-96.1538461538461,4,2,4,65,0,0
38727,-80.6451612903226,4,2,4,65,0,0
39076,-96.1538461538461,4,2,4,65,0,0
40123,-80.6451612903226,4,2,4,65,0,0
40472,-96.1538461538461,4,2,4,65,0,0
41169,-80.6451612903226,4,2,4,65,0,0
42565,-156.25,4,2,4,65,0,0
42913,-80.6451612903226,4,2,4,65,0,0
45355,-96.1538461538461,4,2,4,65,0,0
46751,-119.047619047619,4,2,4,65,0,0
47623,-80.6451612903226,4,2,4,65,0,0
48146,-119.047619047619,4,2,4,65,0,0
48844,-69.4444444444444,4,2,4,65,0,0
49193,-119.047619047619,4,2,4,65,0,0
50239,-69.4444444444444,4,2,4,65,0,0
50937,-96.1538461538461,4,2,4,65,0,0
51634,-69.4444444444444,4,2,4,65,0,0
52506,-119.047619047619,4,2,4,65,0,0
56518,-80.6451612903226,4,2,4,75,0,0
58262,-227.272727272727,4,2,4,75,0,0
59309,-87.719298245614,4,2,4,90,0,1
62100,-69.4444444444444,4,2,4,90,0,1
62448,-87.719298245614,4,2,4,90,0,1
68902,-69.4444444444444,4,2,4,90,0,1
70472,-87.719298245614,4,2,4,90,0,1
76053,-119.047619047619,4,2,4,75,0,0
77448,-80.6451612903226,4,2,4,75,0,0
81286,-227.272727272727,4,2,4,75,0,0
81634,-80.6451612903226,4,2,4,75,0,0
81982,-96.1538461538461,4,2,4,75,0,0
82332,-69.4444444444444,4,2,4,75,0,0
82855,-80.6451612903226,4,2,4,75,0,0
83203,-96.1538461538461,4,2,4,75,0,0
84424,-80.6451612903226,4,2,4,75,0,0
84772,-96.1538461538461,4,2,4,75,0,0
85123,-69.4444444444444,4,2,4,75,0,0
85645,-80.6451612903226,4,2,4,75,0,0
85993,-96.1538461538461,4,2,4,75,0,0
87215,-80.6451612903226,4,2,4,75,0,0
91402,-119.047619047619,4,2,4,65,0,0
97332,-69.4444444444444,4,2,4,65,0,0
97681,-96.1538461538461,4,2,4,65,0,0
98030,-80.6451612903226,4,2,4,65,0,0
98378,-96.1538461538461,4,2,4,65,0,0
98727,-80.6451612903226,4,2,4,65,0,0
101169,-119.047619047619,4,2,4,65,0,0
102041,-80.6451612903226,4,2,4,65,0,0
102563,-119.047619047619,4,2,4,65,0,0
103261,-69.4444444444444,4,2,4,65,0,0
103610,-119.047619047619,4,2,4,65,0,0
104656,-69.4444444444444,4,2,4,65,0,0
105354,-96.1538461538461,4,2,4,65,0,0
106051,-69.4444444444444,4,2,4,65,0,0
106751,-80.6451612903226,4,2,4,65,0,0
108146,-80.6451612903226,4,2,4,75,0,0
108495,-135.135135135135,4,2,4,75,0,0
109541,-69.4444444444444,4,2,4,75,0,0
116518,-87.719298245614,4,2,4,90,0,1
119309,-69.4444444444444,4,2,4,90,0,1
119657,-87.719298245614,4,2,4,90,0,1
126111,-69.4444444444444,4,2,4,90,0,1
127681,-87.719298245614,4,2,4,90,0,1
133262,-119.047619047619,4,2,4,75,0,0
136751,-87.719298245614,4,2,4,75,0,0
138495,-227.272727272727,4,2,4,75,0,0
138844,-135.135135135135,4,2,4,75,0,0
161169,-106.382978723404,4,2,4,75,0,0
166751,-57.4712643678161,4,2,4,90,0,1
166867,-57.4712643678161,4,2,4,5,0,1
166983,-57.4712643678161,4,2,4,90,0,1
167100,-57.4712643678161,4,2,4,5,0,1
167216,-57.4712643678161,4,2,4,90,0,1
167332,-57.4712643678161,4,2,4,5,0,1
167448,-57.4712643678161,4,2,4,90,0,1
167565,-57.4712643678161,4,2,4,5,0,1
167681,-57.4712643678161,4,2,4,90,0,1
167797,-57.4712643678161,4,2,4,5,0,1
167913,-57.4712643678161,4,2,4,90,0,1
168030,-57.4712643678161,4,2,4,5,0,1
168146,-57.4712643678161,4,2,4,90,0,1
168262,-57.4712643678161,4,2,4,5,0,1
168378,-57.4712643678161,4,2,4,90,0,1
168495,-57.4712643678161,4,2,4,5,0,1
168611,-57.4712643678161,4,2,4,90,0,1
168727,-57.4712643678161,4,2,4,5,0,1
168843,-57.4712643678161,4,2,4,90,0,1
168960,-57.4712643678161,4,2,4,5,0,1
169076,-57.4712643678161,4,2,4,90,0,1
169193,-57.4712643678161,4,2,4,5,0,1
169309,-57.4712643678161,4,2,4,90,0,1
169425,-57.4712643678161,4,2,4,5,0,1
169541,-57.4712643678161,4,2,4,80,0,0
172332,-80.6451612903226,4,2,4,80,0,0
182797,-227.272727272727,4,2,4,80,0,0
183146,-69.4444444444444,4,2,4,80,0,0
193262,-69.4444444444444,4,2,4,65,0,0
194658,-96.1538461538461,4,2,4,75,0,0
200239,-119.047619047619,4,2,4,75,0,0
200937,-80.6451612903226,4,2,4,75,0,0
201634,-96.1538461538461,4,2,4,75,0,0
202332,-80.6451612903226,4,2,4,75,0,0
205820,-87.719298245614,4,2,4,90,0,1
208611,-69.4444444444444,4,2,4,90,0,1
208960,-87.719298245614,4,2,4,90,0,1
215413,-69.4444444444444,4,2,4,90,0,1
216983,-87.719298245614,4,2,4,90,0,1
222565,-119.047619047619,4,2,4,75,0,0
223960,-80.6451612903226,4,2,4,75,0,0
230588,-227.272727272727,4,2,4,75,0,0
230937,-80.6451612903226,4,2,4,75,0,0
231285,-96.1538461538461,4,2,4,75,0,0
231634,-69.4444444444444,4,2,4,75,0,0
232158,-80.6451612903226,4,2,4,75,0,0
232506,-96.1538461538461,4,2,4,75,0,0
233727,-80.6451612903226,4,2,4,75,0,0
234075,-96.1538461538461,4,2,4,75,0,0
234425,-69.4444444444444,4,2,4,75,0,0
234948,-80.6451612903226,4,2,4,75,0,0
235296,-96.1538461538461,4,2,4,75,0,0
236517,-80.6451612903226,4,2,4,75,0,0
236865,-96.1538461538461,4,2,4,75,0,0
237216,-69.4444444444444,4,2,4,75,0,0
237738,-80.6451612903226,4,2,4,75,0,0
238086,-96.1538461538461,4,2,4,75,0,0
239307,-80.6451612903226,4,2,4,75,0,0
239655,-96.1538461538461,4,2,4,75,0,0
240006,-69.4444444444444,4,2,4,75,0,0
240530,-80.6451612903226,4,2,4,75,0,0
240878,-96.1538461538461,4,2,4,75,0,0
242100,-87.719298245614,4,2,4,90,0,1
247681,-69.4444444444444,4,2,4,90,0,1
253960,-69.4444444444444,4,2,4,90,0,0
254309,-69.4444444444444,4,2,4,80,0,0
254658,-69.4444444444444,4,2,4,70,0,0
255006,-69.4444444444444,4,2,4,60,0,0
255355,-69.4444444444444,4,2,4,50,0,0
255704,-69.4444444444444,4,2,4,40,0,0
256053,-69.4444444444444,4,2,4,30,0,0
256402,-69.4444444444444,4,2,4,20,0,0
256751,-69.4444444444444,4,2,4,10,0,0
257448,-69.4444444444444,4,2,4,5,0,0

[Colours]
Combo1 : 255,241,164
Combo2 : 251,140,132
Combo3 : 244,209,102
Combo4 : 194,146,146

[HitObjects]
455,68,2100,6,0,P|449:37|446:-5,1,64.3800015717774,2|0,0:0|0:0,0:0:0:0:
370,18,2448,2,0,P|376:49|379:91,1,64.3800015717774,2|0,0:0|0:0,0:0:0:0:
365,160,2797,2,0,P|422:148|513:138,1,128.760003143555,2|0,0:0|0:0,0:0:0:0:
59,233,3495,6,0,P|65:202|68:160,1,64.3800015717774,2|0,0:0|0:0,0:0:0:0:
144,183,3843,2,0,P|138:214|135:256,1,64.3800015717774,2|0,0:0|0:0,0:0:0:0:
149,325,4192,2,0,P|91:313|1:303,1,128.760003143555,2|0,0:0|0:0,0:0:0:0:
256,192,4890,5,2,0:0:0:0:
256,192,5413,5,2,0:0:0:0:
315,239,5588,2,0,P|313:272|307:308,1,64.3800015717774,2|0,0:0|0:0,0:0:0:0:
166,172,5937,2,0,P|167:138|174:103,1,64.3800015717774,2|0,0:0|0:0,0:0:0:0:
256,192,6286,5,2,0:0:0:0:
256,192,6373,1,2,0:0:0:0:
256,192,6460,1,8,0:0:0:0:
137,276,6634,2,0,P|106:271|64:256,1,64.3800015717774,8|0,0:3|0:0,0:0:0:0:
256,192,6983,5,8,0:0:0:0:
384,293,7158,1,8,0:3:0:0:
254,355,7332,5,0,3:2:0:0:
308,302,7506,1,0,3:2:0:0:
481,337,7681,6,0,P|430:338|341:222,1,198.359997578613,6|2,3:2|0:0,0:0:0:0:
481,337,8204,1,2,0:0:0:0:
256,192,8379,6,0,P|189:183|104:288,1,198.359997578613,6|0,3:2|0:0,0:0:0:0:
256,192,8902,1,2,0:0:0:0:
181,27,9076,5,8,0:0:0:0:
147,167,9251,1,0,3:2:0:0:
303,370,9425,5,8,0:2:0:0:
337,230,9600,1,0,3:2:0:0:
210,283,9774,6,0,B|99:262|133:359|-2:325,1,198.359997578613,12|2,0:0|3:2,0:0:0:0:
25,330,10210,1,0,3:2:0:0:
25,330,10297,1,2,3:2:0:0:
256,192,10472,6,0,P|268:147|272:93,1,93.9600022939454,4|0,3:2|3:2,0:0:0:0:
212,51,10995,1,0,3:2:0:0:
355,197,11169,5,0,3:2:0:0:
210,283,11344,1,0,3:2:0:0:
186,129,11518,5,10,0:0:0:0:
375,292,11693,1,8,0:0:0:0:
162,384,11867,6,0,P|157:365|154:330,1,49.5899993946533,12|0,0:0|0:0,0:0:0:0:
355,197,12041,1,8,0:0:0:0:
390,173,12129,1,8,0:0:0:0:
401,137,12216,1,8,3:2:0:0:
395,112,12303,1,8,0:3:0:0:
380,95,12390,1,0,3:2:0:0:
365,88,12477,1,8,0:3:0:0:
357,87,12565,2,0,L|295:102,1,49.5899993946533,12|0,0:0|0:0,0:0:0:0:
105,219,12739,2,0,L|43:204,1,49.5899993946533,12|0,0:0|0:0,0:0:0:0:
452,225,14134,6,0,P|461:254|467:288,1,59.160000361084,2|8,0:0|0:0,0:0:0:0:
503,351,14570,1,8,0:0:0:0:
503,351,14658,2,0,P|461:368|369:294,1,161.819993580139,4|0,3:2|0:0,0:0:0:0:
322,250,15006,2,0,L|338:152,1,90.4799994477539,2|0,3:2|0:0,0:0:0:0:
226,26,15355,6,0,P|203:16|161:7,1,62.6400015292969,8|0,0:0|0:0,0:0:0:0:
371,77,15530,2,0,B|270:59|290:133|184:107,1,187.920004587891,8|0,0:0|0:0,0:0:0:0:
91,172,15879,6,0,B|138:177|182:125|182:125|150:180|177:234,1,215.759991440186,12|0,0:2|0:0,0:0:0:0:
102,89,16402,2,0,P|63:50|23:53,1,90.4799994477539,0|0,3:2|0:0,0:0:0:0:
182,234,16751,5,8,0:0:0:0:
182,234,16838,1,8,0:0:0:0:
182,234,16925,2,0,L|197:175,1,45.239999723877,8|8,0:0|0:0,0:0:0:0:
103,367,17100,1,8,3:0:0:0:
64,340,17187,1,8,3:0:0:0:
60,300,17274,1,8,3:0:0:0:
73,284,17361,1,8,3:0:0:0:
84,278,17448,6,0,P|158:297|250:340,1,161.819993580139,4|0,3:2|0:0,0:0:0:0:
290,275,17797,2,0,P|316:316|312:363,1,90.4799994477539,2|0,3:2|0:2,0:2:0:0:
478,172,18146,6,0,L|467:108,1,62.6400015292969,8|0,0:0|0:0,0:0:0:0:
300,15,18320,2,0,P|235:56|235:101,1,125.280003058594,10|0,0:2|3:2,0:2:0:0:
230,188,18669,6,0,B|258:178|288:173|288:173|313:134|313:134|342:130|382:119,1,161.819993580139,12|0,0:2|0:0,0:0:0:0:
367,122,19018,1,2,0:0:0:0:
490,0,19193,1,2,3:2:0:0:
374,47,19367,1,2,0:0:0:0:
488,180,19541,1,8,0:0:0:0:
488,180,19629,1,8,0:0:0:0:
488,180,19716,2,0,P|495:161|501:123,1,45.239999723877,8|8,0:0|0:0,0:0:0:0:
363,235,19890,1,8,0:0:0:0:
363,235,19977,1,8,0:0:0:0:
363,235,20065,2,0,L|373:294,1,45.239999723877,0|8,3:0|3:0,0:0:0:0:
432,328,20239,5,4,3:2:0:0:
391,302,20326,1,8,0:2:0:0:
348,303,20413,1,8,0:2:0:0:
308,328,20501,1,8,0:2:0:0:
290,367,20588,2,0,P|261:380|230:385,1,53.9399978600465,8|8,0:0|0:0,0:0:0:0:
37,190,20762,5,4,3:2:0:0:
81,162,20850,1,8,0:0:0:0:
138,165,20937,1,8,0:0:0:0:
172,207,21024,1,8,0:0:0:0:
187,251,21111,2,0,P|181:280|169:314,1,53.9399978600465,8|8,0:0|0:0,0:0:0:0:
346,158,21286,5,4,3:2:0:0:
387,130,21373,1,8,0:0:0:0:
396,79,21460,1,8,0:0:0:0:
373,35,21547,1,8,0:0:0:0:
327,15,21634,2,0,P|300:21|271:34,1,53.9399978600465,8|8,0:0|0:0,0:0:0:0:
138,165,21809,6,0,P|146:140|152:103,1,53.9399978600465,4|0,3:2|0:0,0:0:0:0:
332,219,21983,2,0,P|340:249|342:281,1,53.9399978600465,8|0,3:0|3:2,0:0:0:0:
233,375,22158,1,8,3:0:0:0:
233,375,22245,1,8,3:0:0:0:
233,375,22332,1,12,0:0:0:0:
277,134,22506,1,12,0:0:0:0:
277,134,22855,6,0,B|155:100|155:100|204:122|227:196,1,215.759991440186,4|0,3:2|3:2,0:0:0:0:
42,286,23379,2,0,B|128:260|128:260|137:302|156:332,1,161.819993580139,8|0,0:0|0:0,0:0:0:0:
212,274,23727,2,0,P|256:263|276:207,1,107.879995720093,2|0,3:2|0:0,0:0:0:0:
63,64,24076,2,0,P|76:114|85:182,1,107.879995720093,8|0,0:0|0:0,0:0:0:0:
143,238,24425,5,4,3:2:0:0:
151,246,24948,1,2,0:0:0:0:
151,246,25036,1,2,0:0:0:0:
151,246,25123,1,2,0:0:0:0:
277,208,25472,5,2,0:0:0:0:
443,366,25820,6,0,B|351:375|354:273|354:273,1,146.159995539551,4|2,3:2|0:3,0:0:0:0:
277,208,26344,1,2,0:0:0:0:
343,165,26518,2,0,P|352:132|358:84,1,73.0799977697755,2|0,0:3|0:0,0:0:0:0:
445,210,26867,2,0,P|436:243|430:291,1,73.0799977697755,2|0,0:3|3:2,0:0:0:0:
231,367,27216,6,0,P|196:354|148:346,1,73.0799977697755,2|0,3:2|0:0,0:0:0:0:
22,221,27565,2,0,B|62:132|143:186|143:186,1,146.159995539551,2|2,0:3|0:3,0:0:0:0:
143,186,28262,5,2,0:3:0:0:
265,123,28437,1,2,0:0:0:0:
183,23,28611,6,0,P|177:60|164:103,1,73.0799977697755,2|0,3:2|0:0,0:0:0:0:
333,209,28960,2,0,P|341:246|353:281,1,73.0799977697755,2|0,0:3|0:0,0:0:0:0:
205,381,29309,6,0,L|233:231,1,146.159995539551,2|2,0:3|0:3,0:0:0:0:
231,237,29832,1,0,3:2:0:0:
406,119,30006,6,0,P|440:112|491:95,1,73.0799977697755,2|0,3:2|0:0,0:0:0:0:
352,279,30355,2,0,P|386:294|421:315,1,73.0799977697755,2|0,0:3|0:0,0:0:0:0:
294,175,30704,6,0,L|450:213,1,146.159995539551,2|2,0:3|0:3,0:0:0:0:
436,209,31227,1,2,0:0:0:0:
292,60,31402,6,0,B|198:30|185:124|185:124,1,146.159995539551,2|2,3:2|0:3,0:0:0:0:
126,226,31925,1,2,0:0:0:0:
187,275,32100,2,0,B|223:246|204:206|204:206,1,73.0799977697755,2|0,0:3|0:0,0:0:0:0:
108,148,32448,1,2,0:3:0:0:
184,124,32623,5,2,3:2:0:0:
77,328,32797,2,0,B|3:277|50:198|50:198,1,146.159995539551,2|2,3:2|0:3,0:0:0:0:
184,124,33320,1,2,0:0:0:0:
57,6,33495,2,0,L|36:89,1,73.0799977697755,2|2,0:3|0:0,0:0:0:0:
39,76,33756,1,2,0:0:0:0:
39,76,33844,1,2,0:3:0:0:
101,130,34018,1,2,0:0:0:0:
238,27,34193,6,0,P|273:15|319:4,1,73.0799977697755,2|0,3:2|0:0,0:0:0:0:
210,191,34541,2,0,P|199:156|181:118,1,73.0799977697755,2|0,0:3|0:0,0:0:0:0:
428,221,34890,2,0,P|392:232|351:253,1,73.0799977697755,2|0,0:3|0:0,0:0:0:0:
430,48,35239,2,0,P|440:84|458:126,1,73.0799977697755,2|0,0:3|0:0,0:0:0:0:
273,286,35588,6,0,L|296:159,1,114.840003504639,2|2,0:0|0:0,0:0:0:0:
354,129,36286,1,8,3:0:0:0:
161,258,36460,1,0,3:2:0:0:
141,236,36547,1,8,0:0:0:0:
157,198,36634,1,8,3:0:0:0:
273,286,36809,1,0,3:2:0:0:
153,347,36983,6,0,L|52:322,1,96.5700023576661,4|0,3:2|0:0,0:0:0:0:
54,382,37332,2,0,B|92:373|92:373|111:355|111:355|170:345,1,107.879995720093,12|2,0:0|0:0,0:0:0:0:
273,286,37681,1,0,3:2:0:0:
388,338,37855,6,0,B|290:307|290:307|282:355|264:388,1,180.959998895508,2|10,3:2|0:0,0:0:0:0:
157,198,38379,2,0,P|125:161|148:105,1,90.4799994477539,2|0,0:0|3:2,0:0:0:0:
341,11,38727,2,0,L|309:176,1,161.819993580139,10|0,0:0|0:0,0:0:0:0:
353,234,39076,2,0,P|385:200|382:143,1,90.4799994477539,2|0,3:2|3:2,0:0:0:0:
254,46,39425,1,8,0:0:0:0:
372,85,39600,5,2,0:0:0:0:
173,281,39774,2,0,P|150:243|164:187,1,90.4799994477539,2|0,3:2|0:0,0:0:0:0:
24,24,40123,2,0,B|53:45|117:51|117:51|81:54|56:88,1,161.819993580139,12|0,0:0|0:0,0:0:0:0:
128,129,40472,1,0,3:2:0:0:
0,207,40646,1,0,3:2:0:0:
128,129,40820,6,0,L|226:163,1,90.4799994477539,10|0,0:0|0:0,0:0:0:0:
401,33,41169,6,0,B|333:15|333:15|366:51,1,107.879995720093,2|0,3:2|3:2,0:0:0:0:
213,158,41518,2,0,B|305:129|305:129|249:176,1,161.819993580139,14|0,0:0|0:2,0:0:0:0:
330,120,41867,5,0,3:2:0:0:
203,29,42041,1,0,3:2:0:0:
358,42,42216,5,8,0:0:0:0:
216,176,42390,1,2,0:0:0:0:
215,166,42477,1,8,3:0:0:0:
213,158,42565,6,0,L|234:90,1,55.68,0|0,3:2|3:2,0:0:0:0:
384,213,42913,2,0,B|420:296|335:278|374:364,1,161.819993580139,12|0,0:0|0:0,0:0:0:0:
441,330,43262,1,0,3:2:0:0:
316,246,43437,1,0,3:2:0:0:
374,364,43611,6,0,B|335:278|420:296|384:213,1,161.819993580139,12|0,0:0|0:0,0:0:0:0:
316,246,43960,1,0,3:2:0:0:
441,330,44134,1,0,3:2:0:0:
316,246,44309,6,0,B|278:234|240:264|240:264|218:319|158:304,1,161.819993580139,12|0,0:0|0:0,0:0:0:0:
149,326,44658,2,0,L|164:267,1,53.9399978600465,0|0,3:2|0:0,0:0:0:0:
316,160,44832,2,0,L|303:96,1,53.9399978600465,0|0,3:2|0:0,0:0:0:0:
207,15,45006,2,0,B|194:74|194:74|215:116|215:116|202:176,1,161.819993580139,12|0,0:0|0:0,0:0:0:0:
203,169,45355,6,0,P|159:171|127:117,1,90.4799994477539,4|0,3:2|0:0,0:0:0:0:
316,246,45704,2,0,P|342:287|338:337,1,90.4799994477539,8|0,0:0|0:0,0:0:0:0:
317,128,46053,5,0,3:2:0:0:
456,49,46227,1,0,3:2:0:0:
421,116,46402,5,8,3:2:0:0:
284,14,46576,1,0,3:2:0:0:
190,83,46751,6,0,L|28:119,1,146.159995539551,6|2,3:2|0:0,0:0:0:0:
47,114,47274,1,2,0:0:0:0:
245,236,47448,1,8,0:0:0:0:
79,348,47623,6,0,B|42:323|1:332|1:332|136:293,1,215.759991440186,4|0,3:2|3:2,0:0:0:0:
165,231,48059,1,0,3:2:0:0:
165,231,48146,6,0,P|214:263|203:357,1,146.159995539551,4|0,3:2|0:2,0:0:0:0:
459,194,48669,1,0,3:2:0:0:
421,128,48844,6,0,P|353:150|355:260,1,187.920004587891,8|0,0:0|0:0,0:0:0:0:
348,253,49193,2,0,P|382:263|418:282,1,73.0799977697755,2|0,0:0|0:0,0:0:0:0:
415,280,49454,1,2,0:0:0:0:
415,280,49541,1,2,3:2:0:0:
257,115,49716,2,0,P|268:80|280:24,1,73.0799977697755,8|2,0:0|0:0,0:0:0:0:
73,145,50065,1,0,3:2:0:0:
111,83,50239,6,0,P|172:127|157:239,1,187.920004587891,12|0,0:0|0:0,0:0:0:0:
164,230,50588,1,2,0:0:0:0:
18,384,50762,2,0,P|28:352|33:311,1,62.6400015292969,0|0,3:2|0:0,0:0:0:0:
24,242,50937,6,0,B|56:255|91:261|91:261|112:305|112:305|146:313|186:328,1,180.959998895508,4|0,3:2|0:0,0:0:0:0:
376,213,51460,1,0,3:2:0:0:
322,152,51634,6,0,B|288:165|252:171|252:171|230:217|230:217|195:225|168:235,1,187.920004587891,12|0,0:2|0:0,0:0:0:0:
168,235,51983,1,2,0:0:0:0:
296,357,52158,1,0,3:2:0:0:
224,384,52332,5,0,3:2:0:0:
376,213,52506,2,0,P|388:248|393:295,1,73.0799977697755,8|0,0:0|0:0,0:0:0:0:
454,325,52855,5,0,3:2:0:0:
229,148,53030,2,0,P|231:112|251:62,1,73.0799977697755,8|0,0:0|0:0,0:0:0:0:
307,36,53379,1,2,3:2:0:0:
130,150,53553,1,2,3:2:0:0:
32,89,53727,5,4,3:2:0:0:
32,89,55820,5,8,0:0:0:0:
105,68,55995,1,0,3:2:0:0:
188,163,56169,5,8,3:0:0:0:
277,199,56344,1,0,3:2:0:0:
391,125,56518,6,0,P|418:78|406:17,1,107.879995720093,12|0,0:0|3:2,0:0:0:0:
188,163,56867,1,8,0:0:0:0:
325,259,57041,1,8,3:2:0:0:
141,268,57216,5,8,0:0:0:0:
279,191,57390,1,8,0:0:0:0:
424,365,57565,5,8,0:0:0:0:
382,384,57652,1,8,0:0:0:0:
337,366,57739,1,8,0:0:0:0:
316,326,57826,1,8,0:0:0:0:
313,312,57913,2,0,L|327:255,1,53.9399978600465,12|0,0:0|0:0,0:0:0:0:
162,88,58088,2,0,L|152:24,1,53.9399978600465,12|0,0:0|0:0,0:0:0:0:
255,151,58262,6,0,L|237:219,1,57.4200017523194,2|0,0:0|0:0,0:0:0:0:
235,221,58611,1,0,3:2:0:0:
74,354,58786,1,8,0:0:0:0:
27,333,58873,1,8,0:0:0:0:
16,288,58960,1,8,0:0:0:0:
42,247,59047,1,8,0:0:0:0:
88,235,59134,1,8,0:0:0:0:
124,252,59222,1,8,0:0:0:0:
140,288,59309,6,0,P|133:337|116:391,1,99.1799987893067,6|2,3:2|0:0,0:0:0:0:
313,312,59658,2,0,P|320:263|337:209,1,99.1799987893067,10|2,0:2|0:0,0:0:0:0:
120,111,60006,2,0,P|43:143|45:251,1,198.359997578613,2|8,3:2|0:0,0:0:0:0:
287,133,60530,1,2,0:0:0:0:
334,215,60704,6,0,P|320:262|312:312,1,99.1799987893067,2|2,3:2|0:0,0:0:0:0:
118,384,61053,2,0,P|132:337|140:287,1,99.1799987893067,8|2,0:2|0:0,0:0:0:0:
414,185,61402,2,0,P|497:227|492:320,1,198.359997578613,2|8,3:2|0:0,0:0:0:0:
287,133,61925,1,2,0:0:0:0:
138,289,62100,6,0,B|103:266|64:267|64:267|25:237|38:182|86:174,1,187.920004587891,4|0,3:2|0:0,0:0:0:0:
72,177,62448,1,8,0:0:0:0:
242,67,62623,1,2,0:0:0:0:
287,133,62797,2,0,P|277:188|262:241,1,99.1799987893067,2|0,3:2|0:0,0:0:0:0:
121,96,63146,2,0,P|130:40|146:-12,1,99.1799987893067,10|0,0:2|0:0,0:0:0:0:
355,263,63495,6,0,P|311:312|221:295,1,148.76999818396,2|0,3:2|0:0,0:0:0:0:
191,238,63844,2,0,P|198:192|217:132,1,99.1799987893067,8|0,0:0|0:0,0:0:0:0:
450,64,64193,2,0,P|442:135|418:212,1,148.76999818396,2|0,3:2|0:0,0:0:0:0:
450,278,64541,1,8,0:0:0:0:
355,162,64716,1,2,0:0:0:0:
233,305,64890,5,4,3:2:0:0:
284,251,65065,1,2,0:0:0:0:
355,263,65239,1,10,0:0:0:0:
503,121,65413,5,2,0:0:0:0:
449,67,65588,1,0,3:2:0:0:
378,89,65762,1,2,0:0:0:0:
481,208,65937,5,10,0:0:0:0:
450,278,66111,1,2,0:0:0:0:
323,148,66286,5,2,3:2:0:0:
361,18,66460,1,2,0:0:0:0:
323,148,66634,1,10,0:2:0:0:
255,58,66809,6,0,P|208:39|158:29,1,99.1799987893067,2|0,0:0|3:2,0:0:0:0:
355,249,67158,2,0,P|401:267|452:278,1,99.1799987893067,2|8,0:0|0:0,0:0:0:0:
323,148,67506,1,2,0:0:0:0:
94,271,67681,6,0,P|83:300|79:328,1,49.5899993946533,8|0,0:0|0:0,0:0:0:0:
138,372,67855,1,0,3:2:0:0:
266,262,68030,6,0,P|275:238|279:201,1,49.5899993946533,10|0,0:0|0:0,0:0:0:0:
226,156,68204,1,0,3:2:0:0:
94,271,68379,5,8,0:0:0:0:
248,359,68553,1,0,3:2:0:0:
226,156,68727,5,8,0:0:0:0:
138,372,68902,2,0,L|109:114,1,250.560006117188,4|0,3:2|3:2,0:0:0:0:
248,359,69425,5,8,0:0:0:0:
110,123,69600,2,0,L|138:372,1,250.560006117188,4|0,3:2|3:2,0:0:0:0:
226,156,70123,1,8,0:0:0:0:
94,271,70297,1,0,3:2:0:0:
248,359,70472,6,0,P|294:341|361:331,1,99.1799987893067,6|0,3:2|0:0,0:0:0:0:
190,247,70820,2,0,P|140:256|80:276,1,99.1799987893067,10|0,0:2|0:0,0:0:0:0:
291,149,71169,2,0,P|295:65|196:9,1,198.359997578613,2|8,3:2|0:0,0:0:0:0:
30,216,71693,1,2,0:0:0:0:
93,270,71867,6,0,P|141:255|190:247,1,99.1799987893067,2|0,3:2|0:0,0:0:0:0:
342,331,72216,2,0,P|294:340|248:359,1,99.1799987893067,10|0,0:2|0:0,0:0:0:0:
30,216,72565,2,0,P|13:123|86:65,1,198.359997578613,2|10,3:2|0:0,0:0:0:0:
301,216,73088,1,2,0:0:0:0:
247,359,73262,5,4,3:2:0:0:
189,247,73437,1,2,0:0:0:0:
354,56,73611,5,10,0:0:0:0:
414,187,73786,1,2,0:0:0:0:
224,141,73960,5,2,3:2:0:0:
266,16,74134,1,2,0:0:0:0:
414,187,74309,5,8,0:0:0:0:
374,307,74483,1,2,0:0:0:0:
301,216,74658,6,0,P|312:171|336:111,1,99.1799987893067,4|2,3:2|0:0,0:0:0:0:
489,265,75006,2,0,P|477:309|454:370,1,99.1799987893067,10|2,0:2|0:0,0:0:0:0:
331,121,75355,6,0,P|273:118|220:237,1,198.359997578613,8|0,0:0|3:0,0:0:0:0:
102,346,75879,1,8,3:0:0:0:
23,222,76053,6,0,B|93:193|93:193|132:225|112:268,1,146.159995539551,4|2,3:2|0:0,0:0:0:0:
260,378,76576,1,0,3:2:0:0:
329,342,76751,6,0,P|344:264|367:184,1,146.159995539551,8|2,0:0|0:0,0:0:0:0:
227,97,77274,1,2,3:2:0:0:
301,7,77448,6,0,P|344:46|324:107,1,107.879995720093,12|0,0:0|3:2,0:0:0:0:
198,202,77797,1,8,0:0:0:0:
295,160,77972,1,0,3:2:0:0:
152,39,78146,2,0,P|98:73|106:178,1,161.819993580139,12|0,0:0|0:0,0:0:0:0:
95,163,78495,1,2,3:2:0:0:
227,97,78669,1,2,3:2:0:0:
372,272,78844,1,12,3:2:0:0:
372,272,79193,6,0,L|313:252,1,53.9399978600465,2|0,3:2|0:0,0:0:0:0:
291,275,79367,2,0,L|232:295,1,53.9399978600465,2|0,0:2|0:0,0:0:0:0:
136,358,79541,5,8,0:0:0:0:
128,343,79629,1,8,0:0:0:0:
129,328,79716,1,8,0:0:0:0:
136,313,79803,1,8,0:0:0:0:
148,299,79890,2,0,P|155:272|159:241,1,53.9399978600465,2|0,3:2|0:0,0:0:0:0:
95,162,80065,2,0,P|90:136|88:100,1,53.9399978600465,10|8,0:0|0:0,0:0:0:0:
225,0,80239,6,0,P|295:22|301:164,1,215.759991440186,4|8,3:2|0:0,0:0:0:0:
286,187,80675,1,8,0:0:0:0:
335,179,80762,1,8,0:0:0:0:
375,209,80850,1,8,0:0:0:0:
390,257,80937,1,12,3:2:0:0:
232,99,81111,1,4,3:2:0:0:
95,162,81286,6,0,P|88:195|86:222,1,57.4200017523194,2|0,0:0|0:0,0:0:0:0:
0,257,81634,6,0,B|82:230|82:230|84:271|103:317,1,161.819993580139,4|0,3:2|0:0,0:0:0:0:
170,371,81983,6,0,B|149:339|109:342|109:342|85:377|31:381,1,135.719999171631,2|0,3:2|0:0,0:0:0:0:
43,384,82332,2,0,P|29:357|33:312,1,62.6400015292969,8|0,0:0|0:0,0:0:0:0:
256,193,82506,2,0,L|281:63,1,125.280003058594,8|0,0:0|3:2,0:0:0:0:
156,201,82855,6,0,B|272:174|242:269|357:245,1,215.759991440186,12|0,0:2|0:0,0:0:0:0:
449,102,83379,1,0,3:2:0:0:
380,135,83553,1,0,0:0:0:0:
500,254,83727,2,0,P|508:233|508:193,1,45.239999723877,8|0,0:0|0:0,0:0:0:0:
316,48,83902,1,8,0:0:0:0:
264,50,83989,1,8,0:0:0:0:
232,78,84076,1,0,3:0:0:0:
228,107,84163,1,0,3:0:0:0:
232,123,84251,1,8,3:0:0:0:
240,129,84338,1,8,3:0:0:0:
245,126,84425,6,0,P|255:76|265:9,1,107.879995720093,6|0,3:2|0:0,0:0:0:0:
436,197,84774,2,0,P|425:246|416:314,1,90.4799994477539,2|0,3:2|0:0,0:0:0:0:
119,384,85123,6,0,P|126:356|133:310,1,62.6400015292969,8|0,0:0|0:0,0:0:0:0:
281,218,85297,2,0,P|327:260|305:345,1,125.280003058594,8|0,0:0|3:2,0:0:0:0:
153,205,85646,6,0,B|106:125|-8:132|0:223|83:179,1,215.759991440186,12|2,0:0|0:0,0:0:0:0:
232,78,86169,1,0,3:2:0:0:
162,39,86344,1,2,0:0:0:0:
281,220,86518,5,8,0:0:0:0:
324,230,86605,1,8,0:0:0:0:
367,214,86693,1,8,0:0:0:0:
380,167,86780,1,8,0:0:0:0:
370,154,86867,5,0,3:2:0:0:
383,107,86954,1,0,3:0:0:0:
426,86,87041,1,0,3:0:0:0:
471,93,87129,1,0,3:0:0:0:
482,111,87216,6,0,P|468:164|455:233,1,107.879995720093,4|0,3:2|3:2,0:0:0:0:
509,284,87477,1,8,0:0:0:0:
509,284,87565,1,8,0:0:0:0:
509,284,87652,1,8,0:0:0:0:
509,284,87739,2,0,P|442:256|344:237,1,161.819993580139,4|8,3:2|0:0,0:0:0:0:
296,186,88088,2,0,P|282:216|279:258,1,53.9399978600465,8|8,0:0|0:0,0:0:0:0:
151,384,88262,6,0,P|143:328|119:250,1,107.879995720093,4|8,3:2|0:0,0:0:0:0:
69,228,88524,1,8,0:0:0:0:
32,264,88611,1,8,0:0:0:0:
41,313,88698,1,8,0:0:0:0:
79,332,88786,6,0,P|154:318|239:290,1,161.819993580139,4|0,3:2|0:0,0:0:0:0:
281,236,89134,1,0,3:2:0:0:
281,236,89222,1,0,3:2:0:0:
281,236,89309,5,8,3:2:0:0:
160,120,89483,1,0,3:2:0:0:
275,44,89658,6,0,B|255:96|246:152|246:152|182:174|159:118,1,215.759991440186,12|2,0:2|0:0,0:0:0:0:
273,39,90181,5,2,0:0:0:0:
346,73,90355,5,2,0:0:0:0:
370,123,90530,5,2,0:0:0:0:
368,155,90704,5,2,0:0:0:0:
357,175,90879,5,2,0:0:0:0:
363,192,91053,5,2,0:0:0:0:
370,197,91227,5,2,0:0:0:0:
375,192,91402,6,0,P|386:117|402:42,2,146.159995539551,4|8|2,3:2|0:0|3:2,0:0:0:0:
219,376,92448,5,0,3:2:0:0:
347,289,92623,1,8,0:0:0:0:
284,245,92797,2,0,B|244:275|269:321|269:321,1,73.0799977697755,0|2,3:2|0:0,0:0:0:0:
407,383,93146,2,0,B|473:333|430:250|430:250,1,146.159995539551,2|2,3:2|3:2,0:0:0:0:
187,101,93844,6,0,L|62:130,1,109.619996654663,12|0,0:0|0:0,0:0:0:0:
80,125,94193,2,0,P|90:162|97:209,1,73.0799977697755,2|0,3:2|0:0,0:0:0:0:
260,279,94541,2,0,B|220:236|237:174|237:174,1,109.619996654663,10|0,0:0|0:0,0:0:0:0:
236,176,94890,2,0,P|270:164|320:153,1,73.0799977697755,2|0,3:2|0:0,0:0:0:0:
113,300,95239,1,0,3:2:0:0:
43,321,95413,1,8,0:0:0:0:
161,230,95588,1,0,3:2:0:0:
341,296,95937,6,0,B|401:310|432:246,1,109.619996654663,12|0,0:0|0:0,0:0:0:0:
465,244,96286,1,8,0:0:0:0:
435,276,96373,1,8,0:0:0:0:
441,321,96460,1,8,0:0:0:0:
474,342,96547,1,8,0:0:0:0:
512,335,96634,1,2,3:2:0:0:
215,83,96983,6,0,L|135:62,1,73.0799977697755,2|0,0:0|0:0,0:0:0:0:
76,49,97245,1,0,3:0:0:0:
76,49,97332,2,0,B|99:-2|163:10|163:10|106:35|81:97|110:141,1,250.560006117188,12|2,0:0|3:2,0:0:0:0:
285,31,97855,1,0,3:2:0:0:
459,134,98030,6,0,B|488:117|491:66|491:66|477:107|435:128,1,161.819993580139,10|0,0:2|0:2,0:2:0:0:
365,155,98379,2,0,P|319:145|285:98,1,90.4799994477539,2|0,3:2|3:2,0:0:0:0:
38,264,98727,6,0,B|123:232|123:232|126:269|138:303,1,161.819993580139,10|0,0:0|0:0,0:0:0:0:
209,338,99076,1,0,3:2:0:0:
366,242,99251,1,0,3:2:0:0:
424,294,99425,2,0,B|459:318|461:362|461:362|446:321|374:285,1,161.819993580139,8|0,0:0|0:0,0:0:0:0:
366,242,99774,6,0,P|311:270|312:328,1,107.879995720093,2|0,3:2|3:2,0:0:0:0:
181,153,100123,2,0,P|193:99|203:22,1,107.879995720093,10|0,0:0|0:0,0:0:0:0:
270,20,100472,1,2,3:2:0:0:
105,125,100646,1,0,3:2:0:0:
224,226,100820,2,0,B|143:192|192:147|94:121,1,161.819993580139,10|0,0:0|0:0,0:0:0:0:
76,55,101169,6,0,P|68:130|53:222,1,146.159995539551,4|2,3:2|0:0,0:0:0:0:
57,199,101693,1,2,0:0:0:0:
194,299,101867,1,8,0:0:0:0:
224,226,102041,6,0,P|128:246|78:346,1,215.759991440186,4|0,3:2|3:2,0:0:0:0:
398,152,102565,6,0,P|412:88|417:5,1,146.159995539551,4|0,3:2|0:0,0:0:0:0:
398,152,103088,1,0,3:2:0:0:
254,45,103262,6,0,P|234:135|231:235,1,187.920004587891,10|0,0:0|0:0,0:0:0:0:
230,230,103611,2,0,P|266:235|306:250,1,73.0799977697755,2|0,0:0|3:2,0:0:0:0:
191,138,103960,1,2,3:2:0:0:
315,250,104134,1,8,0:0:0:0:
160,372,104309,2,0,L|148:280,1,73.0799977697755,2|0,0:0|3:2,0:0:0:0:
376,128,104658,6,0,B|294:148|294:148|305:192|316:258,1,187.920004587891,10|0,0:0|0:0,0:0:0:0:
325,260,105006,1,2,0:0:0:0:
191,138,105181,1,0,3:2:0:0:
87,220,105355,6,0,P|40:229|-15:248,2,90.4799994477539,4|0|0,3:2|0:0|0:0,0:0:0:0:
191,138,105879,1,0,3:2:0:0:
162,0,106053,6,0,P|91:40|126:149,1,187.920004587891,12|0,0:0|0:0,0:0:0:0:
104,134,106402,1,2,0:0:0:0:
230,246,106576,1,2,0:0:0:0:
139,359,106751,5,4,3:2:0:0:
139,359,106867,2,0,P|143:326|165:285,1,71.9199971467286,8|8,0:0|0:0,0:0:0:0:
234,250,107100,5,2,3:2:0:0:
234,250,107216,2,0,P|270:260|299:288,1,71.9199971467286,8|8,3:0|3:0,0:0:0:0:
388,359,107448,5,2,3:2:0:0:
455,378,107565,1,8,3:0:0:0:
494,318,107681,1,8,3:0:0:0:
444,262,107797,2,0,P|431:227|431:178,1,71.9199971467286,2|0,3:2|3:0,0:0:0:0:
477,131,108030,1,0,3:2:0:0:
426,78,108146,1,4,3:2:0:0:
426,78,108495,6,0,L|355:100,1,64.3800015717774,0|0,3:2|3:2,0:0:0:0:
222,189,108844,1,0,3:2:0:0:
288,232,109018,1,0,3:2:0:0:
197,113,109193,5,8,3:2:0:0:
284,308,109367,1,8,3:2:0:0:
261,77,109541,6,0,L|215:276,1,187.920004587891,12|0,0:0|0:0,0:0:0:0:
218,260,109890,1,8,3:2:0:0:
97,161,110065,2,0,P|105:131|113:92,1,62.6400015292969,2|8,0:0|0:0,0:0:0:0:
283,0,110239,5,8,0:0:0:0:
334,14,110326,1,8,0:0:0:0:
349,60,110413,2,0,P|337:94|334:126,1,62.6400015292969,8|0,0:0|0:0,0:0:0:0:
141,0,110588,6,0,P|169:10|206:21,1,62.6400015292969,2|8,3:2|0:0,0:0:0:0:
375,233,110762,2,0,P|348:220|312:210,1,62.6400015292969,10|8,0:0|0:0,0:0:0:0:
111,100,110937,6,0,P|41:111|30:216,1,187.920004587891,12|0,0:0|0:0,0:0:0:0:
14,290,111286,2,0,P|43:287|84:264,1,62.6400015292969,10|8,0:0|0:0,0:0:0:0:
250,141,111460,6,0,P|324:141|373:242,1,187.920004587891,6|0,3:2|0:0,0:0:0:0:
439,274,111809,2,0,P|415:297|378:305,1,62.6400015292969,10|8,0:0|0:0,0:0:0:0:
214,224,111983,6,0,L|239:17,1,187.920004587891,4|0,3:2|0:0,0:0:0:0:
301,0,112332,2,0,P|313:38|300:79,1,62.6400015292969,8|8,0:0|0:0,0:0:0:0:
128,184,112506,6,0,P|92:249|162:345,1,187.920004587891,4|0,3:2|0:0,0:0:0:0:
208,384,112855,2,0,P|218:357|219:311,1,62.6400015292969,8|8,0:0|0:0,0:0:0:0:
393,128,113030,6,0,P|364:140|323:151,1,62.6400015292969,4|0,3:2|0:0,0:0:0:0:
214,224,113204,1,4,3:2:0:0:
214,224,113553,6,0,P|199:141|187:20,1,187.920004587891,12|0,3:2|0:0,0:0:0:0:
192,25,113902,1,0,3:2:0:0:
334,148,114076,5,8,0:0:0:0:
220,323,114251,1,0,3:2:0:0:
129,185,114425,5,8,0:0:0:0:
275,384,114600,1,0,3:2:0:0:
413,210,114774,6,0,B|440:157|440:157|415:85,1,125.280003058594,8|0,0:0|3:2,0:0:0:0:
124,281,115123,2,0,L|139:358,1,62.6400015292969,12|0,0:0|0:0,0:0:0:0:
285,254,115297,2,0,L|272:174,1,62.6400015292969,4|0,3:2|0:0,0:0:0:0:
285,254,115820,5,8,0:0:0:0:
135,342,115995,2,0,P|79:283|120:165,1,187.920004587891,4|0,3:2|0:0,0:0:0:0:
37,138,116344,2,0,P|60:117|89:107,1,62.6400015292969,2|0,3:2|0:0,0:0:0:0:
378,231,116518,6,0,P|364:279|356:341,1,99.1799987893067,4|2,3:2|0:0,0:0:0:0:
229,176,116867,2,0,P|242:127|251:66,1,99.1799987893067,10|2,0:2|0:0,0:0:0:0:
401,8,117216,2,0,P|475:52|445:166,1,198.359997578613,2|10,3:2|0:0,0:0:0:0:
309,24,117739,1,2,0:0:0:0:
249,79,117913,6,0,P|242:128|229:176,1,99.1799987893067,2|2,3:2|0:0,0:0:0:0:
357,327,118262,2,0,P|364:278|378:231,1,99.1799987893067,10|2,0:2|0:0,0:0:0:0:
249,79,118611,2,0,P|176:92|136:207,1,198.359997578613,2|10,3:2|0:0,0:0:0:0:
0,326,119134,1,2,0:0:0:0:
23,250,119309,6,0,B|122:223|122:223|113:275|122:310,1,187.920004587891,6|0,3:2|0:0,0:0:0:0:
135,316,119658,1,8,0:0:0:0:
39,163,119832,1,2,0:0:0:0:
195,30,120006,6,0,P|180:82|170:132,1,99.1799987893067,2|0,3:2|0:0,0:0:0:0:
306,356,120355,2,0,P|318:310|326:252,1,99.1799987893067,10|0,0:0|0:0,0:0:0:0:
408,100,120704,6,0,P|365:117|306:131,1,99.1799987893067,2|0,3:2|0:0,0:0:0:0:
135,316,121053,2,0,P|181:301|236:293,1,99.1799987893067,10|0,0:0|0:0,0:0:0:0:
184,25,121402,6,0,P|160:97|151:175,1,148.76999818396,2|0,3:2|0:2,0:2:0:0:
162,185,121751,1,10,0:0:0:0:
235,157,121925,1,2,0:0:0:0:
450,293,122100,5,4,3:2:0:0:
376,314,122274,1,2,0:0:0:0:
325,258,122448,2,0,P|335:208|354:153,1,99.1799987893067,10|2,0:0|0:0,0:0:0:0:
184,25,122797,5,2,3:2:0:0:
256,9,122972,1,2,0:0:0:0:
235,157,123146,5,10,0:0:0:0:
162,184,123320,1,2,0:0:0:0:
331,89,123495,5,4,3:2:0:0:
350,162,123669,1,2,0:0:0:0:
130,112,123844,5,8,0:0:0:0:
105,41,124018,1,2,0:0:0:0:
235,157,124193,5,2,3:2:0:0:
221,244,124367,1,2,0:0:0:0:
205,328,124541,1,10,0:0:0:0:
235,157,124716,1,2,3:2:0:0:
327,311,124890,6,0,P|304:303|268:295,1,49.5899993946533,12|0,0:0|0:0,0:0:0:0:
205,328,125065,1,0,3:2:0:0:
136,87,125239,6,0,P|159:95|195:103,1,49.5899993946533,12|0,0:0|0:0,0:0:0:0:
235,157,125414,1,0,3:2:0:0:
140,231,125588,5,8,0:0:0:0:
270,55,125762,1,0,3:2:0:0:
183,100,125937,5,8,0:0:0:0:
327,311,126111,2,0,P|393:241|354:98,1,250.560006117188,4|0,3:2|3:2,0:0:0:0:
140,231,126634,5,8,0:0:0:0:
359,102,126809,2,0,P|399:215|326:310,1,250.560006117188,4|0,3:2|3:2,0:0:0:0:
325,310,127245,1,0,3:2:0:0:
325,310,127332,1,12,0:0:0:0:
207,187,127506,1,2,0:0:0:0:
140,231,127681,6,0,P|95:247|36:260,1,99.1799987893067,6|0,3:2|0:0,0:0:0:0:
263,129,128030,2,0,P|308:113|367:100,1,99.1799987893067,8|0,0:2|0:0,0:0:0:0:
484,258,128379,2,0,P|412:336|319:300,1,198.359997578613,2|8,3:2|0:0,0:0:0:0:
426,140,128902,1,2,0:0:0:0:
358,101,129076,6,0,P|309:112|263:129,1,99.1799987893067,2|0,3:2|0:0,0:0:0:0:
44,258,129425,2,0,P|92:246|139:230,1,99.1799987893067,10|2,0:2|0:0,0:0:0:0:
73,19,129774,2,0,P|1:51|10:171,1,198.359997578613,2|10,3:2|0:0,0:0:0:0:
199,42,130297,1,2,0:0:0:0:
333,185,130472,5,4,3:2:0:0:
191,115,130646,1,2,0:0:0:0:
139,176,130820,5,10,0:2:0:0:
0,238,130995,1,2,0:0:0:0:
0,159,131169,5,2,3:2:0:0:
153,261,131344,1,2,0:0:0:0:
210,314,131518,5,10,0:0:0:0:
381,247,131693,1,2,0:0:0:0:
212,18,131867,6,0,P|197:69|190:125,1,99.1799987893067,4|0,3:2|0:0,0:0:0:0:
381,247,132216,2,0,P|394:203|404:148,1,99.1799987893067,10|0,0:0|0:0,0:0:0:0:
153,261,132565,5,0,3:2:0:0:
210,314,132681,2,0,P|243:304|279:284,1,66.1199991928711,8|8,3:0|3:0,0:0:0:0:
403,150,132913,5,0,3:2:0:0:
347,97,133030,2,0,P|326:126|318:169,1,66.1199991928711,8|8,3:0|3:0,0:0:0:0:
488,338,133262,6,0,L|473:167,1,146.159995539551,6|2,3:2|0:0,0:0:0:0:
270,289,133786,1,0,3:2:0:0:
109,41,133960,6,0,L|83:199,1,146.159995539551,14|2,0:0|3:2,0:0:0:0:
270,289,134483,1,0,3:2:0:0:
316,221,134658,5,10,0:0:0:0:
190,271,134832,1,0,3:2:0:0:
337,339,135006,5,10,0:0:0:0:
226,198,135181,1,2,3:2:0:0:
76,273,135355,1,8,0:0:0:0:
240,97,135617,5,8,0:0:0:0:
240,97,135704,1,0,3:2:0:0:
233,141,135791,1,8,3:0:0:0:
205,170,135879,1,0,3:2:0:0:
163,178,135966,1,0,3:2:0:0:
150,175,136053,6,0,P|126:115|135:15,1,146.159995539551,4|2,3:2|3:2,0:0:0:0:
265,130,136576,1,2,0:0:0:0:
121,274,136751,5,10,0:0:0:0:
121,274,136838,1,2,0:0:0:0:
121,274,136925,2,0,L|63:257,1,49.5899993946533,2|2,0:0|0:0,0:0:0:0:
254,355,137100,1,10,0:0:0:0:
254,355,137187,1,2,0:0:0:0:
254,355,137274,2,0,L|312:338,1,49.5899993946533,2|2,0:0|0:0,0:0:0:0:
486,107,137448,6,0,P|404:101|334:189,1,198.359997578613,12|8,0:0|0:0,0:0:0:0:
306,221,137884,1,8,0:0:0:0:
321,180,137972,1,0,3:2:0:0:
293,134,138059,1,0,3:2:0:0:
241,125,138146,1,4,3:2:0:0:
370,278,138320,1,4,3:2:0:0:
304,334,138495,6,0,P|272:340|234:352,1,57.4200017523194,2|0,0:0|0:0,0:0:0:0:
248,347,138844,5,4,3:2:0:0:
475,170,139018,2,0,L|487:96,1,64.3800015717774,0|0,3:2|0:0,0:0:0:0:
512,250,139367,5,2,3:2:0:0:
287,63,139541,2,0,L|277:-13,1,64.3800015717774,8|0,0:2|0:0,0:0:0:0:
385,74,139890,5,8,0:0:0:0:
162,226,140065,2,0,L|236:211,2,64.3800015717774,0|0|8,3:2|0:0|0:0,0:0:0:0:
162,226,140762,5,0,3:2:0:0:
34,131,140937,1,8,0:0:0:0:
179,34,141111,5,8,3:0:0:0:
168,52,141198,1,8,3:0:0:0:
164,35,141286,1,0,3:0:0:0:
181,50,141373,1,0,3:0:0:0:
158,45,141460,1,8,3:0:0:0:
186,39,141547,1,8,3:0:0:0:
172,46,141634,5,4,3:2:0:0:
16,193,141809,2,0,L|36:120,1,64.3800015717774,0|0,3:2|0:0,0:0:0:0:
8,57,142158,5,4,3:2:0:0:
281,260,142332,2,0,L|266:175,1,64.3800015717774,10|0,0:0|0:0,0:0:0:0:
329,135,142681,5,12,0:0:0:0:
115,336,142855,2,0,B|143:189,1,128.760003143555,0|8,3:2|0:0,0:0:0:0:
139,209,143379,1,0,3:2:0:0:
312,330,143553,1,8,0:0:0:0:
313,339,143640,1,8,0:0:0:0:
306,333,143727,1,8,0:0:0:0:
281,260,143902,1,0,3:2:0:0:
387,291,144076,5,8,3:0:0:0:
235,377,144251,1,0,3:2:0:0:
350,214,144425,5,12,0:0:0:0:
512,384,144600,2,0,L|442:362,1,64.3800015717774,0|0,3:2|0:0,0:0:0:0:
478,122,144948,5,6,3:2:0:0:
219,277,145123,2,0,L|294:256,1,64.3800015717774,10|0,0:0|0:0,0:0:0:0:
258,32,145472,5,4,3:2:0:0:
445,195,145646,2,0,L|416:54,1,128.760003143555,0|0,3:2|0:0,0:0:0:0:
419,68,146169,1,2,0:0:0:0:
322,146,146344,1,2,0:0:0:0:
321,152,146431,1,2,0:0:0:0:
326,151,146518,1,10,0:0:0:0:
258,107,146693,1,2,0:0:0:0:
236,124,146867,2,0,L|131:150,1,96.5700023576661,2|0,0:0|0:0,0:0:0:0:
125,154,147216,5,4,3:2:0:0:
319,313,147390,2,0,P|328:291|328:248,1,64.3800015717774,0|0,3:2|0:0,0:0:0:0:
423,73,147739,5,4,3:2:0:0:
218,276,147913,2,0,P|208:244|214:203,1,64.3800015717774,8|0,0:0|0:0,0:0:0:0:
92,50,148262,5,4,3:2:0:0:
236,124,148437,2,0,L|99:155,1,128.760003143555,2|8,3:2|0:0,0:0:0:0:
0,266,148960,1,2,0:0:0:0:
76,293,149134,1,0,3:2:0:0:
90,290,149222,1,0,3:2:0:0:
77,282,149309,1,8,0:0:0:0:
14,175,149483,1,0,3:2:0:0:
14,175,149571,1,0,3:2:0:0:
14,175,149658,6,0,L|30:110,1,42.9200010478516,8|8,0:0|3:0,0:0:0:0:
83,78,149890,5,8,3:0:0:0:
47,9,150006,5,4,3:2:0:0:
260,228,150181,2,0,L|195:209,1,64.3800015717774,0|0,3:2|0:0,0:0:0:0:
356,103,150530,5,4,3:2:0:0:
135,344,150704,2,0,L|217:323,1,64.3800015717774,8|0,0:0|0:0,0:0:0:0:
118,190,151053,5,4,3:2:0:0:
335,379,151227,2,0,P|372:327|353:260,1,128.760003143555,2|0,3:2|3:2,0:0:0:0:
416,217,151751,2,0,P|421:186|430:149,1,64.3800015717774,2|0,3:2|0:0,0:0:0:0:
274,11,152100,2,0,P|265:74|249:146,1,128.760003143555,10|0,0:0|0:0,0:0:0:0:
126,198,152623,1,2,0:0:0:0:
126,198,152710,1,2,0:0:0:0:
126,198,152797,5,4,3:2:0:0:
346,60,152972,2,0,L|420:43,1,64.3800015717774,0|0,3:2|0:0,0:0:0:0:
416,217,153320,5,4,3:2:0:0:
146,106,153495,2,0,L|60:124,1,64.3800015717774,8|0,0:0|0:0,0:0:0:0:
274,11,153844,5,4,3:2:0:0:
369,278,154018,2,0,L|392:136,1,128.760003143555,2|10,3:2|0:0,0:0:0:0:
459,123,154541,1,2,0:0:0:0:
311,183,154716,1,2,3:2:0:0:
413,347,154890,2,0,P|375:317|294:310,1,128.760003143555,8|0,0:0|0:0,0:0:0:0:
297,309,155413,1,2,0:0:0:0:
489,195,155588,5,4,3:2:0:0:
240,10,155762,2,0,L|254:75,1,64.3800015717774,0|0,3:2|0:0,0:0:0:0:
127,281,156111,5,4,3:2:0:0:
325,120,156286,2,0,L|308:194,1,64.3800015717774,8|0,0:0|0:0,0:0:0:0:
413,347,156634,5,4,3:2:0:0:
254,226,156809,2,0,L|399:206,1,128.760003143555,0|8,3:2|0:0,0:0:0:0:
223,311,157332,1,2,0:0:0:0:
300,301,157506,1,0,3:2:0:0:
185,129,157681,2,0,P|174:164|169:211,1,64.3800015717774,8|0,0:0|3:2,0:0:0:0:
339,118,158030,2,0,P|348:74|356:18,1,96.5700023576661,8|0,0:0|0:0,0:0:0:0:
350,14,158379,5,4,3:2:0:0:
472,208,158553,2,0,P|444:197|407:188,1,64.3800015717774,0|0,3:2|0:0,0:0:0:0:
225,66,158902,5,4,3:2:0:0:
73,281,159076,2,0,P|102:270|138:262,1,64.3800015717774,8|0,0:0|0:0,0:0:0:0:
355,383,159425,5,4,3:2:0:0:
239,266,159600,2,0,P|247:205|267:125,1,128.760003143555,0|8,3:2|0:0,0:0:0:0:
328,101,160123,1,2,0:0:0:0:
157,30,160297,6,0,L|153:3,2,16.0950003929443,2|0|0,0:0|3:2|3:2,0:0:0:0:
159,43,160472,2,0,P|115:76|19:63,1,128.760003143555,12|0,0:0|3:2,0:0:0:0:
43,76,161169,6,0,P|55:154|62:240,1,163.559997504273,4|0,3:2|3:2,0:0:0:0:
222,295,161693,1,2,0:0:0:0:
222,295,161867,2,0,P|213:256|205:207,2,81.7799987521363,2|0|0,3:2|0:0|3:2,0:0:0:0:
145,273,162390,1,2,0:0:0:0:
81,368,162565,6,0,P|36:328|71:232,1,163.559997504273,2|0,3:2|3:2,0:0:0:0:
147,162,163088,1,2,0:0:0:0:
206,214,163262,2,0,P|247:224|292:242,1,81.7799987521363,2|0,3:2|0:0,0:0:0:0:
126,84,163611,2,0,P|86:75|47:59,1,81.7799987521363,2|0,3:2|0:0,0:0:0:0:
274,5,163960,6,0,P|297:76|242:150,1,163.559997504273,2|0,3:2|3:2,0:0:0:0:
382,274,164483,1,2,0:0:0:0:
382,274,164658,2,0,P|372:235|366:188,1,81.7799987521363,2|0,3:2|0:0,0:0:0:0:
247,323,165006,1,0,3:2:0:0:
267,253,165181,1,2,0:0:0:0:
444,339,165355,6,0,P|401:351|355:370,1,81.7799987521363,2|0,3:2|0:0,0:0:0:0:
267,253,165704,2,0,P|229:241|184:218,1,81.7799987521363,0|2,3:2|0:0,0:0:0:0:
66,282,166053,1,2,3:2:0:0:
170,349,166227,1,2,0:0:0:0:
170,349,166315,1,8,0:0:0:0:
170,349,166402,1,0,3:2:0:0:
276,157,166576,1,2,0:0:0:0:
276,157,166663,1,2,0:0:0:0:
276,157,166751,6,0,B|267:140|277:107|277:107|265:138|238:147,1,100.920000846954,4|0,3:2|0:0,0:0:0:0:
291,255,166983,2,0,B|310:255|333:280|333:280|312:254|318:227,1,100.920000846954,4|0,3:2|0:0,0:0:0:0:
199,219,167216,2,0,B|188:235|155:243|155:243|188:238|209:256,1,100.920000846954,4|0,3:2|0:0,0:0:0:0:
362,172,167448,6,0,B|391:165|395:132|395:132|359:135|348:165,1,100.920000846954,4|0,3:2|0:0,0:0:0:0:
238,323,167681,2,0,B|229:351|256:371|256:371|271:338|251:314,1,100.920000846954,4|0,3:2|0:0,0:0:0:0:
170,141,167913,2,0,B|149:119|118:132|118:132|139:162|170:156,1,100.920000846954,4|0,3:2|0:0,0:0:0:0:
337,281,168146,6,0,P|377:310|430:339,1,100.920000846954,4|0,3:2|0:0,0:0:0:0:
156,244,168379,2,0,P|107:263|59:295,1,100.920000846954,4|0,3:2|0:0,0:0:0:0:
275,102,168611,2,0,P|283:54|299:-3,1,100.920000846954,4|0,3:2|0:0,0:0:0:0:
228,379,168844,6,0,P|238:342|249:281,1,100.920000846954,4|0,3:2|0:0,0:0:0:0:
85,86,169076,2,0,P|125:116|169:139,1,100.920000846954,4|0,3:2|0:0,0:0:0:0:
450,124,169309,2,0,P|403:144|361:171,1,100.920000846954,4|0,3:2|0:0,0:0:0:0:
262,197,169541,5,4,3:2:0:0:
262,197,169890,5,2,3:2:0:0:
169,139,170065,1,2,0:0:0:0:
20,288,170239,5,8,3:2:0:0:
31,271,170326,1,8,0:0:0:0:
52,264,170413,1,8,0:0:0:0:
73,264,170501,1,8,0:0:0:0:
83,274,170588,5,8,3:2:0:0:
106,308,170675,1,8,0:0:0:0:
147,322,170762,1,8,0:0:0:0:
185,306,170850,1,8,0:0:0:0:
193,289,170937,6,0,L|166:119,1,151.380001270432,4|0,3:2|3:2,0:0:0:0:
116,89,171198,1,0,3:2:0:0:
116,89,171286,1,8,0:0:0:0:
151,52,171373,1,8,0:0:0:0:
204,43,171460,1,0,3:2:0:0:
252,67,171547,1,0,3:2:0:0:
270,116,171634,5,2,3:2:0:0:
287,132,171722,1,0,3:2:0:0:
309,140,171809,1,8,3:3:0:0:
335,131,171896,1,8,3:3:0:0:
376,70,171983,5,8,0:0:0:0:
169,139,172158,1,2,0:0:0:0:
334,249,172332,6,0,B|403:231|429:293|429:293|374:332|399:393,2,215.759991440186,4|8|0,3:2|0:0|3:2,0:0:0:0:
469,364,173204,1,2,0:0:0:0:
446,189,173379,5,8,0:0:0:0:
312,332,173553,1,2,0:0:0:0:
257,273,173727,6,0,L|194:256,1,53.9399978600465,2|2,3:2|0:0,0:0:0:0:
71,220,173902,1,2,0:0:0:0:
150,68,174076,6,0,B|184:112|184:112|165:174,1,107.879995720093,10|0,0:0|0:0,0:0:0:0:
19,293,174425,2,0,B|-23:227|-23:227|15:153,1,161.819993580139,2|0,3:2|0:0,0:0:0:0:
24,140,174774,1,10,0:0:0:0:
204,258,174948,1,2,0:0:0:0:
112,366,175123,5,4,3:2:0:0:
93,294,175297,1,2,0:0:0:0:
264,205,175472,5,8,0:0:0:0:
284,278,175646,1,2,0:0:0:0:
168,161,175820,5,2,3:2:0:0:
168,161,175995,2,0,P|176:111|196:36,1,107.879995720093,2|8,0:0|0:0,0:0:0:0:
74,193,176344,2,0,P|81:168|88:126,1,53.9399978600465,2|0,0:0|0:0,0:0:0:0:
265,107,176518,6,0,P|338:113|376:188,1,161.819993580139,2|0,3:2|0:0,0:0:0:0:
376,185,176867,2,0,P|361:239|354:302,1,107.879995720093,10|0,0:0|0:0,0:0:0:0:
410,346,177216,1,2,3:2:0:0:
279,237,177390,1,2,0:0:0:0:
450,275,177565,5,10,0:0:0:0:
278,382,177739,2,0,P|253:371|222:362,1,53.9399978600465,2|0,0:0|0:0,0:0:0:0:
171,209,177913,6,0,P|98:207|69:292,1,143.839994293457,2|0,3:1|0:1,0:0:0:0:
256,164,178262,1,10,0:1:0:0:
256,164,178379,2,0,P|269:133|270:86,1,71.9199971467286,2|0,0:1|0:1,0:0:0:0:
174,37,178611,1,2,3:1:0:0:
174,37,178727,2,0,P|161:68|160:115,1,71.9199971467286,2|0,0:1|0:1,0:0:0:0:
322,217,178960,1,10,0:1:0:0:
398,227,179076,1,2,0:1:0:0:
457,173,179193,1,2,0:1:0:0:
444,94,179309,6,0,P|436:63|428:17,1,71.9199971467286,6|0,3:1|0:1,0:0:0:0:
240,174,179541,1,2,0:1:0:0:
240,174,179658,2,0,P|250:211|258:255,1,71.9199971467286,10|0,0:1|0:1,0:0:0:0:
414,343,179890,1,2,0:1:0:0:
345,384,180006,6,0,P|333:354|333:308,1,71.9199971467286,2|0,3:1|0:1,0:0:0:0:
401,227,180239,1,2,0:1:0:0:
240,174,180355,6,0,L|94:199,1,143.839994293457,10|0,0:1|0:0,0:0:0:0:
22,212,180704,5,12,0:0:0:0:
166,95,180879,1,0,3:2:0:0:
46,134,181053,5,8,0:0:0:0:
256,243,181227,1,0,3:2:0:0:
145,369,181402,6,0,B|120:326|120:326|142:258,1,107.879995720093,8|0,0:0|3:2,0:0:0:0:
341,115,181751,2,0,B|366:158|366:158|344:226,1,107.879995720093,8|0,0:0|3:2,0:0:0:0:
213,318,182100,5,12,0:0:0:0:
108,182,182274,1,8,0:0:0:0:
127,135,182361,1,8,0:0:0:0:
173,116,182448,1,8,3:2:0:0:
226,127,182536,1,0,3:2:0:0:
266,167,182623,1,8,3:0:0:0:
308,198,182710,1,8,3:0:0:0:
348,213,182797,6,0,L|397:202,1,38.2800011682129,12|0,0:2|3:2,0:0:0:0:
511,51,183146,6,0,B|482:-43|346:-34|352:100|442:66,1,250.560006117188,12|6,0:2|3:2,0:0:0:0:
284,210,194658,6,0,P|296:168|301:108,1,90.4799994477539,4|2,3:2|0:0,0:0:0:0:
177,156,195006,2,0,P|165:198|160:258,1,90.4799994477539,2|2,3:2|0:0,0:0:0:0:
339,372,195355,2,0,P|387:312|343:211,1,180.959998895508,2|2,3:2|3:2,0:0:0:0:
220,298,195879,1,2,0:0:0:0:
159,244,196053,6,0,P|164:199|177:156,1,90.4799994477539,2|2,3:2|0:0,0:0:0:0:
301,121,196402,2,0,P|296:166|284:210,1,90.4799994477539,2|2,3:2|0:0,0:0:0:0:
76,272,196751,2,0,P|43:191|93:120,1,180.959998895508,2|2,3:2|3:2,0:0:0:0:
93,120,197274,1,2,0:0:0:0:
224,295,197448,6,0,P|214:339|207:397,1,90.4799994477539,4|0,3:2|0:0,0:0:0:0:
163,249,197797,1,2,3:2:0:0:
163,249,197972,1,2,0:0:0:0:
298,175,198146,1,2,3:2:0:0:
298,175,198320,1,2,0:0:0:0:
194,93,198495,2,0,P|201:140|212:188,1,90.4799994477539,2|2,3:2|0:0,0:0:0:0:
425,348,198844,2,0,P|419:300|386:164,1,180.959998895508,2|2,3:2|3:2,0:0:0:0:
388,171,199541,5,2,3:2:0:0:
305,307,199716,1,8,3:0:0:0:
425,348,199890,5,2,3:2:0:0:
377,258,200065,1,0,3:2:0:0:
448,277,200239,6,0,L|298:308,1,146.159995539551,4|2,3:2|0:0,0:0:0:0:
100,164,200762,1,0,3:2:0:0:
160,117,200937,2,0,P|228:157|220:247,1,161.819993580139,8|0,0:0|0:0,0:0:0:0:
229,233,201286,1,2,0:0:0:0:
63,354,201460,1,0,3:2:0:0:
16,297,201634,6,0,P|26:255|34:207,1,90.4799994477539,8|0,0:0|3:2,0:0:0:0:
169,342,201983,2,0,P|217:355|262:372,1,90.4799994477539,10|2,0:0|3:2,0:0:0:0:
384,176,202332,2,0,P|309:144|230:245,1,215.759991440186,8|0,0:0|3:2,0:0:0:0:
160,263,202855,1,0,3:2:0:0:
59,73,203030,5,12,0:0:0:0:
68,81,203379,1,0,3:2:0:0:
68,81,203466,1,2,0:2:0:0:
68,81,203553,6,0,P|92:92|120:110,1,53.9399978600465,2|2,0:0|0:0,0:0:0:0:
226,174,203727,1,2,3:2:0:0:
226,174,203815,1,0,3:2:0:0:
226,174,203902,6,0,P|200:185|174:208,1,53.9399978600465,0|0,3:2|3:2,0:0:0:0:
58,375,204076,1,8,0:0:0:0:
106,363,204163,1,8,0:0:0:0:
143,329,204251,1,8,0:0:0:0:
141,278,204338,1,8,0:0:0:0:
107,239,204425,1,12,0:0:0:0:
107,239,205123,5,0,3:2:0:0:
336,379,205297,2,0,P|285:327|314:236,1,161.819993580139,12|0,0:0|0:0,0:0:0:0:
300,174,205646,1,8,0:0:0:0:
300,174,205733,1,8,0:0:0:0:
300,174,205820,6,0,P|348:187|395:211,1,99.1799987893067,6|2,3:2|0:0,0:0:0:0:
253,330,206169,2,0,P|204:316|158:293,1,99.1799987893067,10|2,0:2|0:0,0:0:0:0:
33,135,206518,2,0,P|80:79|198:94,1,198.359997578613,2|10,3:2|0:0,0:0:0:0:
119,226,207041,1,2,0:0:0:0:
160,294,207216,6,0,P|205:316|253:330,1,99.1799987893067,2|2,3:2|0:0,0:0:0:0:
392,209,207565,2,0,P|347:187|300:174,1,99.1799987893067,10|2,0:2|0:0,0:0:0:0:
453,307,207913,2,0,P|505:265|473:144,1,198.359997578613,2|10,3:2|0:0,0:0:0:0:
330,28,208437,1,2,0:0:0:0:
330,28,208524,1,2,0:0:0:0:
330,28,208611,6,0,B|301:116|301:116|331:172|389:145,1,187.920004587891,4|0,3:2|0:0,0:0:0:0:
428,90,208960,1,8,0:0:0:0:
265,210,209134,1,2,0:0:0:0:
341,224,209309,2,0,P|382:190|369:134,1,99.1799987893067,2|0,3:2|0:0,0:0:0:0:
224,276,209658,2,0,P|216:327|256:364,1,99.1799987893067,10|0,0:0|0:0,0:0:0:0:
219,141,210006,6,0,P|185:105|111:96,1,99.1799987893067,2|0,3:2|0:0,0:0:0:0:
341,224,210355,2,0,L|444:200,1,99.1799987893067,8|0,0:0|0:0,0:0:0:0:
245,360,210704,2,0,B|190:342|190:342|170:313|170:313|93:290,1,148.76999818396,2|0,3:2|0:0,0:0:0:0:
101,292,211053,1,8,0:0:0:0:
48,343,211227,1,2,0:0:0:0:
190,213,211402,5,4,3:2:0:0:
175,138,211576,1,2,0:0:0:0:
159,64,211751,1,8,0:0:0:0:
252,164,211925,5,2,0:0:0:0:
190,213,212100,1,0,3:2:0:0:
159,64,212274,5,2,0:0:0:0:
229,25,212448,1,8,0:0:0:0:
175,138,212623,5,2,0:0:0:0:
89,99,212797,1,2,3:2:0:0:
159,64,212972,1,2,0:2:0:0:
190,213,213146,1,8,0:0:0:0:
346,267,213320,5,2,0:0:0:0:
311,113,213495,1,0,3:2:0:0:
252,164,213669,1,2,0:0:0:0:
293,321,213844,5,10,0:0:0:0:
330,192,214018,1,0,3:2:0:0:
192,104,214193,6,0,B|162:146|162:146|178:209,1,99.1799987893067,8|0,0:0|3:2,0:0:0:0:
351,384,214541,2,0,B|381:342|381:342|365:279,1,99.1799987893067,8|0,0:0|3:2,0:0:0:0:
330,192,214890,5,10,0:0:0:0:
126,262,215065,1,0,3:2:0:0:
293,321,215239,5,8,0:0:0:0:
99,148,215413,2,0,B|41:166|12:233|12:233|5:306|48:347,1,250.560006117188,4|0,3:2|3:2,0:0:0:0:
254,192,215937,5,8,0:0:0:0:
48,347,216111,2,0,B|5:306|12:233|12:233|41:166|99:148,1,250.560006117188,4|0,3:2|3:2,0:0:0:0:
99,148,216547,1,0,3:2:0:0:
99,148,216634,1,8,0:0:0:0:
231,265,216809,1,0,3:2:0:0:
270,246,216896,1,0,3:2:0:0:
293,214,216983,6,0,P|304:167|313:115,1,99.1799987893067,6|2,3:2|0:0,0:0:0:0:
408,224,217332,2,0,P|397:271|388:323,1,99.1799987893067,10|0,0:2|0:0,0:0:0:0:
133,384,217681,2,0,P|107:315|189:225,1,198.359997578613,2|10,3:2|0:0,0:0:0:0:
316,350,218204,1,2,0:0:0:0:
388,321,218379,6,0,P|396:272|407:223,1,99.1799987893067,2|2,3:2|0:0,0:0:0:0:
312,116,218727,2,0,P|304:165|293:214,1,99.1799987893067,10|2,0:2|0:0,0:0:0:0:
491,146,219076,2,0,P|512:80|409:16,1,198.359997578613,2|10,3:2|0:0,0:0:0:0:
312,116,219600,1,2,0:0:0:0:
265,48,219774,5,4,3:2:0:0:
400,132,219948,1,2,0:0:0:0:
219,114,220123,5,10,0:0:0:0:
105,190,220297,1,2,0:0:0:0:
277,206,220472,5,6,3:2:0:0:
133,119,220646,1,2,0:0:0:0:
296,136,220820,5,8,0:0:0:0:
417,34,220995,1,2,0:0:0:0:
277,206,221169,6,0,P|264:256|259:318,1,99.1799987893067,4|2,3:2|0:0,0:0:0:0:
330,336,221431,1,2,0:0:0:0:
330,336,221518,2,0,P|339:297|344:233,1,99.1799987893067,8|0,0:0|0:0,0:0:0:0:
78,34,221867,5,8,0:0:0:0:
21,81,221983,1,8,0:0:0:0:
42,150,222100,1,8,3:0:0:0:
136,184,222216,5,0,3:2:0:0:
187,239,222332,1,0,3:2:0:0:
156,303,222448,1,8,3:0:0:0:
81,374,222565,6,0,L|63:216,1,146.159995539551,6|2,3:2|3:2,0:0:0:0:
217,345,223088,1,2,3:2:0:0:
389,307,223262,6,0,L|407:149,1,146.159995539551,14|2,0:2|3:2,0:0:0:0:
217,345,223785,1,2,0:2:0:0:
64,228,223960,6,0,P|104:195|165:205,1,107.879995720093,12|0,0:0|3:2,0:0:0:0:
400,384,224309,2,0,P|351:378|311:316,1,107.879995720093,10|2,0:0|3:2,0:0:0:0:
211,133,224658,6,0,L|169:300,1,161.819993580139,10|0,0:0|0:0,0:0:0:0:
169,302,225006,1,2,3:2:0:0:
310,205,225181,1,2,3:2:0:0:
148,24,225355,6,0,B|112:66|112:66|129:134,1,107.879995720093,4|0,3:2|0:0,0:0:0:0:
310,205,225704,2,0,B|365:192|365:192|387:156|387:156|458:136,1,161.819993580139,10|0,0:0|0:0,0:0:0:0:
462,136,226053,1,10,0:0:0:0:
338,88,226227,1,0,3:2:0:0:
443,220,226402,5,8,0:0:0:0:
422,294,226576,1,0,3:2:0:0:
211,133,226751,6,0,P|156:128|87:265,1,215.759991440186,12|10,3:2|0:0,0:0:0:0:
211,133,227274,1,2,3:2:0:0:
294,262,227448,6,0,P|245:244|186:230,1,107.879995720093,8|0,0:0|3:2,0:0:0:0:
78,115,227797,1,8,0:0:0:0:
199,213,227972,1,2,0:0:0:0:
12,384,228146,6,0,P|-12:330|12:233,1,161.819993580139,12|0,0:0|0:0,0:0:0:0:
11,233,228495,2,0,P|62:219|128:210,1,107.879995720093,10|2,0:0|0:0,0:0:0:0:
247,144,228844,1,8,0:0:0:0:
146,290,229018,1,0,3:2:0:0:
237,343,229193,5,8,0:0:0:0:
116,211,229367,1,0,3:2:0:0:
354,80,229541,6,0,L|325:192,1,107.879995720093,4|0,3:2|0:0,0:0:0:0:
237,343,229890,1,8,0:0:0:0:
198,318,229977,1,8,3:0:0:0:
186,280,230065,1,0,3:2:0:0:
202,236,230152,1,8,3:0:0:0:
241,212,230239,1,12,0:0:0:0:
410,344,230413,1,12,0:0:0:0:
458,287,230588,6,0,L|443:217,1,57.4200017523194,2|0,0:0|0:0,0:0:0:0:
461,148,230937,6,0,B|427:159|396:165|396:165|374:198|374:198|348:202|310:215,1,161.819993580139,4|0,3:2|0:0,0:0:0:0:
320,211,231286,2,0,P|295:170|321:110,1,90.4799994477539,2|0,3:2|0:0,0:0:0:0:
445,230,231634,2,0,P|452:254|459:303,1,62.6400015292969,8|0,0:0|0:0,0:0:0:0:
230,343,231809,2,0,P|286:357|350:385,1,125.280003058594,8|0,0:2|3:2,0:0:0:0:
175,218,232158,6,0,P|106:202|31:316,1,215.759991440186,12|2,0:0|0:0,0:0:0:0:
175,218,232681,2,0,P|190:181|201:116,1,90.4799994477539,8|2,0:0|0:0,0:0:0:0:
249,71,232943,1,2,0:0:0:0:
249,71,233030,1,8,0:0:0:0:
285,43,233117,1,8,0:0:0:0:
331,46,233204,1,0,3:0:0:0:
363,84,233291,1,0,3:0:0:0:
359,102,233379,5,8,3:0:0:0:
385,144,233466,1,8,3:0:0:0:
434,156,233553,1,0,3:0:0:0:
477,132,233640,1,0,3:0:0:0:
473,122,233727,6,0,B|378:108|412:169|307:151,1,161.819993580139,6|0,3:2|0:0,0:0:0:0:
319,152,234076,2,0,P|309:106|305:53,1,90.4799994477539,2|0,3:2|0:0,0:0:0:0:
175,218,234425,6,0,P|178:246|186:285,1,62.6400015292969,8|0,0:0|0:0,0:0:0:0:
54,103,234600,2,0,P|42:166|21:233,1,125.280003058594,8|0,0:0|3:2,0:0:0:0:
142,21,234948,6,0,B|267:-8|267:-8|222:21|215:74,1,215.759991440186,12|2,0:2|0:2,0:0:0:0:
322,242,235472,1,0,3:2:0:0:
179,129,235646,1,8,0:0:0:0:
373,40,235820,2,0,P|364:89|347:145,1,90.4799994477539,2|8,3:2|0:2,0:2:0:0:
154,222,236169,1,8,0:0:0:0:
154,222,236518,6,0,B|243:244|243:244|226:281|223:314,1,161.819993580139,4|0,3:2|0:0,0:0:0:0:
160,357,236867,2,0,L|63:375,1,90.4799994477539,2|0,3:2|0:2,0:2:0:0:
267,228,237216,6,0,P|274:206|282:158,1,62.6400015292969,12|0,0:0|0:0,0:0:0:0:
106,30,237390,2,0,P|73:74|81:146,1,125.280003058594,8|0,0:0|3:2,0:0:0:0:
267,228,237739,6,0,B|312:200|367:198|367:198|404:125|331:94,1,215.759991440186,12|0,0:0|0:2,0:0:0:0:
194,277,238262,1,8,0:0:0:0:
439,372,238524,5,8,0:0:0:0:
427,363,238611,2,0,L|416:287,1,60.3199996318359,0|0,3:0|3:0,0:0:0:0:
222,153,238844,5,0,3:0:0:0:
213,142,238960,2,0,L|238:12,1,120.639999263672,4|0,3:2|0:0,0:0:0:0:
311,0,239309,6,0,P|349:44|328:108,1,107.879995720093,6|0,3:2|0:0,0:0:0:0:
150,223,239658,2,0,P|124:182|132:124,1,90.4799994477539,2|0,3:2|0:0,0:0:0:0:
235,23,240006,6,0,L|217:111,1,62.6400015292969,12|0,0:0|0:0,0:0:0:0:
359,207,240181,2,0,P|350:267|335:336,1,125.280003058594,8|0,0:0|3:2,0:0:0:0:
203,384,240530,6,0,P|210:328|226:271,1,107.879995720093,12|0,0:0|3:2,0:0:0:0:
359,207,240879,1,0,3:2:0:0:
443,384,241053,5,8,0:0:0:0:
336,330,241227,1,2,0:0:0:0:
425,152,241402,6,0,B|450:190|450:190|434:246,1,90.4799994477539,8|8,0:0|3:0,0:0:0:0:
238,97,241751,1,8,0:0:0:0:
190,80,241838,1,8,0:0:0:0:
143,95,241925,1,8,0:0:0:0:
124,141,242012,1,8,0:0:0:0:
122,154,242100,6,0,P|133:198|143:255,1,99.1799987893067,4|0,3:2|0:0,0:0:0:0:
335,347,242448,2,0,P|323:302|314:246,1,99.1799987893067,10|0,0:2|3:2,0:0:0:0:
491,92,242797,1,8,0:0:0:0:
340,166,242972,1,0,3:2:0:0:
437,233,243146,5,8,0:0:0:0:
277,97,243320,2,0,B|247:139|247:139|261:201,1,99.1799987893067,0|8,3:2|0:0,0:0:0:0:
87,310,243669,1,0,3:2:0:0:
162,362,243844,2,0,B|183:320|183:320|165:259,1,99.1799987893067,8|0,0:0|3:2,0:0:0:0:
22,114,244193,2,0,L|0:218,1,99.1799987893067,8|0,0:0|3:2,0:0:0:0:
162,86,244541,1,8,0:0:0:0:
144,13,244716,1,0,3:2:0:0:
346,154,244890,6,0,P|303:183|245:181,1,99.1799987893067,12|0,0:0|3:2,0:0:0:0:
72,331,245239,2,0,P|120:333|161:361,1,99.1799987893067,8|0,0:0|3:2,0:0:0:0:
1,211,245588,1,12,0:0:0:0:
166,372,245762,1,0,3:2:0:0:
4,291,245937,5,8,0:0:0:0:
248,92,246111,2,0,P|221:185|203:286,1,198.359997578613,4|0,3:2|3:2,0:0:0:0:
120,54,246634,5,10,0:0:0:0:
256,184,246809,1,0,3:2:0:0:
150,140,246983,5,8,0:0:0:0:
311,34,247158,1,0,3:2:0:0:
404,119,247332,5,8,0:0:0:0:
404,119,247419,1,8,0:0:0:0:
404,119,247506,2,0,L|464:134,1,49.5899993946533,8|8,0:0|0:0,0:0:0:0:
276,337,247681,5,12,0:0:0:0:
222,352,247768,1,8,0:0:0:0:
175,326,247855,1,0,3:2:0:0:
160,298,247943,1,0,3:2:0:0:
161,271,248030,1,8,3:0:0:0:
169,257,248117,1,8,3:0:0:0:
176,253,248204,5,12,0:0:0:0:
217,214,248291,1,8,0:0:0:0:
232,160,248379,1,0,3:0:0:0:
214,117,248466,1,0,3:0:0:0:
191,93,248553,1,8,3:0:0:0:
169,86,248640,1,8,3:0:0:0:
161,92,248727,6,0,L|144:172,1,62.6400015292969,12|8,0:0|0:0,0:0:0:0:
306,268,248902,2,0,L|323:189,1,62.6400015292969,0|0,3:2|3:2,0:0:0:0:
454,105,249076,1,0,3:2:0:0:
454,105,249163,1,0,3:2:0:0:
454,105,249251,1,12,0:0:0:0:
385,33,249425,2,0,B|346:79|346:79|365:150,1,125.280003058594,0|0,3:2|3:2,0:0:0:0:
362,141,249687,1,0,3:2:0:0:
362,141,249774,1,8,0:0:0:0:
217,232,249948,5,0,3:2:0:0:
217,232,250036,1,0,3:2:0:0:
217,232,250123,2,0,B|176:216|176:216|158:185|158:185|76:153,1,125.280003058594,8|0,0:0|3:2,0:0:0:0:
86,99,250384,1,0,3:2:0:0:
86,99,250472,5,12,0:0:0:0:
29,114,250559,1,8,0:0:0:0:
10,153,250646,1,0,3:2:0:0:
14,180,250733,1,0,3:2:0:0:
24,196,250820,1,8,3:0:0:0:
37,205,250908,1,8,3:0:0:0:
45,206,250995,5,12,0:0:0:0:
97,217,251082,1,8,0:0:0:0:
132,257,251169,1,0,3:2:0:0:
132,296,251256,1,0,3:2:0:0:
121,314,251344,1,8,3:0:0:0:
113,319,251431,1,8,3:0:0:0:
104,317,251518,6,0,L|91:248,1,62.6400015292969,12|8,0:0|0:0,0:0:0:0:
260,107,251693,2,0,L|270:185,1,62.6400015292969,0|0,3:2|3:2,0:0:0:0:
427,295,251867,1,0,3:2:0:0:
427,295,251954,1,0,3:2:0:0:
427,295,252041,2,0,L|415:225,1,62.6400015292969,12|8,0:0|0:0,0:0:0:0:
248,107,252216,1,0,3:2:0:0:
199,119,252303,1,0,3:2:0:0:
177,155,252390,1,0,3:2:0:0:
185,198,252477,1,0,3:2:0:0:
194,215,252565,6,0,L|263:244,1,62.6400015292969,12|0,0:0|0:0,0:0:0:0:
400,125,252739,1,0,3:2:0:0:
337,249,252913,6,0,B|303:262|266:264|266:264|239:306|239:306|200:308|155:322,1,187.920004587891,12|0,0:0|0:0,0:0:0:0:
174,318,253960,5,4,3:2:0:0:
256,192,254047,12,0,257448,0:0:0:0:
