osu file format v14

[General]
AudioFilename: audio.mp3
AudioLeadIn: 0
PreviewTime: 172333
Countdown: 0
SampleSet: Soft
StackLeniency: 0.9
Mode: 0
LetterboxInBreaks: 0
WidescreenStoryboard: 1

[Editor]
Bookmarks: 1030,20160,49725,83638,100159,108855,140159,157550,173202,194071,214506,221462
DistanceSpacing: 1
BeatDivisor: 4
GridSize: 32
TimelineZoom: 3.499999

[Metadata]
Title:Jinsei Easy?
TitleUnicode:人生イージー?
Artist:DIALOGUE+
ArtistUnicode:DIALOGUE+
Creator:Amateurre
Version:LV.99 Goddess Fuuka
Source:弱キャラ友崎くん
Tags:anime japanese pop j-pop jpop opening jaku chara tomozaki kun bottom tier character tomozaki-kun iljaaz keqing finshie kuse KuBsNia_ZhoYL_ winnie yogurtt lecandy asagi tsukinyuni matha petal
BeatmapID:3088405
BeatmapSetID:1507979

[Difficulty]
HPDrainRate:6
CircleSize:4
OverallDifficulty:9
ApproachRate:9.6
SliderMultiplier:2.44
SliderTickRate:1

[Events]
//Background and Video events
0,0,"DoqxyrCVAAAO5X.jpg",0,0
//Break Periods
2,157750,163097
//Storyboard Layer 0 (Background)
//Storyboard Layer 1 (Fail)
//Storyboard Layer 2 (Pass)
//Storyboard Layer 3 (Foreground)
//Storyboard Layer 4 (Overlay)
//Storyboard Sound Samples

[TimingPoints]
1030,434.782608695652,4,2,1,60,1,0
1030,-96.1538461538461,4,2,1,60,0,0
4508,-80.6451612903226,4,2,1,60,0,0
6247,-80.6451612903226,4,2,1,70,0,0
7986,-96.153846153846,4,2,1,70,0,0
11464,-54.3478260869565,4,2,1,70,0,0
12334,-106.382978723404,4,2,1,70,0,0
13203,-74.6268656716417,4,2,1,75,0,0
18529,-64.9350649350649,4,2,1,75,0,0
20160,-119.047619047619,4,2,1,60,0,0
25377,-50,4,2,1,60,0,0
26899,-66.6666666666667,4,2,1,60,0,0
27116,-66.6666666666667,4,2,1,70,0,0
27551,-76.9230769230769,4,2,1,70,0,0
32334,-66.6666666666667,4,2,1,70,0,0
33638,-500,4,2,1,70,0,0
34073,-83.3333333333333,4,2,1,70,0,0
39399,-66.6666666666667,4,2,1,70,0,0
41029,-76.9230769230769,4,2,1,70,0,0
45885,-66.6666666666667,4,2,1,70,0,0
46247,-100,4,2,1,70,0,0
47189,-66.6666666666667,4,2,1,70,0,0
48095,-250,4,2,1,70,0,0
49290,-47.6190476190476,4,2,1,70,0,0
49725,-66.6666666666667,4,2,1,80,0,1
55812,-40,4,2,1,80,0,1
55921,-50,4,2,1,80,0,1
56138,-100,4,2,1,80,0,1
56356,-66.6666666666667,4,2,1,80,0,1
62769,-40,4,2,1,80,0,1
63095,-100,4,2,1,80,0,1
63312,-66.6666666666667,4,2,1,80,0,1
65323,-66.6666666666667,4,2,1,80,0,0
65377,-66.6666666666667,4,2,1,80,0,1
65432,-66.6666666666667,4,2,1,80,0,0
65812,-66.6666666666667,4,2,1,80,0,1
65921,-66.6666666666667,4,2,1,80,0,0
66247,-66.6666666666667,4,2,1,80,0,1
66356,-66.6666666666667,4,2,1,80,0,0
67008,-133.333333333333,4,2,1,65,0,0
72443,-66.6666666666667,4,2,1,70,0,0
74073,-100,4,2,1,70,0,0
77551,-83.3333333333333,4,2,1,70,0,0
79290,-66.6666666666667,4,2,1,70,0,0
83638,434.782608695652,4,2,1,70,1,0
83638,-66.6666666666667,4,2,1,70,0,0
84072,-76.9230769230769,4,2,1,70,0,0
88855,-66.6666666666667,4,2,1,70,0,0
89724,-55.5555555555556,4,2,1,70,0,0
93203,434.782608695652,4,2,1,70,1,0
93203,-83.3333333333333,4,2,1,70,0,0
98529,-66.6666666666667,4,2,1,70,0,0
105376,-50,4,2,1,70,0,0
105811,-66.6666666666667,4,2,1,70,0,0
107116,-50,4,2,1,70,0,0
108855,-66.6666666666667,4,2,1,80,0,1
114942,-40,4,2,1,80,0,1
115268,-100,4,2,1,80,0,1
115485,-66.6666666666667,4,2,1,80,0,1
121898,-40,4,2,1,80,0,1
122007,-50,4,2,1,80,0,1
122224,-100,4,2,1,80,0,1
122442,-66.6666666666667,4,2,1,80,0,1
124507,-100,4,2,1,65,0,0
125811,-333.333333333333,4,2,1,65,0,0
126246,-100,4,2,1,65,0,0
127550,-200,4,2,1,65,0,0
127985,-100,4,2,1,65,0,0
131463,-66.6666666666667,4,2,1,70,0,0
131898,-76.9230769230769,4,2,1,70,0,0
134942,-66.6666666666667,4,2,1,70,0,0
137116,-333.333333333333,4,2,1,70,0,0
137442,-333.333333333333,4,2,1,70,0,0
137550,-333.333333333333,4,2,1,70,0,0
137876,-333.333333333333,4,2,1,70,0,0
137985,-333.333333333333,4,2,1,70,0,0
138311,-333.333333333333,4,2,1,70,0,0
138420,-333.333333333333,4,2,1,70,0,0
138746,-333.333333333333,4,2,1,70,0,0
138855,-333.333333333333,4,2,1,70,0,0
139181,-333.333333333333,4,2,1,70,0,0
139289,-66.6666666666667,4,2,1,70,0,0
140159,217.391304347826,4,2,1,75,1,0
140159,-133.333333333333,4,2,1,75,0,0
145376,-400,4,2,1,75,0,0
147115,-133.333333333333,4,2,1,75,0,0
156028,-80,4,2,1,75,0,0
157115,-400,4,2,1,75,0,0
157550,434.782608695652,4,2,1,60,1,0
163745,-200,4,2,1,60,0,0
164506,-90.909090909091,4,2,1,70,0,0
169723,-66.6666666666667,4,2,1,70,0,0
171571,-50,4,2,1,70,0,0
173202,217.391304347826,4,2,1,80,1,1
173202,-133.333333333333,4,2,1,80,0,1
179288,-80,4,2,1,80,0,1
179397,-100,4,2,1,80,0,1
179615,-200,4,2,1,80,0,1
179832,-100,4,2,1,80,0,1
180158,-133.333333333333,4,2,1,80,0,1
186245,-80,4,2,1,80,0,1
186354,-100,4,2,1,80,0,1
186571,-200,4,2,1,80,0,1
186788,-133.333333333333,4,2,1,80,0,1
187115,-133.333333333333,4,2,1,80,0,1
188854,-200,4,2,1,80,0,0
190593,-133.333333333333,4,2,1,80,0,1
192278,-133.333333333333,4,2,1,80,0,0
192332,-133.333333333333,4,2,1,80,0,1
192386,-133.333333333333,4,2,1,80,0,0
192767,-133.333333333333,4,2,1,80,0,1
192821,-133.333333333333,4,2,1,80,0,0
193202,-133.333333333333,4,2,1,80,0,1
193256,-133.333333333333,4,2,1,80,0,0
194071,-133.333333333333,4,2,1,70,0,0
200158,-80,4,2,1,70,0,0
200267,-100,4,2,1,70,0,0
200484,-200,4,2,1,70,0,0
200702,-100,4,2,1,70,0,0
201028,-133.333333333333,4,2,1,70,0,0
204506,-111.111111111111,4,2,1,70,0,0
207549,-133.333333333333,4,2,1,70,0,0

[Colours]
Combo1 : 255,166,166
Combo2 : 130,219,77
Combo3 : 255,108,108
Combo4 : 164,255,164

[HitObjects]
485,117,1030,6,0,P|490:80|503:38,1,63.44,2|0,2:0|2:0,2:0:0:0:
428,22,1247,2,0,P|422:58|410:101,1,63.44,2|0,2:0|2:0,2:0:0:0:
244,200,1464,6,0,P|238:163|226:121,1,63.44,2|0,2:0|2:0,2:0:0:0:
301,105,1682,2,0,P|306:141|319:184,1,63.44,2|0,2:0|2:0,2:0:0:0:
511,341,1899,6,0,B|446:322|481:292|400:272,1,126.88,2|2,2:0|2:0,2:0:0:0:
385,203,2225,1,8,2:3:0:0:
287,311,2334,6,0,L|230:321,1,42.2933333333334,8|8,2:0|2:3,2:0:0:0:
151,371,2479,1,8,3:0:0:0:
151,371,2551,1,8,3:0:0:0:
151,371,2624,2,0,L|199:386,1,42.2933333333334,0|0,3:2|3:2,2:0:0:0:
103,200,2769,6,0,P|72:209|18:219,1,63.44,10|0,2:0|2:0,2:0:0:0:
47,291,2986,2,0,P|78:282|132:272,1,63.44,2|0,2:0|2:0,2:0:0:0:
301,105,3203,6,0,P|270:96|216:86,1,63.44,2|0,2:0|2:0,2:0:0:0:
245,14,3421,2,0,P|276:23|330:33,1,63.44,2|0,2:0|2:0,2:0:0:0:
194,172,3638,6,0,P|140:118|161:70,1,126.88,2|0,2:0|3:2,2:0:0:0:
245,14,3964,1,8,2:3:0:0:
55,67,4073,5,8,2:0:0:0:
194,172,4182,1,8,2:0:0:0:
36,181,4290,5,8,3:0:0:0:
104,148,4399,1,8,3:0:0:0:
251,281,4508,6,0,P|218:262|174:248,1,75.64,6|0,3:2|2:0,2:0:0:0:
351,88,4725,2,0,P|314:128|256:126,1,100.853333333333,2|0,3:2|2:0,2:0:0:0:
262,122,4943,6,0,P|267:102|271:78,2,37.82,10|8|8,2:0|2:0|2:0,2:0:0:0:
420,230,5160,2,0,P|411:192|408:125,1,75.64,8|0,2:0|2:0,2:0:0:0:
182,249,5377,5,8,3:2:0:0:
145,317,5486,1,8,2:3:0:0:
206,365,5595,1,0,3:2:0:0:
347,250,5703,6,0,P|382:236|433:228,1,75.64,8|0,3:0|3:2,2:0:0:0:
279,65,5921,2,0,P|313:80|350:87,2,75.64,8|0|0,3:0|3:2|3:2,2:0:0:0:
422,147,6247,5,8,2:0:0:0:
255,293,6356,2,0,P|266:258|277:202,1,75.64,6|2,3:2|2:0,2:0:0:0:
382,361,6573,1,10,2:0:0:0:
447,310,6682,2,0,P|452:348|463:391,1,75.64,4|2,3:2|2:0,2:0:0:0:
368,263,6899,1,8,2:0:0:0:
199,371,7008,6,0,P|164:356|125:347,1,75.64,4|2,3:2|2:0,2:0:0:0:
37,228,7225,1,8,2:0:0:0:
144,271,7334,5,0,3:2:0:0:
5,360,7443,1,0,3:2:0:0:
144,271,7551,6,0,B|193:220|140:126|131:185|65:98|128:47,1,252.133333333333,12|0,2:0|2:0,2:0:0:0:
141,40,7986,6,0,B|181:47|259:13|259:13|223:27|205:70,2,190.32,6|2|2,3:2|2:0|2:0,2:0:0:0:
435,234,8856,6,0,P|478:194|467:119,1,126.88,4|0,3:2|2:0,2:0:0:0:
481,52,9182,2,0,P|420:31|366:74,1,126.88,2|0,2:0|2:0,2:0:0:0:
304,103,9508,2,0,P|312:135|315:167,1,63.4400000000001,2|0,2:0|2:0,2:0:0:0:
116,348,9725,6,0,P|164:300|237:313,2,126.88,4|2|2,3:2|2:0|2:0,2:0:0:0:
253,227,10377,1,2,2:0:0:0:
335,349,10595,6,0,L|322:269,1,63.4400000000001,4|0,3:2|2:0,2:0:0:0:
216,115,10812,1,2,3:2:0:0:
216,115,10885,1,8,3:0:0:0:
216,115,10957,1,8,2:3:0:0:
216,115,11029,2,0,P|268:112|315:168,1,126.88,2|0,3:2|2:0,2:0:0:0:
512,274,11464,6,0,B|503:180|313:149|358:293|425:276|438:213,1,224.48,14|0,2:0|2:0,2:0:0:0:
119,139,11790,6,0,B|128:43|318:14|273:158|206:141|193:78,1,224.48,14|0,2:0|2:0,2:0:0:0:
408,5,12116,6,0,L|386:120,1,112.24,14|0,3:2|2:0,2:0:0:0:
152,374,12334,6,0,L|131:240,1,114.68,14|2,3:2|2:0,2:0:0:0:
80,214,12660,1,8,2:3:0:0:
215,114,12769,5,8,2:0:0:0:
297,171,12877,5,8,2:0:0:0:
278,270,12986,5,8,2:0:0:0:
188,312,13095,5,8,2:0:0:0:
80,214,13203,6,0,P|91:174|97:115,1,81.7400000000001,6|0,3:2|2:0,2:0:0:0:
278,270,13421,2,0,P|288:310|293:361,1,81.7400000000001,2|0,2:0|2:0,2:0:0:0:
453,151,13638,2,0,B|362:129|383:195|293:170,1,163.48,8|2,2:0|2:0,2:0:0:0:
229,212,13964,1,2,2:0:0:0:
321,84,14073,5,0,3:2:0:0:
259,38,14182,2,0,P|241:71|238:121,1,81.7400000000001,8|2,2:0|2:0,2:0:0:0:
395,267,14399,1,2,2:0:0:0:
462,232,14508,2,0,P|488:170|478:62,1,163.48,10|2,2:0|2:0,2:0:0:0:
423,34,14834,1,2,2:0:0:0:
236,114,14943,6,0,P|193:123|155:139,1,81.7400000000001,4|0,3:2|2:0,2:0:0:0:
58,11,15160,2,0,P|95:25|140:37,1,81.7400000000001,2|0,2:0|2:0,2:0:0:0:
47,234,15377,6,0,P|12:198|34:128,1,108.986666666667,8|0,2:0|2:0,2:0:0:0:
33,132,15595,1,2,2:0:0:0:
151,268,15703,2,0,P|145:311|130:353,1,81.7400000000001,2|0,2:0|3:2,2:0:0:0:
62,384,15921,1,8,2:0:0:0:
226,234,16029,2,0,P|278:237|312:295,1,108.986666666667,2|0,2:0|2:0,2:0:0:0:
329,305,16247,6,0,P|316:343|310:384,1,81.7400000000001,10|0,2:0|2:0,2:0:0:0:
168,185,16464,2,0,P|180:146|186:105,1,81.7400000000001,2|0,2:0|2:0,2:0:0:0:
361,178,16682,6,0,P|306:234|205:221,1,163.48,4|2,3:2|2:0,2:0:0:0:
168,185,17008,1,2,2:0:0:0:
340,67,17116,1,8,2:0:0:0:
251,6,17225,2,0,P|254:48|267:102,1,81.7400000000001,0|0,2:0|2:0,2:0:0:0:
439,205,17443,1,2,2:0:0:0:
495,149,17551,2,0,P|492:107|479:53,1,81.7400000000001,0|8,3:2|2:0,2:0:0:0:
361,176,17769,2,0,P|364:222|381:273,1,81.7400000000001,2|0,2:0|2:0,2:0:0:0:
511,375,17986,5,8,3:2:0:0:
465,314,18095,5,8,2:0:0:0:
370,291,18203,5,2,2:0:0:0:
263,352,18312,5,2,3:2:0:0:
263,352,18529,6,0,P|216:342|175:313,1,93.9400000000001,4|0,3:2|2:0,2:0:0:0:
85,202,18747,1,2,2:0:0:0:
112,384,18856,6,0,P|92:340|98:277,1,93.9400000000001,4|0,3:2|2:0,2:0:0:0:
168,169,19073,1,8,2:0:0:0:
8,250,19182,6,0,P|41:217|94:202,1,93.9400000000001,4|0,3:2|2:0,2:0:0:0:
227,245,19399,1,2,2:0:0:0:
113,96,19508,6,0,P|148:125|169:183,1,93.9400000000001,4|0,3:2|3:2,2:0:0:0:
263,352,19725,6,0,P|286:192|320:63,1,281.82,12|0,2:0|2:0,2:0:0:0:
344,5,20160,6,0,P|304:35|254:31,1,102.48,6|0,3:2|2:0,2:0:0:0:
232,21,20486,1,2,2:0:0:0:
214,2,20595,1,0,3:2:0:0:
107,111,20812,1,2,2:0:0:0:
0,33,21029,6,0,P|20:102|28:173,1,102.48,2|0,3:2|2:0,2:0:0:0:
162,241,21464,2,0,P|175:166|193:91,1,153.72,2|0,3:2|2:0,2:0:0:0:
154,21,21899,5,2,3:2:0:0:
265,96,22116,1,0,2:0:0:0:
284,105,22225,2,0,P|330:88|410:73,1,102.48,2|0,2:0|2:0,2:0:0:0:
460,119,22551,6,0,P|466:93|470:68,1,51.24,2|0,2:0|2:0,2:0:0:0:
359,158,22769,2,0,P|341:243|329:299,1,102.48,2|2,3:2|2:0,2:0:0:0:
396,340,23095,1,0,2:0:0:0:
417,329,23203,2,0,P|427:278|438:228,1,102.48,2|0,3:2|2:0,2:0:0:0:
268,309,23638,5,2,3:2:0:0:
170,234,23856,1,0,2:0:0:0:
154,220,23964,2,0,P|100:227|80:287,1,102.48,2|0,2:0|2:0,2:0:0:0:
13,319,24290,2,0,P|17:345|40:366,1,51.24,2|0,2:0|2:0,2:0:0:0:
247,285,24508,2,0,P|256:219|272:160,1,102.48,2|2,3:2|2:0,2:0:0:0:
42,25,24943,5,10,2:0:0:0:
12,96,25051,1,8,2:0:0:0:
68,149,25160,2,0,P|110:140|127:124,1,51.24,0|0,3:2|2:0,2:0:0:0:
304,59,25377,6,0,B|357:43|401:71|372:104|422:136|483:111,1,183,12|0,2:0|2:0,2:0:0:0:
464,116,25595,1,0,3:2:0:0:
451,38,25703,6,0,B|395:39|362:79|400:101|362:147|296:142,1,183,12|0,2:0|2:0,2:0:0:0:
316,142,25921,1,0,3:2:0:0:
467,32,26029,6,0,P|482:113|497:227,1,183,12|0,2:0|2:0,2:0:0:0:
496,212,26247,1,0,3:2:0:0:
378,192,26356,6,0,P|364:102|349:11,1,183,12|0,2:0|2:0,2:0:0:0:
349,11,26573,1,0,3:2:0:0:
268,72,26682,6,0,B|218:71|168:91|168:91|118:67|137:10,1,183,12|0,2:0|3:2,2:0:0:0:
154,18,26899,2,0,P|149:61|143:120,1,91.5,8|0,2:0|2:0,2:0:0:0:
13,258,27116,6,0,B|67:273|98:232|80:218|110:177|180:200,1,183,6|0,3:2|2:0,2:0:0:0:
306,268,27443,1,2,3:2:0:0:
388,241,27551,2,0,P|397:202|404:163,1,79.3,8|0,2:0|2:0,2:0:0:0:
229,312,27769,2,0,P|222:353|245:389,1,79.3,2|0,3:2|2:0,2:0:0:0:
507,297,27986,5,2,3:2:0:0:
440,337,28095,2,0,B|356:327|399:267|303:267,1,158.6,8|0,2:0|2:0,2:0:0:0:
224,143,28421,2,0,P|217:99|201:46,1,79.3,10|0,2:0|2:0,2:0:0:0:
298,33,28638,2,0,P|308:71|314:110,1,79.3,0|0,2:0|2:0,2:0:0:0:
134,200,28856,6,0,P|87:122|151:37,1,158.6,2|0,3:2|2:0,2:0:0:0:
224,143,29182,1,2,3:2:0:0:
142,209,29290,2,0,P|103:218|65:228,1,79.3,10|0,2:0|2:0,2:0:0:0:
165,0,29508,2,0,P|190:32|187:77,1,79.3,2|0,3:2|2:0,2:0:0:0:
62,143,29725,5,2,3:2:0:0:
154,215,29834,2,0,B|248:215|205:275|289:285,1,158.6,8|0,2:0|2:0,2:0:0:0:
463,257,30160,2,0,P|469:218|480:180,1,79.3,10|0,2:0|2:0,2:0:0:0:
387,119,30377,2,0,P|376:157|371:197,1,79.3,0|0,2:0|2:0,2:0:0:0:
503,345,30595,6,0,P|416:282|362:317,1,158.6,2|0,3:2|2:0,2:0:0:0:
250,359,30921,1,2,3:2:0:0:
178,384,31029,2,0,P|138:374|118:343,1,79.3,8|0,2:0|2:0,2:0:0:0:
233,200,31247,2,0,P|222:241|211:300,1,79.3,2|0,3:2|2:0,2:0:0:0:
44,368,31464,5,2,3:2:0:0:
0,303,31573,2,0,P|8:264|18:225,1,79.3,8|2,2:0|2:0,2:0:0:0:
178,108,31790,1,0,3:2:0:0:
89,83,31899,2,0,P|97:121|107:160,1,79.3,10|0,2:0|2:0,2:0:0:0:
222,285,32116,6,0,P|260:271|299:263,1,79.3,2|0,3:2|2:0,2:0:0:0:
477,53,32334,6,0,P|485:97|495:142,1,91.5,12|0,2:0|2:0,2:0:0:0:
366,301,32551,2,0,P|325:250|346:188,1,137.25,12|0,3:2|2:0,2:0:0:0:
365,176,32769,5,0,3:2:0:0:
460,228,32877,2,0,P|349:199|237:177,1,228.75,12|0,2:0|2:0,2:0:0:0:
137,223,33203,5,4,3:2:0:0:
137,223,33638,6,0,P|142:205|143:185,1,36.6,2|0,2:0|2:0,2:0:0:0:
160,176,34073,6,0,P|225:192|218:259,1,146.4,4|0,3:2|2:0,2:0:0:0:
84,358,34399,2,0,P|66:293|127:265,1,146.4,0|0,3:2|2:0,2:0:0:0:
276,322,34725,2,0,P|324:312|358:309,1,73.2,0|0,3:2|2:0,2:0:0:0:
405,261,34943,1,8,2:0:0:0:
512,333,35160,5,4,2:3:0:0:
511,345,35232,1,4,2:3:0:0:
509,357,35305,1,4,2:3:0:0:
508,369,35377,1,4,2:3:0:0:
324,225,35812,6,0,P|317:148|301:64,1,146.4,4|0,3:2|2:0,2:0:0:0:
492,0,36138,2,0,P|504:72|513:148,1,146.4,0|0,3:2|2:0,2:0:0:0:
416,256,36464,2,0,P|420:219|425:169,1,73.2,0|0,3:2|2:0,2:0:0:0:
405,107,36682,1,8,2:0:0:0:
322,310,36899,5,4,2:3:0:0:
321,322,36972,1,4,2:3:0:0:
319,334,37044,1,4,2:3:0:0:
318,346,37116,1,4,2:3:0:0:
180,43,37551,6,0,P|227:95|218:166,1,146.4,4|0,3:2|2:0,2:0:0:0:
48,215,37877,2,0,P|0:162|9:91,1,146.4,0|0,3:2|2:0,2:0:0:0:
148,120,38203,2,0,P|112:127|77:138,1,73.2,0|0,3:2|2:0,2:0:0:0:
5,83,38421,1,8,2:0:0:0:
138,226,38638,5,4,2:3:0:0:
137,238,38711,1,4,2:3:0:0:
135,250,38783,1,4,2:3:0:0:
133,261,38856,2,0,P|167:249|203:242,2,73.2,8|8|8,2:0|2:0|2:0,2:0:0:0:
39,293,39182,2,0,P|47:257|53:221,1,73.2,0|0,3:2|2:0,2:0:0:0:
283,217,39399,6,0,B|346:217|372:260|350:267|374:312|431:315,1,183,4|8,3:2|2:0,2:0:0:0:
491,158,39725,2,0,P|415:166|405:213,1,91.5,4|0,3:2|2:0,2:0:0:0:
304,369,39943,2,0,P|335:337|332:293,1,91.5,4|0,3:2|2:0,2:0:0:0:
172,119,40160,2,0,P|182:158|190:221,1,91.5,4|0,3:2|2:0,2:0:0:0:
49,384,40377,5,6,3:2:0:0:
0,327,40486,1,8,2:0:0:0:
13,254,40595,1,8,2:0:0:0:
80,216,40703,2,0,B|123:196|181:227|145:258|196:295|254:264,1,183,6|8,3:2|2:0,2:0:0:0:
507,59,41029,6,0,P|414:62|410:142,1,158.6,6|0,3:2|2:0,2:0:0:0:
288,191,41356,1,0,3:2:0:0:
236,131,41464,2,0,P|229:92|220:53,1,79.3,8|0,2:0|2:0,2:0:0:0:
377,217,41682,2,0,P|438:216|482:270,1,105.733333333333,2|0,3:2|2:0,2:0:0:0:
494,237,41899,5,2,3:2:0:0:
411,295,42008,2,0,B|329:272|378:215|284:203,1,158.6,8|2,2:0|3:2,2:0:0:0:
123,242,42334,2,0,P|114:203|105:164,1,79.3,8|2,2:0|2:0,2:0:0:0:
228,64,42551,2,0,P|219:102|210:141,1,79.3,0|0,3:2|2:0,2:0:0:0:
192,329,42769,6,0,P|118:274|36:311,1,158.6,2|0,3:2|2:0,0:2:0:0:
0,240,43095,1,0,3:2:0:0:
114,359,43203,2,0,P|193:345|272:337,1,158.6,10|0,2:0|3:2,2:0:0:0:
435,237,43529,5,8,3:2:0:0:
512,281,43638,1,2,3:2:0:0:
389,380,43747,2,0,P|385:343|375:296,1,79.3,8|0,2:0|2:0,2:0:0:0:
357,110,43964,5,2,3:2:0:0:
267,202,44073,1,8,2:0:0:0:
227,235,44182,1,4,2:3:0:0:
177,239,44290,1,8,2:3:0:0:
136,225,44399,1,0,3:2:0:0:
110,189,44508,6,0,P|116:161|122:132,2,52.8666666666667,6|2|2,3:2|2:0|2:0,2:0:0:0:
35,154,44725,2,2,P|40:128|45:102,2,52.8666666666667,2|2|2,3:2|2:0|2:0,2:0:0:0:
177,239,44943,6,0,P|182:264|187:290,2,52.8666666666667,2|2|2,3:2|2:0|2:0,2:0:0:0:
67,264,45160,2,0,P|72:289|77:315,2,52.8666666666667,2|2|2,3:2|2:0|2:0,2:0:0:0:
214,153,45377,5,0,3:2:0:0:
216,140,45450,2,0,P|221:114|226:88,1,52.8666666666667,2|2,2:0|2:0,2:0:0:0:
345,122,45595,1,2,3:2:0:0:
341,134,45667,2,0,P|335:159|328:187,1,52.8666666666667,2|2,2:0|2:0,2:0:0:0:
443,319,45812,5,2,3:2:0:0:
454,299,45885,2,0,P|454:268|439:242,1,61,2|2,2:0|2:0,2:0:0:0:
265,261,46029,1,2,3:2:0:0:
254,281,46102,2,0,P|253:311|268:337,1,61,2|2,2:0|2:0,2:0:0:0:
373,293,46247,6,0,P|354:290|320:288,2,40.6666666666667,2|2|2,3:2|2:0|2:0,2:0:0:0:
451,237,46464,2,0,P|470:234|504:232,2,40.6666666666667,2|2|2,3:2|2:0|2:0,2:0:0:0:
346,190,46682,2,0,P|327:187|293:185,2,40.6666666666667,2|2|2,3:2|2:0|2:0,2:0:0:0:
471,86,46899,2,0,P|490:83|524:81,2,40.6666666666667,2|2|2,3:2|2:0|2:0,2:0:0:0:
359,23,47116,5,2,3:2:0:0:
340,36,47189,2,0,P|327:64|330:94,1,61,2|2,2:0|2:0,2:0:0:0:
451,237,47334,1,2,3:2:0:0:
460,223,47406,2,0,P|463:193|450:165,1,61,2|2,2:0|2:0,2:0:0:0:
399,117,47551,5,8,2:0:0:0:
305,185,47660,5,8,2:0:0:0:
224,143,47769,5,8,2:0:0:0:
189,166,47877,5,8,2:0:0:0:
76,39,47986,5,4,3:2:0:0:
114,105,48095,2,0,L|105:141,2,24.4,2|0|0,2:0|2:0|2:0,2:0:0:0:
305,185,48421,5,4,3:2:0:0:
267,251,48529,2,0,L|276:287,2,24.4,2|0|0,2:0|2:0|2:0,2:0:0:0:
122,339,48856,5,8,2:0:0:0:
107,331,48964,1,2,2:0:0:0:
128,323,49073,1,2,2:0:0:0:
141,339,49182,1,2,2:0:0:0:
267,251,49290,6,0,B|365:194|417:309|369:280|427:384|561:328|594:217|390:139|377:294,1,427,8|0,2:0|2:0,2:0:0:0:
381,266,49725,6,0,P|389:308|394:365,1,91.5,4|0,3:2|2:0,3:2:0:0:
239,158,49943,1,2,2:0:0:0:
183,211,50051,2,0,P|194:257|200:310,1,91.5,2|8,2:0|2:0,2:0:0:0:
361,42,50269,1,2,2:0:0:0:
423,89,50377,2,0,P|436:131|445:190,1,91.5,2|0,2:0|2:0,2:0:0:0:
177,103,50595,6,0,P|182:57|196:14,1,91.5,2|0,3:2|2:0,2:0:0:0:
267,251,50812,1,2,2:0:0:0:
326,209,50921,2,0,P|332:163|346:120,1,91.5,0|8,2:0|2:0,2:0:0:0:
113,276,51138,1,2,2:0:0:0:
71,213,51247,2,0,P|76:167|89:123,1,91.5,2|0,2:0|2:0,2:0:0:0:
261,352,51464,6,0,P|219:367|160:379,1,91.5,2|0,3:2|2:0,2:0:0:0:
24,298,51682,2,0,P|69:284|127:274,1,91.5,2|0,2:0|2:0,2:0:0:0:
326,69,51899,6,0,P|284:53|225:42,1,91.5,10|0,2:0|2:0,2:0:0:0:
89,123,52116,2,0,P|134:137|192:147,1,91.5,2|0,2:0|2:0,2:0:0:0:
361,306,52334,5,2,3:2:0:0:
422,267,52443,1,2,2:0:0:0:
430,191,52551,1,2,2:0:0:0:
379,131,52660,1,2,2:0:0:0:
200,221,52769,6,0,P|120:210|90:118,1,183,8|0,2:0|2:0,2:0:0:0:
133,57,53095,1,2,2:0:0:0:
295,190,53203,6,0,P|283:233|276:306,1,91.5,2|0,3:2|2:0,2:0:0:0:
105,384,53421,1,2,2:0:0:0:
156,324,53529,1,2,2:0:0:0:
229,356,53638,2,0,P|272:369|321:386,1,91.5,8|0,2:0|2:0,2:0:0:0:
199,221,53856,2,0,P|158:237|103:248,1,91.5,2|8,2:0|2:0,2:0:0:0:
301,89,54073,1,2,3:2:0:0:
229,58,54182,1,8,2:0:0:0:
295,190,54290,6,0,P|338:209|385:221,1,91.5,2|0,2:0|2:0,2:0:0:0:
147,346,54508,2,0,P|104:363|48:377,1,91.5,10|0,2:0|2:0,2:0:0:0:
265,261,54725,2,0,P|277:303|284:354,1,91.5,2|0,2:0|2:0,2:0:0:0:
76,170,54943,1,4,3:2:0:0:
76,170,55160,6,0,P|83:127|99:70,1,91.5,2|0,2:0|2:0,2:0:0:0:
147,346,55377,2,0,P|154:301|167:251,1,91.5,10|0,2:0|2:0,2:0:0:0:
301,89,55595,1,2,2:0:0:0:
229,58,55703,1,8,2:0:0:0:
380,238,55812,6,0,P|399:252|379:239,1,76.25,8|0,2:0|2:0,2:0:0:0:
334,320,55921,6,0,P|305:284|308:205,1,122,10|0,2:0|2:0,2:0:0:0:
436,120,56138,6,0,P|478:132|518:149,1,81.3333333333333,2|0,3:2|2:0,2:0:0:0:
380,238,56356,6,0,P|293:205|193:182,1,183,2|8,3:2|2:0,2:0:0:0:
59,17,56682,6,0,P|104:34|167:52,1,91.5,4|0,3:2|2:0,2:0:0:0:
128,207,56899,1,2,2:0:0:0:
205,184,57008,2,0,P|250:201|313:219,1,91.5,2|8,2:0|2:0,2:0:0:0:
392,48,57225,1,2,2:0:0:0:
426,116,57334,2,0,P|471:133|534:151,1,91.5,2|0,2:0|2:0,2:0:0:0:
420,320,57551,5,2,3:2:0:0:
355,273,57660,2,0,P|310:285|265:302,1,91.5,8|2,2:0|2:0,2:0:0:0:
426,116,57877,2,0,P|381:128|336:145,1,91.5,2|8,2:0|2:0,2:0:0:0:
145,46,58095,1,2,2:0:0:0:
100,111,58203,2,0,P|55:123|10:140,1,91.5,2|0,2:0|2:0,2:0:0:0:
241,0,58421,6,0,P|247:47|260:100,1,91.5,4|0,3:2|2:0,2:0:0:0:
144,296,58638,2,0,P|138:249|125:196,1,91.5,2|0,2:0|2:0,2:0:0:0:
0,48,58856,6,0,P|10:92|15:137,1,91.5,10|0,2:0|2:0,2:0:0:0:
216,239,59073,2,0,P|205:194|200:149,1,91.5,2|0,2:0|2:0,2:0:0:0:
20,384,59290,5,0,3:2:0:0:
62,323,59399,2,0,P|94:298|156:301,1,91.5,8|0,2:0|2:0,2:0:0:0:
334,209,59616,5,2,2:0:0:0:
428,342,59725,2,0,P|328:339|301:248,1,183,8|0,2:0|2:0,2:0:0:0:
334,209,60051,1,2,2:0:0:0:
229,41,60160,6,0,P|182:84|192:145,1,122,4|0,3:2|2:0,2:0:0:0:
200,149,60377,1,2,2:0:0:0:
62,323,60486,2,0,P|56:282|41:230,1,91.5,2|8,2:0|2:0,2:0:0:0:
93,175,60703,1,2,2:0:0:0:
216,273,60812,2,0,P|224:317|238:362,1,91.5,2|0,2:0|2:0,2:0:0:0:
393,160,61029,5,0,3:2:0:0:
334,209,61138,1,8,2:0:0:0:
384,266,61247,2,0,P|428:278|474:298,1,91.5,2|0,2:0|2:0,2:0:0:0:
305,57,61464,2,0,P|292:103|287:156,1,91.5,8|0,2:0|2:0,2:0:0:0:
497,93,61682,2,0,P|508:48|513:-4,1,91.5,2|0,2:0|2:0,2:0:0:0:
393,160,61899,1,4,3:2:0:0:
393,160,62116,6,0,P|436:172|486:190,1,91.5,2|0,2:0|2:0,2:0:0:0:
216,273,62334,2,0,P|259:285|309:303,1,91.5,10|0,2:0|2:0,2:0:0:0:
141,104,62551,1,2,2:0:0:0:
212,126,62660,1,8,2:0:0:0:
99,227,62769,6,0,P|75:237|96:223,1,76.25,8|0,2:0|2:0,2:0:0:0:
174,204,62877,6,0,P|159:285|94:318,1,152.5,0|0,3:2|2:0,2:0:0:0:
11,120,63095,2,0,L|32:33,1,81.3333333333333,0|0,3:2|2:0,2:0:0:0:
216,273,63312,6,0,P|250:280|313:304,1,91.5,4|0,3:2|2:0,2:0:0:0:
503,159,63529,1,2,2:0:0:0:
461,98,63638,6,0,P|379:145|391:241,1,183,4|0,3:2|2:0,2:0:0:0:
475,343,63964,1,2,2:0:0:0:
512,280,64073,2,0,P|500:236|490:180,1,91.5,8|0,2:0|2:0,2:0:0:0:
375,356,64290,2,0,P|333:367|283:387,1,91.5,2|0,2:0|2:0,2:0:0:0:
99,227,64508,5,8,2:0:0:0:
167,195,64616,1,8,2:0:0:0:
236,227,64725,1,0,3:2:0:0:
256,301,64834,1,0,3:2:0:0:
176,380,64943,6,0,P|166:337|165:286,1,91.5,2|0,3:2|2:0,2:0:0:0:
299,163,65160,1,2,3:2:0:0:
317,235,65269,1,0,3:2:0:0:
143,86,65377,5,8,2:0:0:0:
396,234,65812,5,4,3:2:0:0:
176,380,66247,5,12,2:0:0:0:
180,384,67008,6,0,L|199:273,1,91.5000000000002,2|0,2:0|2:0,2:0:0:0:
195,293,67334,2,0,L|206:233,1,45.7500000000001,0|0,2:0|2:0,2:0:0:0:
165,185,67551,1,0,2:0:0:0:
165,185,67660,2,0,L|178:129,1,45.7500000000001,0|0,2:0|2:0,2:0:0:0:
322,30,67877,6,0,L|340:144,1,91.5000000000002,2|0,2:0|2:0,2:0:0:0:
405,152,68203,1,0,2:0:0:0:
405,152,68312,2,0,L|419:220,1,45.7500000000001,0|0,2:0|2:0,2:0:0:0:
366,254,68529,2,0,L|379:315,1,45.7500000000001,0|0,2:0|2:0,2:0:0:0:
422,379,68747,6,0,P|381:337|299:347,1,137.25,2|0,2:0|2:0,2:0:0:0:
243,303,69182,1,0,2:0:0:0:
243,303,69290,2,0,P|235:326|236:360,2,45.7500000000001,0|0|0,2:0|2:0|2:0,2:0:0:0:
267,140,69616,6,0,P|226:182|144:172,1,137.25,2|0,2:0|2:0,2:0:0:0:
88,216,70051,1,0,2:0:0:0:
88,216,70160,2,0,P|80:193|81:159,1,45.7500000000001,0|0,2:0|2:0,2:0:0:0:
169,98,70377,5,8,2:0:0:0:
308,243,70486,2,0,P|270:222|222:206,1,91.5000000000002,4|8,3:2|2:0,2:0:0:0:
432,36,70812,1,8,2:0:0:0:
488,94,70921,1,8,2:0:0:0:
466,167,71029,2,0,P|423:179|380:203,1,91.5000000000002,0|8,3:2|3:0,2:0:0:0:
257,55,71356,1,0,3:2:0:0:
307,110,71464,2,0,P|329:121|356:139,1,45.7500000000001,8|0,2:0|3:2,2:0:0:0:
227,288,71682,2,0,P|204:295|178:308,1,45.7500000000001,8|8,2:0|2:0,2:0:0:0:
35,141,71899,5,0,3:2:0:0:
112,142,72008,1,0,3:2:0:0:
151,205,72116,1,0,3:2:0:0:
147,217,72225,1,0,3:2:0:0:
227,288,72334,5,2,2:0:0:0:
113,383,72443,2,0,P|91:345|112:289,1,91.5,4|0,3:2|2:0,2:0:0:0:
295,159,72660,5,2,2:0:0:0:
407,312,72769,2,0,P|432:277|423:213,1,91.5,4|0,3:2|2:0,2:0:0:0:
286,55,72986,5,2,2:0:0:0:
207,198,73095,2,0,L|231:306,1,91.5,4|0,3:2|2:0,2:0:0:0:
124,111,73312,5,8,2:0:0:0:
324,264,73421,2,0,L|303:367,1,91.5,4|0,3:2|3:2,2:0:0:0:
482,108,73638,6,0,B|475:10|305:-5|284:136|402:146|416:106,1,274.5,12|0,2:0|2:0,2:0:0:0:
406,119,74073,6,0,L|380:-10,1,122,0|0,3:2|2:0,2:0:0:0:
207,198,74399,2,0,L|181:68,1,122,0|0,3:2|2:0,2:0:0:0:
398,238,74725,6,0,L|413:309,1,61,8|0,2:0|2:0,2:0:0:0:
427,370,74943,1,2,2:0:0:0:
398,238,75377,1,2,2:0:0:0:
201,350,75812,6,0,P|131:342|113:274,1,122,10|0,3:2|2:0,2:0:0:0:
249,205,76138,2,0,P|303:247|279:316,1,122,10|0,3:2|2:0,2:0:0:0:
126,132,76464,2,0,L|144:55,1,61,8|0,3:2|2:0,2:0:0:0:
163,0,76682,1,2,2:0:0:0:
53,154,76899,1,8,3:0:0:0:
126,132,77008,1,0,3:2:0:0:
177,186,77116,1,0,3:2:0:0:
105,213,77225,5,0,3:2:0:0:
106,202,77334,1,0,3:2:0:0:
275,120,77443,5,0,3:2:0:0:
276,134,77551,2,0,P|263:195|257:254,1,97.6000000000001,8|0,2:0|2:0,2:0:0:0:
250,241,77769,1,8,2:0:0:0:
431,319,77877,6,0,P|441:274|445:220,1,97.6000000000001,4|0,3:2|2:0,2:0:0:0:
440,210,78095,1,8,2:0:0:0:
322,289,78203,6,0,P|311:326|307:365,1,73.2,4|0,3:2|2:0,2:0:0:0:
87,230,78421,5,8,3:2:0:0:
91,210,78493,1,8,3:0:0:0:
104,195,78566,1,8,3:0:0:0:
126,185,78638,2,0,L|182:204,2,48.8,0|8|8,3:0|3:0|3:0,2:0:0:0:
98,115,78856,5,8,2:0:0:0:
258,229,78964,1,8,2:0:0:0:
304,163,79073,5,2,2:0:0:0:
459,100,79182,1,8,2:0:0:0:
397,41,79290,6,0,P|385:85|380:146,1,91.5,4|0,3:2|2:0,2:0:0:0:
512,218,79508,1,8,2:0:0:0:
338,378,79616,2,0,P|326:332|321:277,1,91.5,4|0,3:2|2:0,2:0:0:0:
419,206,79834,1,8,2:0:0:0:
297,65,79943,6,0,L|193:40,1,91.5,4|0,3:2|2:0,2:0:0:0:
28,149,80160,1,8,2:0:0:0:
297,65,80269,6,0,L|193:40,1,91.5,4|0,3:2|2:0,2:0:0:0:
28,149,80486,1,8,2:0:0:0:
297,65,80595,6,0,L|193:40,1,91.5,4|0,3:2|2:0,2:0:0:0:
28,149,80812,1,8,2:0:0:0:
297,65,80921,6,0,L|193:40,1,91.5,4|0,3:2|2:0,2:0:0:0:
28,149,81138,1,8,2:0:0:0:
297,65,81247,6,0,L|193:40,1,91.5,4|0,3:2|2:0,2:0:0:0:
28,149,81464,1,8,2:0:0:0:
297,65,81573,6,0,L|193:40,1,91.5,4|0,3:2|2:0,2:0:0:0:
28,149,81790,1,8,2:0:0:0:
297,65,81899,5,4,3:2:0:0:
66,162,83203,6,0,P|44:155|22:152,7,45.75,2|2|2|2|2|2|2|2,2:0|2:0|2:0|2:0|2:0|2:0|2:0|2:0,2:0:0:0:
104,90,83638,6,0,B|129:152|88:182|72:170|48:214|73:263,1,183,4|0,3:2|2:0,2:0:0:0:
241,314,83964,1,2,3:2:0:0:
216,243,84072,2,0,P|181:224|143:232,1,79.3,8|0,2:0|2:0,2:0:0:0:
14,349,84290,2,0,P|52:340|91:333,1,79.3,2|0,2:0|2:0,2:0:0:0:
326,325,84507,5,2,3:2:0:0:
395,365,84616,2,0,P|433:292|371:213,1,158.6,8|0,2:0|2:0,2:0:0:0:
291,136,84942,2,0,P|247:143|194:159,1,79.3,10|0,2:0|2:0,2:0:0:0:
181,62,85159,2,0,P|219:52|258:46,1,79.3,2|0,2:0|2:0,2:0:0:0:
402,0,85377,6,0,P|394:39|390:78,1,79.3,2|0,3:2|2:0,2:0:0:0:
219,162,85594,1,2,2:0:0:0:
276,223,85703,2,0,P|301:191|298:146,1,79.3,2|8,3:2|2:0,2:0:0:0:
100,65,85920,1,2,2:0:0:0:
151,0,86029,2,0,P|176:32|173:77,1,79.3,2|0,3:2|2:0,2:0:0:0:
1,245,86246,5,2,3:2:0:0:
51,184,86355,2,0,P|128:166|206:152,1,158.6,8|0,2:0|2:0,2:0:0:0:
356,292,86681,2,0,P|317:280|278:276,1,79.3,10|0,2:0|2:0,2:0:0:0:
356,122,86898,2,0,P|394:133|433:139,1,79.3,0|0,2:0|2:0,2:0:0:0:
369,282,87116,6,0,P|356:203|340:126,1,158.6,2|0,3:2|2:0,2:0:0:0:
181,70,87442,1,2,3:2:0:0:
288,15,87551,2,0,P|277:54|269:93,1,79.3,8|0,2:0|2:0,2:0:0:0:
457,222,87768,2,0,P|479:190|474:151,1,79.3,2|0,3:2|2:0,2:0:0:0:
277,176,87985,5,2,3:2:0:0:
203,215,88094,2,0,P|164:207|125:197,1,79.3,8|2,2:0|2:0,2:0:0:0:
7,79,88311,1,0,3:2:0:0:
86,37,88420,2,0,P|104:71|94:108,1,79.3,10|0,2:0|2:0,2:0:0:0:
5,299,88638,2,0,P|43:285|82:277,1,79.3,2|0,3:2|2:0,2:0:0:0:
326,354,88855,6,0,P|352:318|346:274,1,91.5,12|0,2:0|2:0,2:0:0:0:
182,79,89072,2,0,P|192:135|207:259,1,137.25,12|0,2:0|2:0,2:0:0:0:
188,236,89290,1,0,3:2:0:0:
289,213,89398,2,0,B|339:196|392:243|349:253|403:290|456:279,1,183,12|0,2:0|2:0,2:0:0:0:
449,49,89724,6,0,P|380:49|372:85,1,109.8,4|0,3:2|2:0,2:0:0:0:
291,49,89942,1,8,2:0:0:0:
482,128,90051,6,0,P|495:90|425:54,1,109.8,4|0,3:2|2:0,2:0:0:0:
383,97,90268,1,8,2:0:0:0:
324,158,90377,5,4,3:2:0:0:
260,203,90485,1,0,3:2:0:0:
189,180,90594,1,8,2:0:0:0:
116,124,90703,2,0,P|71:115|6:107,1,109.8,4|0,3:2|2:0,2:0:0:0:
189,75,90920,5,8,2:0:0:0:
55,185,91029,2,0,P|15:145|47:82,1,109.8,4|0,3:2|2:0,2:0:0:0:
106,26,91246,1,0,3:2:0:0:
104,32,91301,1,0,3:2:0:0:
103,39,91355,1,4,3:2:0:0:
512,324,92768,5,2,2:0:0:0:
303,284,92985,1,2,2:0:0:0:
440,242,93203,6,0,B|400:230|366:266|389:272|361:304|314:296,1,146.4,4|0,3:2|2:0,2:0:0:0:
234,337,93529,2,0,P|190:301|208:217,1,146.4,0|0,2:0|2:0,2:0:0:0:
278,182,93855,2,0,P|287:141|292:110,1,73.2,2|0,2:0|2:0,2:0:0:0:
109,0,94072,2,0,P|95:71|79:143,1,146.4,2|2,3:2|2:0,2:0:0:0:
0,246,94398,5,2,2:0:0:0:
68,285,94507,2,0,P|103:277|139:270,1,73.2,0|2,3:2|2:0,2:0:0:0:
278,182,94724,5,2,2:0:0:0:
366,164,94833,1,2,2:0:0:0:
431,223,94942,2,0,P|443:150|458:79,1,146.4,2|0,3:2|2:0,2:0:0:0:
413,0,95268,2,0,P|347:1|353:77,1,146.4,2|0,2:0|2:0,2:0:0:0:
278,169,95594,2,0,P|270:122|255:82,1,73.2,2|0,2:0|2:0,2:0:0:0:
103,9,95811,6,0,P|75:41|98:85,1,73.2,2|0,3:2|2:0,2:0:0:0:
156,92,96029,2,0,P|184:60|161:16,1,73.2,2|0,2:0|2:0,2:0:0:0:
65,85,96246,6,0,P|76:124|82:170,1,73.2,2|0,3:2|2:0,2:0:0:0:
178,173,96463,2,0,P|172:136|162:101,1,73.2,2|0,2:0|2:0,2:0:0:0:
0,159,96681,6,0,B|41:153|69:194|45:196|68:232|116:232,1,146.4,2|0,3:2|2:0,2:0:0:0:
281,212,97007,2,0,P|244:155|178:173,1,146.4,2|0,2:0|2:0,2:0:0:0:
197,262,97333,2,0,P|208:313|210:345,1,73.2,2|0,2:0|2:0,2:0:0:0:
426,252,97550,6,0,P|437:201|439:169,1,73.2,2|0,3:2|2:0,2:0:0:0:
351,114,97768,2,0,P|362:63|364:31,1,73.2,2|0,2:0|2:0,2:0:0:0:
281,212,97985,2,0,P|332:201|364:199,1,73.2,10|0,2:0|2:0,2:0:0:0:
506,113,98203,2,0,P|470:104|434:100,1,73.2,2|0,3:2|2:0,2:0:0:0:
165,80,98420,5,2,3:2:0:0:
215,1,98529,2,0,P|201:80|189:201,1,183,12|0,2:0|2:0,2:0:0:0:
290,291,98855,2,0,P|292:221|259:203,1,91.5,6|0,3:2|2:0,2:0:0:0:
104,305,99072,2,0,P|80:267|94:225,1,91.5,4|0,3:2|2:0,2:0:0:0:
198,294,99289,2,0,P|205:341|206:402,1,91.5,4|0,3:2|2:0,2:0:0:0:
432,377,99507,5,6,3:2:0:0:
440,284,99616,1,8,2:0:0:0:
371,222,99724,1,8,2:0:0:0:
280,211,99833,2,0,P|256:173|270:131,1,91.5,6|0,3:2|2:0,2:0:0:0:
450,37,100050,5,8,2:0:0:0:
359,9,100159,2,0,P|372:54|383:116,1,91.5,4|0,3:2|2:0,2:0:0:0:
280,211,100376,5,8,2:0:0:0:
210,181,100485,1,0,3:2:0:0:
96,288,100594,2,0,P|102:334|116:383,1,91.5,8|0,3:0|2:0,2:0:0:0:
5,252,100811,5,2,2:0:0:0:
176,324,100920,1,8,3:2:0:0:
221,256,101029,1,0,3:2:0:0:
96,288,101137,2,0,P|84:244|79:199,1,91.5,8|0,2:0|2:0,2:0:0:0:
18,364,101355,5,0,3:2:0:0:
176,324,101463,2,0,P|232:337|296:361,1,122,8|0,3:0|2:0,2:0:0:0:
304,369,101681,1,2,2:0:0:0:
408,244,101789,5,8,2:0:0:0:
457,292,101898,2,0,P|451:334|438:391,1,91.5,8|0,3:2|2:0,2:0:0:0:
408,244,102116,5,0,2:0:0:0:
339,282,102224,1,0,2:0:0:0:
291,217,102333,2,0,P|302:172|312:118,1,91.5,0|0,3:2|2:0,2:0:0:0:
408,244,102550,5,8,2:0:0:0:
339,282,102659,1,2,2:0:0:0:
291,217,102768,1,8,2:0:0:0:
496,129,102876,6,0,P|490:176|479:223,1,91.5,8|0,2:0|2:0,2:0:0:0:
382,90,103094,1,8,2:0:0:0:
382,90,103203,2,0,P|387:49|397:0,1,91.5,8|0,2:0|2:0,2:0:0:0:
217,155,103420,2,0,P|174:145|129:128,1,91.5,8|0,2:0|2:0,2:0:0:0:
0,277,103637,5,8,3:2:0:0:
13,263,103746,1,0,3:2:0:0:
34,257,103855,1,0,3:2:0:0:
54,261,103963,1,0,3:2:0:0:
162,181,104072,5,8,2:0:0:0:
192,225,104181,1,0,3:2:0:0:
244,242,104289,1,0,3:2:0:0:
292,226,104398,1,0,3:2:0:0:
352,348,104507,5,8,2:0:0:0:
381,279,104616,1,0,3:2:0:0:
448,260,104724,1,0,3:2:0:0:
512,294,104833,1,0,3:2:0:0:
445,135,104942,5,8,2:0:0:0:
377,192,105050,5,0,3:2:0:0:
381,279,105159,5,0,3:2:0:0:
450,336,105268,5,0,3:2:0:0:
256,228,105376,6,0,P|213:216|171:195,1,81.3333333333333,12|0,2:0|3:2,2:0:0:0:
179,200,105521,2,0,P|164:227|155:291,1,81.3333333333333,2|0,2:0|3:2,2:0:0:0:
154,276,105666,2,0,P|195:288|240:309,1,81.3333333333333,2|0,2:0|2:0,2:0:0:0:
241,322,105811,5,8,2:0:0:0:
300,276,105920,1,0,3:2:0:0:
250,222,106029,1,0,3:2:0:0:
288,152,106137,1,0,3:2:0:0:
246,59,106246,5,8,2:0:0:0:
255,42,106355,1,0,3:2:0:0:
281,46,106463,1,0,3:2:0:0:
265,60,106572,1,0,3:2:0:0:
94,128,106681,6,0,B|83:108|54:102|54:102|109:101|124:141,1,122,12|0,2:0|2:0,2:0:0:0:
163,191,106898,2,0,B|198:186|198:186|206:181|206:181|261:171,1,91.5,2|0,2:0|3:2,2:0:0:0:
474,244,107116,6,0,B|475:177|435:212|435:119,1,122,12|0,2:0|2:0,2:0:0:0:
403,63,107260,2,0,B|413:47|412:23|412:23|417:47|439:61,2,81.3333333333333,2|0|2,2:1|2:0|2:1,2:0:0:0:
474,244,107550,6,0,B|469:321|434:282|435:369,1,122,12|0,2:0|2:0,2:0:0:0:
251,172,107768,2,0,B|256:95|291:134|290:47,1,122,2|0,2:0|2:0,2:0:0:0:
0,321,107985,6,0,P|36:267|108:273,1,122,12|0,2:0|2:0,2:0:0:0:
154,225,108130,2,0,P|217:242|229:307,1,122,2|0,2:1|2:0,2:0:0:0:
307,306,108275,2,0,P|293:345|284:393,1,81.3333333333333,2|0,2:1|2:0,2:0:0:0:
154,225,108420,5,8,2:0:0:0:
96,148,108529,5,8,2:0:0:0:
126,53,108637,5,8,2:0:0:0:
220,25,108746,5,8,2:0:0:0:
342,74,108855,6,0,P|384:66|441:61,1,91.5,4|0,3:2|2:0,3:2:0:0:
512,216,109072,1,2,2:0:0:0:
461,273,109181,2,0,P|416:279|372:290,1,91.5,2|8,2:0|2:0,2:0:0:0:
256,162,109398,1,2,2:0:0:0:
184,127,109507,2,0,P|139:134|96:148,1,91.5,2|0,2:0|2:0,2:0:0:0:
153,311,109724,6,0,P|157:266|172:223,1,91.5,2|8,3:2|2:0,2:0:0:0:
100,48,109942,1,2,2:0:0:0:
33,85,110050,2,0,P|18:128|13:173,1,91.5,0|8,2:0|2:0,2:0:0:0:
180,384,110268,1,2,2:0:0:0:
246,336,110376,2,0,P|251:290|264:247,1,91.5,2|0,2:0|2:0,2:0:0:0:
432,34,110594,6,0,P|465:73|451:134,1,91.5,2|0,3:2|2:0,2:0:0:0:
234,159,110811,2,0,P|205:117|223:73,1,91.5,2|0,2:0|2:0,2:0:0:0:
404,171,111029,6,0,P|388:213|377:272,1,91.5,10|0,2:0|2:0,2:0:0:0:
294,101,111246,2,0,P|308:56|318:-2,1,91.5,2|0,2:0|2:0,2:0:0:0:
63,7,111463,5,2,3:2:0:0:
19,64,111572,1,2,2:0:0:0:
39,137,111681,1,2,2:0:0:0:
108,176,111789,1,2,2:0:0:0:
231,163,111898,6,0,P|151:174|121:266,1,183,8|0,2:0|2:0,2:0:0:0:
57,295,112224,1,2,2:0:0:0:
242,371,112333,2,0,P|229:326|223:281,1,91.5,2|0,3:2|2:0,2:0:0:0:
332,64,112550,5,2,2:0:0:0:
398,131,112659,1,2,2:0:0:0:
350,205,112768,2,0,P|356:250|368:294,1,91.5,10|0,3:2|2:0,2:0:0:0:
502,145,112985,6,0,P|463:137|406:122,1,91.5,2|8,2:0|2:0,2:0:0:0:
210,129,113203,1,2,3:2:0:0:
179,51,113311,1,8,2:0:0:0:
298,143,113420,6,0,P|291:187|258:217,1,91.5,2|0,2:0|2:0,2:0:0:0:
52,101,113637,2,0,P|57:56|91:28,1,91.5,10|0,2:0|2:0,2:0:0:0:
222,122,113855,2,0,P|176:128|132:140,1,91.5,2|0,2:0|2:0,2:0:0:0:
44,187,114072,1,4,3:2:0:0:
44,187,114289,6,0,P|37:230|21:287,1,91.5,2|0,2:0|2:0,2:0:0:0:
138,377,114507,2,0,P|145:332|158:282,1,91.5,10|0,2:0|2:0,2:0:0:0:
165,72,114724,5,2,2:0:0:0:
115,135,114833,1,8,2:0:0:0:
255,254,114942,6,0,P|271:274|251:258,1,76.25,8|0,2:0|2:0,2:0:0:0:
239,168,115050,6,0,P|166:227|191:307,1,152.5,10|0,2:0|2:0,2:0:0:0:
350,315,115268,6,0,P|374:345|367:384,1,81.3333333333333,2|0,3:2|2:0,2:0:0:0:
251,257,115485,6,0,P|264:164|285:72,1,183,2|8,3:2|2:0,2:0:0:0:
439,23,115811,6,0,P|478:57|444:131,1,91.5,4|0,3:2|2:0,2:0:0:0:
305,195,116029,1,2,2:0:0:0:
244,148,116137,2,0,P|248:103|284:76,1,91.5,2|8,2:0|2:0,2:0:0:0:
430,168,116355,1,2,2:0:0:0:
461,243,116463,2,0,P|456:287|420:314,1,91.5,2|0,2:0|2:0,2:0:0:0:
250,370,116681,5,2,3:2:0:0:
185,322,116789,2,0,P|140:333|97:349,1,91.5,8|2,2:0|2:0,2:0:0:0:
0,191,117007,1,2,2:0:0:0:
85,218,117116,2,0,P|127:202|172:190,1,91.5,10|0,2:0|2:0,2:0:0:0:
213,44,117333,2,0,P|168:55|125:71,1,91.5,2|0,2:0|2:0,2:0:0:0:
263,246,117550,6,0,P|269:199|282:146,1,91.5,4|0,3:2|2:0,2:0:0:0:
462,147,117768,2,0,P|468:100|481:47,1,91.5,2|0,2:0|2:0,2:0:0:0:
380,0,117985,6,0,P|375:45|364:90,1,91.5,10|0,2:0|2:0,2:0:0:0:
506,234,118202,2,0,P|495:279|490:324,1,91.5,2|0,2:0|2:0,2:0:0:0:
232,369,118420,5,0,3:2:0:0:
209,290,118529,2,0,P|254:290|290:317,1,91.5,8|0,2:0|2:0,2:0:0:0:
395,198,118746,5,2,2:0:0:0:
494,335,118855,2,0,P|394:332|367:241,1,183,8|0,2:0|2:0,2:0:0:0:
400,202,119181,1,2,2:0:0:0:
201,298,119289,6,0,P|157:284|112:277,1,91.5,4|0,3:2|2:0,2:0:0:0:
0,132,119507,1,2,2:0:0:0:
66,69,119616,2,0,P|78:112|85:158,1,91.5,2|8,2:0|2:0,2:0:0:0:
217,292,119833,1,2,2:0:0:0:
269,230,119942,2,0,P|260:185|247:141,1,91.5,2|0,2:0|2:0,2:0:0:0:
416,21,120159,5,0,3:2:0:0:
475,70,120268,1,8,2:0:0:0:
425,127,120376,2,0,P|381:139|335:159,1,91.5,2|0,2:0|2:0,2:0:0:0:
164,148,120594,2,0,P|165:103|196:71,1,91.5,8|0,2:0|2:0,2:0:0:0:
403,215,120811,2,0,P|405:261|367:300,1,91.5,2|0,2:0|2:0,2:0:0:0:
305,358,121029,1,4,3:2:0:0:
305,358,121246,6,0,P|293:315|275:265,1,91.5,2|0,2:0|2:0,2:0:0:0:
425,127,121463,2,0,P|409:83|397:39,1,91.5,10|0,2:0|2:0,2:0:0:0:
155,164,121681,5,2,2:0:0:0:
223,201,121789,1,8,2:0:0:0:
308,58,121898,6,0,P|320:35|304:55,1,76.25,8|0,2:0|2:0,2:0:0:0:
223,0,122007,6,0,P|212:81|263:133,1,162.666666666667,0|0,3:2|2:0,2:0:0:0:
425,127,122224,2,0,P|464:136|501:152,1,81.3333333333333,0|0,3:2|2:0,2:0:0:0:
322,249,122442,6,0,P|280:230|235:219,1,91.5,4|0,3:2|2:0,2:0:0:0:
50,207,122659,5,2,2:0:0:0:
94,284,122768,2,0,P|83:193|69:103,1,183,4|0,3:2|2:0,2:0:0:0:
9,48,123094,5,2,2:0:0:0:
80,3,123202,1,8,2:0:0:0:
159,27,123311,1,0,2:0:0:0:
198,104,123420,2,0,P|240:120|284:132,1,91.5,2|0,2:0|2:0,2:0:0:0:
480,234,123637,5,8,2:0:0:0:
512,166,123746,1,8,2:0:0:0:
480,97,123855,1,0,3:2:0:0:
406,77,123963,1,0,3:2:0:0:
341,189,124072,6,0,P|349:233|366:276,1,91.5,2|0,3:2|2:0,2:0:0:0:
254,384,124289,2,0,P|236:341|228:296,1,91.5,2|0,3:2|2:0,2:0:0:0:
168,66,124507,6,0,B|112:42|71:102|98:94|74:151|0:124,2,183,4|0|0,3:2|3:2|3:2,2:0:0:0:
380,132,125376,2,0,P|378:51|271:75,1,183,8|0,2:0|2:0,2:0:0:0:
246,102,125811,2,0,P|257:135|261:164,1,54.9000000000001,4|0,2:3|2:0,2:0:0:0:
221,229,126246,6,0,P|291:194|323:226,1,122,4|0,3:2|2:0,2:0:0:0:
380,132,126572,2,0,P|445:175|433:218,1,122,0|0,3:2|2:0,2:0:0:0:
490,279,126898,2,0,P|479:313|454:328,1,61,0|0,3:2|2:0,2:0:0:0:
385,278,127116,1,8,2:0:0:0:
268,355,127333,1,4,2:3:0:0:
271,364,127405,1,4,2:3:0:0:
274,374,127478,1,4,2:3:0:0:
276,384,127550,2,0,P|287:337|301:285,1,91.5,4|0,2:3|2:0,2:0:0:0:
236,232,127985,6,0,P|144:216|134:312,2,183,4|0|0,3:2|3:2|3:2,2:0:0:0:
425,151,128855,2,0,P|429:120|436:91,1,61,8|0,2:0|2:0,2:0:0:0:
285,9,129072,5,8,2:0:0:0:
230,63,129181,1,8,2:0:0:0:
248,139,129289,1,8,2:0:0:0:
305,192,129398,1,0,3:2:0:0:
316,219,129507,1,0,3:2:0:0:
311,249,129616,1,0,3:2:0:0:
264,312,129724,6,0,P|173:324|84:345,1,183,4|0,3:2|2:0,2:0:0:0:
34,219,130159,2,0,B|70:207|100:156|100:156|105:205|150:238,1,183,0|0,3:2|2:0,2:0:0:0:
84,345,130594,5,8,2:0:0:0:
82,324,130702,1,0,3:2:0:0:
80,304,130811,1,0,3:2:0:0:
79,284,130920,1,0,3:2:0:0:
142,232,131029,5,8,2:0:0:0:
215,203,131137,1,8,2:0:0:0:
291,218,131246,1,8,2:0:0:0:
337,280,131355,1,8,2:0:0:0:
343,354,131463,6,0,P|356:269|375:169,1,183,4|2,3:2|2:0,2:0:0:0:
313,0,131789,1,2,2:0:0:0:
255,49,131898,2,0,P|264:88|274:137,1,79.3,10|0,2:0|2:0,2:0:0:0:
463,236,132116,2,0,P|472:275|482:324,1,79.3,2|0,2:0|2:0,2:0:0:0:
374,173,132333,5,2,3:2:0:0:
425,111,132442,2,0,P|486:101|527:153,1,79.3,10|0,2:0|2:0,2:0:0:0:
311,245,132659,5,2,2:0:0:0:
248,292,132768,2,0,B|157:278|215:220|116:212,1,158.6,8|0,2:0|2:0,2:0:0:0:
5,287,133094,1,8,2:0:0:0:
58,358,133203,2,0,P|81:327|83:288,1,79.3,0|0,3:2|2:0,2:0:0:0:
8,111,133420,6,0,P|14:148|18:189,1,79.3,2|0,2:0|2:0,2:0:0:0:
245,106,133637,2,0,P|240:66|234:27,1,79.3,10|0,2:0|2:0,2:0:0:0:
93,117,133855,2,0,P|132:121|171:127,1,79.3,2|0,2:0|2:0,2:0:0:0:
281,256,134072,5,2,3:2:0:0:
348,294,134181,2,0,P|387:288|427:284,1,79.3,10|0,2:0|2:0,2:0:0:0:
512,152,134398,1,2,3:2:0:0:
440,134,134507,2,0,P|400:140|361:144,1,79.3,10|0,2:0|2:0,2:0:0:0:
161,46,134724,5,0,3:2:0:0:
234,27,134833,1,0,3:2:0:0:
280,90,134942,2,0,P|267:131|249:215,1,91.5,4|0,3:2|2:0,2:0:0:0:
57,292,135159,2,0,P|44:333|26:417,1,91.5,0|0,3:2|2:0,2:0:0:0:
181,358,135376,6,0,P|191:313|205:269,1,91.5,0|0,3:2|2:0,2:0:0:0:
10,190,135594,2,0,P|20:145|34:101,1,91.5,0|0,3:2|2:0,2:0:0:0:
255,178,135811,6,0,P|300:173|346:169,1,91.5,0|0,3:2|2:0,2:0:0:0:
94,16,136029,2,0,P|48:19|2:24,1,91.5,0|0,3:2|2:0,2:0:0:0:
198,103,136246,6,0,P|220:54|167:8,1,91.5,0|0,3:2|2:0,2:0:0:0:
105,182,136463,2,0,P|89:223|111:261,1,91.5,0|0,3:2|2:0,2:0:0:0:
183,295,136681,1,4,3:2:0:0:
11,92,137116,6,0,L|72:99,1,54.9000000000001,4|0,3:2|2:0,2:0:0:0:
456,139,137550,6,0,L|395:132,1,54.9000000000001,4|0,3:2|2:0,2:0:0:0:
11,92,137985,6,0,L|72:99,1,54.9000000000001,4|0,3:2|2:0,2:0:0:0:
456,139,138420,6,0,L|395:132,1,54.9000000000001,4|0,3:2|2:0,2:0:0:0:
11,92,138855,6,0,L|72:99,1,54.9000000000001,4|0,3:2|2:0,2:0:0:0:
455,139,139289,2,0,P|415:66|368:80,1,137.25,4|0,3:2|2:0,2:0:0:0:
360,95,139507,2,0,P|365:121|364:152,2,45.75,8|8|0,2:0|2:0|3:2,2:0:0:0:
295,60,139670,1,0,3:2:0:0:
289,64,139724,1,8,2:0:0:0:
239,121,139833,5,2,2:0:0:0:
137,64,139942,5,8,2:0:0:0:
44,169,140050,5,2,2:0:0:0:
0,107,140159,6,0,P|9:65|16:16,1,91.5000000000002,4|0,3:2|2:0,2:0:0:0:
145,216,140376,1,10,2:0:0:0:
164,143,140485,1,2,2:0:0:0:
0,255,140593,2,0,P|46:266|97:286,1,91.5000000000002,2|0,3:2|3:2,2:0:0:0:
244,168,140811,1,8,2:0:0:0:
308,283,140919,1,0,3:2:0:0:
430,238,141028,5,2,3:2:0:0:
468,305,141137,1,0,3:2:0:0:
351,199,141245,5,10,2:0:0:0:
354,187,141318,1,2,2:0:0:0:
358,173,141390,1,2,2:0:0:0:
362,161,141463,6,0,P|407:152|458:137,1,91.5000000000002,2|2,3:2|3:2,2:0:0:0:
308,283,141680,1,10,2:0:0:0:
145,216,141789,1,2,2:0:0:0:
243,168,141898,6,0,P|228:255|204:359,1,183,6|8,3:2|2:0,2:0:0:0:
96,152,142224,1,2,2:0:0:0:
96,152,142278,1,2,2:0:0:0:
96,152,142332,1,0,3:2:0:0:
122,81,142441,1,0,3:2:0:0:
15,164,142550,1,8,2:0:0:0:
122,81,142659,6,0,L|139:22,1,45.7500000000001,2|2,3:2|2:0,2:0:0:0:
145,216,142767,6,0,L|187:260,1,45.7500000000001,2|2,2:0|2:0,2:0:0:0:
96,152,142876,5,0,3:2:0:0:
279,111,142985,6,0,P|236:124|176:135,1,91.5000000000002,10|2,2:0|2:0,2:0:0:0:
62,236,143202,1,0,3:2:0:0:
31,82,143311,1,0,3:2:0:0:
145,216,143419,1,8,2:0:0:0:
0,309,143528,1,2,2:0:0:0:
145,216,143637,6,0,B|245:195|211:285|333:263,1,183,4|8,3:2|2:0,2:0:0:0:
366,321,143927,5,2,2:0:0:0:
404,293,143999,5,2,2:0:0:0:
386,243,144072,6,0,P|392:198|405:148,1,91.5000000000002,2|0,3:2|3:2,2:0:0:0:
235,285,144289,1,8,2:0:0:0:
258,214,144398,1,0,3:2:0:0:
464,384,144506,1,2,2:0:0:0:
464,384,144561,1,2,2:0:0:0:
464,384,144615,1,2,3:2:0:0:
482,308,144724,1,8,2:0:0:0:
386,243,144832,5,2,2:0:0:0:
335,384,144941,1,2,3:2:0:0:
235,285,145050,5,2,2:0:0:0:
291,144,145159,1,10,2:0:0:0:
394,251,145267,1,2,2:0:0:0:
225,288,145376,6,0,P|182:272|129:256,1,91.5,12|0,2:0|2:0,2:0:0:0:
426,70,145811,6,0,P|469:86|522:102,1,91.5,12|0,2:0|2:0,2:0:0:0:
225,288,146245,6,0,P|182:272|129:256,1,91.5,12|8,2:0|2:0,2:0:0:0:
120,262,146626,1,8,2:0:0:0:
120,262,146680,5,12,2:0:0:0:
146,341,146789,5,8,2:0:0:0:
25,241,146898,5,8,2:0:0:0:
179,182,147006,5,8,2:0:0:0:
120,262,147115,6,0,P|102:195|71:105,1,137.25,4|0,3:2|2:0,2:0:0:0:
80,130,147332,2,0,P|127:121|186:93,1,91.5000000000002,8|0,2:0|2:0,2:0:0:0:
296,256,147550,1,0,3:2:0:0:
225,288,147659,1,0,3:2:0:0:
311,181,147767,1,8,2:0:0:0:
371,295,147876,2,0,P|357:343|351:395,1,91.5000000000002,0|0,3:2|2:0,2:0:0:0:
296,256,148093,1,0,3:2:0:0:
386,125,148202,2,0,P|404:170|412:225,1,91.5000000000002,8|0,2:0|2:0,2:0:0:0:
490,352,148419,6,0,P|458:295|379:295,1,137.25,0|0,3:2|2:0,2:0:0:0:
371,295,148637,2,0,P|357:343|351:395,1,91.5000000000002,8|0,2:0|2:0,2:0:0:0:
490,226,148854,5,2,3:2:0:0:
512,155,148963,1,0,3:2:0:0:
471,93,149072,2,0,P|426:105|382:126,1,91.5000000000002,8|0,2:0|2:0,2:0:0:0:
229,6,149289,1,0,3:2:0:0:
301,33,149398,1,0,3:2:0:0:
196,183,149506,2,0,P|167:146|184:75,1,91.5000000000002,8|0,2:0|2:0,2:0:0:0:
311,181,149724,5,8,2:0:0:0:
136,309,149832,2,0,P|181:297|245:284,1,91.5000000000002,8|0,2:0|2:0,2:0:0:0:
27,140,150050,1,8,2:0:0:0:
96,174,150159,1,8,2:0:0:0:
0,234,150267,1,2,3:2:0:0:
70,267,150376,1,8,2:0:0:0:
141,233,150485,6,0,P|76:240|16:354,1,183,4|4,3:2|3:2,2:0:0:0:
196,183,150811,1,2,2:0:0:0:
161,113,150919,1,2,2:0:0:0:
265,222,151028,2,0,P|309:239|361:249,1,91.5000000000002,4|0,3:2|2:0,2:0:0:0:
196,183,151245,5,8,2:0:0:0:
141,233,151354,2,0,P|124:279|115:336,1,91.5000000000002,4|0,3:2|2:0,2:0:0:0:
267,145,151572,5,0,3:2:0:0:
204,36,151680,2,0,P|163:17|115:5,1,91.5000000000002,4|0,3:2|2:0,2:0:0:0:
196,183,151898,5,0,3:2:0:0:
351,118,152006,2,0,P|364:81|375:19,1,91.5000000000002,4|0,3:2|2:0,2:0:0:0:
161,113,152224,5,0,3:2:0:0:
265,222,152332,1,8,2:0:0:0:
267,145,152441,5,0,3:2:0:0:
141,233,152550,1,0,3:2:0:0:
301,377,152659,6,0,P|313:333|315:277,1,91.5000000000002,8|0,2:0|2:0,2:0:0:0:
161,113,152876,1,0,3:2:0:0:
79,302,152985,6,0,P|62:264|57:197,1,91.5000000000002,8|0,2:0|2:0,2:0:0:0:
237,53,153202,1,0,3:2:0:0:
423,158,153311,6,0,P|378:169|329:191,1,91.5000000000002,8|0,2:0|2:0,2:0:0:0:
118,5,153528,1,0,3:2:0:0:
0,109,153637,6,0,P|35:117|96:146,1,91.5000000000002,8|0,2:0|2:0,2:0:0:0:
292,0,153854,1,0,3:2:0:0:
292,0,153963,1,0,3:2:0:0:
237,53,154072,6,0,P|229:99|224:146,1,91.5000000000002,2|8,3:2|2:0,2:0:0:0:
284,306,154289,5,0,3:2:0:0:
284,306,154361,2,0,P|280:342|274:377,1,61.0000000000001,0|0,3:2|2:0,2:0:0:0:
209,330,154506,5,8,2:0:0:0:
350,267,154615,2,0,P|352:221|362:167,1,91.5000000000002,2|0,3:2|3:2,2:0:0:0:
297,134,154832,1,0,3:2:0:0:
209,330,154941,1,8,2:0:0:0:
310,34,155159,5,0,3:2:0:0:
237,53,155267,1,0,3:2:0:0:
428,206,155376,5,8,2:0:0:0:
359,176,155485,1,0,3:2:0:0:
461,54,155593,5,0,3:2:0:0:
482,125,155702,1,0,3:2:0:0:
350,267,155811,5,8,2:0:0:0:
350,267,156028,6,0,B|324:207|361:182|356:214|470:118|305:-29|213:183|340:192,2,305,12|8|8,3:2|2:0|2:0,2:0:0:0:
371,344,156680,1,8,2:0:0:0:
371,344,157115,6,0,P|418:337|473:313,1,91.5,2|0,2:0|2:0,2:0:0:0:
466,315,157550,1,4,3:2:0:0:
440,321,163636,5,8,2:3:0:0:
415,306,163745,2,0,P|393:301|347:294,1,61,8|8,2:3|2:3,2:0:0:0:
291,360,164071,5,4,2:3:0:0:
221,334,164180,1,4,2:3:0:0:
214,303,164289,1,0,3:0:0:0:
227,286,164397,1,0,3:0:0:0:
257,213,164506,6,0,P|261:170|285:66,1,134.2,4|8,3:2|2:3,2:0:0:0:
171,20,164832,1,4,2:3:0:0:
162,37,164941,2,0,P|168:59|182:107,1,67.0999999999999,4|0,2:3|2:0,2:0:0:0:
342,215,165158,5,8,2:3:0:0:
382,186,165267,1,8,2:3:0:0:
422,200,165376,2,0,P|443:263|450:340,1,134.2,4|8,2:3|2:3,2:0:0:0:
361,363,165702,1,8,2:3:0:0:
347,348,165810,2,0,P|353:326|364:275,1,67.0999999999999,4|0,2:3|2:0,2:0:0:0:
491,310,166028,2,0,P|482:346|475:379,1,67.0999999999999,8|8,2:3|2:3,2:0:0:0:
270,295,166245,6,0,P|216:280|132:267,1,134.2,4|4,3:2|2:3,2:0:0:0:
55,366,166571,1,8,2:3:0:0:
41,356,166680,2,0,P|35:323|17:282,1,67.0999999999999,4|0,2:3|2:0,2:0:0:0:
123,193,166897,5,8,2:3:0:0:
121,182,167006,1,8,2:3:0:0:
119,172,167115,2,0,L|103:96,1,67.0999999999999,4|0,3:2|2:0,2:0:0:0:
32,80,167332,2,0,L|18:-2,1,67.0999999999999,8|8,2:3|2:3,2:0:0:0:
196,174,167550,5,4,2:3:0:0:
207,176,167658,1,4,2:3:0:0:
217,178,167767,2,0,P|250:184|291:194,1,67.0999999999999,8|8,2:3|2:3,2:0:0:0:
434,126,167984,5,4,3:2:0:0:
431,108,168093,1,8,2:2:0:0:
429,90,168202,1,8,2:0:0:0:
426,74,168310,1,8,2:0:0:0:
354,150,168419,1,0,3:2:0:0:
356,166,168528,1,8,2:0:0:0:
359,183,168636,1,8,2:0:0:0:
361,200,168745,1,8,2:0:0:0:
460,236,168854,5,0,3:2:0:0:
473,196,168963,1,8,2:2:0:0:
463,155,169071,1,8,2:0:0:0:
434,126,169180,1,8,2:0:0:0:
332,132,169289,5,0,3:2:0:0:
303,103,169397,1,8,2:2:0:0:
293,62,169506,1,8,2:0:0:0:
306,22,169615,1,8,2:0:0:0:
394,53,169723,6,0,P|377:135|361:241,1,183,0|8,3:2|2:0,2:0:0:0:
211,350,170050,1,8,2:0:0:0:
280,384,170158,5,0,3:2:0:0:
302,335,170267,1,8,2:0:0:0:
270,291,170376,2,0,P|226:274|173:263,1,91.5,8|8,2:0|2:0,2:0:0:0:
104,105,170593,5,0,3:2:0:0:
29,129,170702,1,8,2:0:0:0:
11,202,170810,1,8,2:0:0:0:
58,265,170919,1,8,2:0:0:0:
187,166,171028,6,0,P|229:150|280:142,1,91.5,0|0,3:2|2:0,2:0:0:0:
332,87,171245,1,0,3:2:0:0:
469,208,171354,2,0,P|479:238|486:284,2,61,0|0|0,3:2|3:2|3:2,2:0:0:0:
499,135,171571,6,0,P|416:143|388:255,1,183,12|0,2:0|2:0,2:0:0:0:
375,243,171789,1,0,3:2:0:0:
192,341,171897,6,0,P|134:342|94:217,1,183,12|0,2:0|2:0,2:0:0:0:
74,227,172115,1,0,3:2:0:0:
276,82,172223,6,0,B|315:71|331:-4|217:-60|145:77|225:136,1,244,12|0,2:0|2:0,2:0:0:0:
377,244,172550,1,0,3:2:0:0:
329,186,172658,1,0,3:2:0:0:
235,267,172767,6,0,P|252:325|265:384,1,122,8|0,2:0|2:0,2:0:0:0:
468,180,172984,2,0,P|450:121|437:62,1,122,2|0,2:0|2:0,2:0:0:0:
147,261,173202,6,0,P|103:260|74:227,1,91.5000000000002,6|0,3:2|2:0,2:0:0:0:
208,29,173419,1,10,2:0:0:0:
280,61,173528,2,0,P|301:98|287:140,1,91.5000000000002,2|0,3:2|2:0,2:0:0:0:
78,127,173745,5,2,3:2:0:0:
121,114,173854,1,10,2:0:0:0:
167,108,173962,1,2,3:2:0:0:
278,221,174071,5,2,3:2:0:0:
373,148,174180,2,0,P|368:178|361:238,1,91.5000000000002,0|10,2:0|2:0,2:0:0:0:
414,299,174397,5,2,3:2:0:0:
261,228,174506,2,0,P|246:269|272:305,1,91.5000000000002,0|2,2:0|3:2,2:0:0:0:
464,175,174723,2,0,P|478:133|452:97,1,91.5000000000002,10|0,2:0|2:0,2:0:0:0:
165,1,174941,6,0,P|170:31|177:91,1,91.5000000000002,2|0,3:2|2:0,2:0:0:0:
71,184,175158,2,0,P|66:138|58:93,1,91.5000000000002,10|0,2:0|2:0,2:0:0:0:
266,139,175375,2,0,P|273:184|278:229,1,91.5000000000002,2|0,3:2|3:2,2:0:0:0:
60,384,175593,5,10,2:0:0:0:
0,332,175702,2,0,P|-8:289|47:254,1,91.5000000000002,0|2,3:2|2:0,2:0:0:0:
61,181,175919,5,0,3:2:0:0:
256,319,176028,2,0,P|222:347|164:317,1,91.5000000000002,10|0,2:0|2:0,2:0:0:0:
164,156,176245,6,0,P|171:201|176:246,1,91.5000000000002,2|0,3:2|2:0,2:0:0:0:
369,367,176462,2,0,P|364:321|356:276,1,91.5000000000002,8|0,2:0|2:0,2:0:0:0:
512,87,176680,6,0,B|461:67|417:95|450:124|398:156|349:134,2,183,2|10|2,3:2|2:0|3:2,2:0:0:0:
317,206,177223,1,0,3:2:0:0:
256,153,177332,2,0,P|248:108|310:79,1,91.5000000000002,10|0,2:0|2:0,2:0:0:0:
491,236,177549,5,2,3:2:0:0:
512,310,177658,1,2,2:0:0:0:
449,356,177767,2,0,P|409:348|358:343,1,91.5000000000002,10|0,2:0|3:2,2:0:0:0:
211,219,177984,2,0,P|210:172|246:147,1,91.5000000000002,2|0,2:0|3:2,2:0:0:0:
261,352,178202,2,0,P|227:381|185:370,1,91.5000000000002,10|0,2:0|2:0,2:0:0:0:
58,247,178419,5,4,3:2:0:0:
58,247,178636,6,0,P|65:292|71:337,1,91.5000000000002,10|0,2:0|2:0,2:0:0:0:
258,154,178854,2,0,P|265:199|271:244,1,91.5000000000002,2|0,3:2|2:0,2:0:0:0:
127,110,179071,5,10,2:0:0:0:
190,54,179180,1,0,3:2:0:0:
347,169,179288,6,0,P|365:183|345:171,1,76.25,8|0,2:0|2:0,2:0:0:0:
361,89,179397,6,0,P|302:98|268:147,1,122,10|0,2:0|2:0,2:0:0:0:
411,269,179615,6,0,P|456:279|511:303,1,91.5,2|0,3:2|2:0,2:0:0:0:
346,169,179832,6,0,P|277:182|164:219,1,183,2|0,3:2|2:0,2:0:0:0:
156,229,180049,1,0,3:2:0:0:
196,110,180158,6,0,P|235:108|268:152,1,91.5000000000002,6|0,3:2|2:0,2:0:0:0:
141,313,180375,1,10,2:0:0:0:
73,277,180484,2,0,P|52:242|73:192,1,91.5000000000002,2|0,3:2|2:0,2:0:0:0:
346,169,180702,5,2,3:2:0:0:
376,244,180810,1,10,2:0:0:0:
316,298,180919,2,0,P|271:288|226:280,1,91.5000000000002,0|2,2:0|3:2,2:0:0:0:
108,22,181136,5,2,2:0:0:0:
0,123,181245,2,0,P|44:113|89:105,1,91.5000000000002,10|2,2:0|3:2,2:0:0:0:
355,159,181462,6,0,P|373:118|353:78,1,91.5000000000002,0|2,2:0|3:2,2:0:0:0:
155,242,181680,2,0,P|181:277|225:280,1,91.5000000000002,10|0,2:0|2:0,2:0:0:0:
252,58,181897,6,0,P|241:102|233:147,1,91.5000000000002,2|0,3:2|2:0,2:0:0:0:
330,335,182115,2,0,P|338:290|348:245,1,91.5000000000002,10|0,2:0|2:0,2:0:0:0:
470,56,182332,6,0,P|459:100|451:145,1,91.5000000000002,2|0,3:2|2:0,2:0:0:0:
206,369,182549,2,0,P|214:324|224:279,1,91.5000000000002,10|0,2:0|2:0,2:0:0:0:
319,110,182767,6,0,P|351:102|389:98,1,61.0000000000001,10|0,2:0|3:2,2:0:0:0:
357,196,182912,5,0,3:2:0:0:
350,206,182984,2,0,P|319:209|290:217,1,61.0000000000001,8|0,2:0|3:2,2:0:0:0:
149,103,183129,5,0,3:2:0:0:
161,110,183202,2,0,P|190:102|220:98,1,61.0000000000001,10|0,2:0|3:2,2:0:0:0:
167,233,183346,5,0,3:2:0:0:
160,244,183419,2,0,P|130:248|101:256,2,61.0000000000001,8|0|0,2:0|3:2|3:2,2:0:0:0:
468,359,183636,6,0,P|483:297|442:251,1,122,4|0,3:2|2:0,2:0:0:0:
433,252,183854,1,10,2:0:0:0:
289,343,183962,2,0,P|332:330|378:323,1,91.5000000000002,2|0,3:2|2:0,2:0:0:0:
471,367,184180,1,2,3:2:0:0:
337,233,184288,2,0,P|292:241|249:255,1,91.5000000000002,10|0,2:0|2:0,2:0:0:0:
27,363,184506,6,0,P|5:321|23:277,1,91.5000000000002,2|0,3:2|2:0,2:0:0:0:
213,164,184723,2,0,P|225:121|203:83,1,91.5000000000002,10|0,2:0|2:0,2:0:0:0:
26,49,184941,6,0,P|34:93|40:139,1,91.5000000000002,2|0,3:2|3:2,2:0:0:0:
162,329,185158,2,0,P|156:283|147:238,1,91.5000000000002,10|0,2:0|2:0,2:0:0:0:
211,73,185375,5,4,3:2:0:0:
211,73,185593,6,0,P|161:83|122:95,1,91.5000000000002,10|0,2:0|2:0,2:0:0:0:
337,233,185810,2,0,P|292:241|248:255,1,91.5000000000002,2|0,3:2|2:0,2:0:0:0:
440,58,186028,1,10,2:0:0:0:
363,80,186136,1,0,3:2:0:0:
445,266,186245,6,0,P|461:285|448:263,1,76.25,8|0,2:0|2:0,2:0:0:0:
416,189,186354,6,0,P|365:242|373:315,1,152.5,0|0,3:2|2:0,2:0:0:0:
512,203,186571,2,0,P|495:165|486:126,1,81.3333333333333,0|0,3:2|2:0,2:0:0:0:
373,315,186788,6,0,P|339:322|271:345,1,91.5000034904481,4|0,3:2|2:0,2:0:0:0:
15,213,187006,5,2,3:2:0:0:
60,278,187115,2,0,P|171:264|174:170,1,183,6|8,3:2|2:0,2:0:0:0:
87,113,187441,2,0,P|94:146|106:207,1,91.5000000000002,2|0,3:2|2:0,2:0:0:0:
188,22,187658,1,2,3:2:0:0:
259,67,187767,2,0,P|268:111|277:156,1,91.5000000000002,10|0,2:0|2:0,2:0:0:0:
445,352,187984,5,2,3:2:0:0:
488,283,188093,1,0,3:2:0:0:
444,217,188202,2,0,P|392:201|352:239,1,91.5000000000002,10|0,2:0|2:0,2:0:0:0:
176,325,188419,6,0,P|234:317|265:266,1,122,2|0,3:2|2:0,2:0:0:0:
281,243,188636,2,0,P|292:287|298:332,1,91.5000000000002,10|0,2:0|2:0,2:0:0:0:
13,172,188854,6,0,P|25:259|34:353,1,183,12|0,2:0|2:0,2:0:0:0:
162,66,189288,2,0,P|174:156|183:247,1,183,12|0,2:0|2:0,2:0:0:0:
415,290,189723,6,0,P|417:250|388:224,2,81.3333333333333,8|0|0,2:0|3:2|3:2,2:0:0:0:
140,328,190158,5,8,2:0:0:0:
188,259,190303,5,8,2:0:0:0:
266,247,190448,5,8,2:0:0:0:
336,289,190593,6,0,P|345:199|356:108,1,183,6|0,3:2|2:0,2:0:0:0:
363,83,190919,1,2,3:2:0:0:
114,124,191028,5,8,2:0:0:0:
124,46,191136,1,0,2:0:0:0:
176,18,191245,1,2,3:2:0:0:
215,22,191354,1,2,3:2:0:0:
274,73,191462,2,0,P|264:117|259:163,1,91.5000000000002,10|0,2:0|2:0,2:0:0:0:
331,325,191680,5,2,3:2:0:0:
406,350,191788,1,0,2:0:0:0:
459,290,191897,2,0,P|465:243|437:206,1,91.5000000000002,10|0,2:0|2:0,2:0:0:0:
168,167,192115,5,2,3:2:0:0:
200,255,192223,5,2,3:2:0:0:
217,349,192332,5,6,3:2:0:0:
349,182,192767,5,4,3:2:0:0:
52,99,193202,5,12,3:2:0:0:
358,190,193528,5,0,3:2:0:0:
360,91,193636,2,0,P|353:135|348:181,1,91.5000000000002,8|0,2:0|2:0,2:0:0:0:
447,71,193854,5,8,2:0:0:0:
254,133,193962,5,8,2:0:0:0:
424,264,194071,6,0,P|453:231|449:186,1,91.5000000000002,2|0,2:0|2:0,2:0:0:0:
282,51,194288,1,10,2:0:0:0:
260,124,194397,2,0,P|252:169|247:214,1,91.5000000000002,2|0,3:2|2:0,2:0:0:0:
65,347,194615,1,2,3:2:0:0:
15,285,194723,2,0,P|23:193|39:104,1,183,10|0,2:0|2:0,2:0:0:0:
49,85,195049,1,0,3:2:0:0:
165,136,195158,6,0,P|173:92|144:58,1,91.5000000000002,10|0,2:0|2:0,2:0:0:0:
41,205,195375,1,2,3:2:0:0:
105,253,195484,1,0,3:2:0:0:
179,222,195593,2,0,P|224:214|269:207,1,91.5000000000002,10|0,2:0|2:0,2:0:0:0:
512,140,195810,6,0,P|419:140|386:58,1,183,2|8,3:2|2:0,2:0:0:0:
268,206,196136,2,0,P|248:167|267:127,1,91.5000000000002,2|0,3:2|2:0,2:0:0:0:
303,46,196354,5,2,3:2:0:0:
362,226,196462,2,0,P|352:270|344:315,1,91.5000000000002,10|0,2:0|2:0,2:0:0:0:
261,213,196680,5,2,3:2:0:0:
449,244,196788,2,0,P|459:201|429:168,1,91.5000000000002,2|8,2:0|2:0,2:0:0:0:
262,309,197006,2,0,P|293:339|337:330,1,91.5000000000002,2|0,3:2|2:0,2:0:0:0:
412,353,197223,5,2,3:2:0:0:
191,274,197332,2,0,P|122:282|55:293,1,137.25,10|0,2:0|2:0,2:0:0:0:
42,305,197549,5,2,3:2:0:0:
111,237,197658,1,2,2:0:0:0:
130,332,197767,1,10,2:0:0:0:
25,214,197875,5,2,3:2:0:0:
201,278,197984,1,0,2:0:0:0:
60,384,198093,1,2,3:2:0:0:
95,286,198202,5,10,2:0:0:0:
110,294,198310,2,0,P|154:284|200:277,1,91.5000000000002,0|0,2:0|2:0,2:0:0:0:
414,371,198528,1,0,3:2:0:0:
473,324,198636,2,0,P|475:290|415:257,1,91.5000000000002,10|0,2:0|2:0,2:0:0:0:
290,369,198854,5,2,3:2:0:0:
279,291,198962,1,2,3:2:0:0:
262,214,199071,1,10,2:0:0:0:
232,143,199180,1,2,3:2:0:0:
276,57,199288,6,0,P|366:55|371:142,1,183,2|8,3:2|2:0,2:0:0:0:
168,207,199615,1,2,3:2:0:0:
95,173,199723,2,0,P|50:162|5:157,1,91.5000000000002,0|0,2:0|3:2,2:0:0:0:
244,365,199941,2,0,P|238:319|228:275,1,91.5000000000002,10|0,2:0|2:0,2:0:0:0:
378,131,200158,6,0,P|392:149|380:129,1,76.25,8|0,2:0|2:0,2:0:0:0:
355,52,200267,6,0,P|306:86|297:144,1,122,10|0,2:0|2:0,2:0:0:0:
421,252,200484,6,0,P|460:262|497:278,1,81.3333333333333,2|0,3:2|2:0,2:0:0:0:
297,144,200702,6,0,P|210:114|120:96,1,183,2|0,3:2|2:0,2:0:0:0:
111,106,200919,1,0,3:2:0:0:
35,223,201028,6,0,P|9:153|32:131,1,91.5000000000002,6|0,3:2|2:0,2:0:0:0:
211,61,201245,2,0,P|205:101|201:158,1,91.5000000000002,8|0,2:0|2:0,2:0:0:0:
276,363,201462,5,2,3:2:0:0:
294,288,201571,1,0,3:2:0:0:
227,243,201680,2,0,P|192:253|117:269,1,91.5000000000002,8|0,2:0|3:2,2:0:0:0:
384,150,201897,6,0,P|442:149|472:241,1,137.25,2|0,2:0|2:0,2:0:0:0:
479,231,202115,1,10,2:0:0:0:
298,169,202223,2,0,P|306:124|312:78,1,91.5000000000002,2|0,2:0|3:2,2:0:0:0:
265,19,202441,1,0,3:2:0:0:
163,190,202549,2,0,P|157:235|149:280,1,91.5000000000002,10|0,2:0|2:0,2:0:0:0:
0,116,202767,6,0,P|47:69|139:96,1,137.25,2|0,3:2|2:0,2:0:0:0:
136,85,202984,1,8,2:0:0:0:
223,17,203093,2,0,P|250:56|238:100,1,91.5000000000002,2|0,3:2|2:0,2:0:0:0:
343,284,203310,5,2,3:2:0:0:
407,236,203419,2,0,P|411:190|421:145,1,91.5000000000002,10|0,2:0|2:0,2:0:0:0:
354,86,203636,6,0,P|349:55|340:26,2,61.0000000000001,10|0|0,2:0|3:2|3:2,2:0:0:0:
434,8,203854,2,0,P|443:37|448:68,2,61.0000000000001,8|0|0,3:2|3:2|3:2,2:0:0:0:
279,211,204071,6,0,P|283:180|292:151,2,61.0000000000001,10|0|0,2:0|3:2|3:2,2:0:0:0:
509,194,204288,2,0,P|500:223|496:254,2,61.0000000000001,8|0|0,2:0|3:2|3:2,2:0:0:0:
377,249,204506,6,0,P|285:253|202:276,1,146.4,8|0,2:0|3:2,2:0:0:0:
199,273,204723,1,8,3:2:0:0:
181,282,204796,2,0,P|178:233|187:199,1,73.2000000000001,0|0,3:2|3:2,2:0:0:0:
157,43,204941,5,8,2:0:0:0:
160,51,205013,1,0,3:2:0:0:
164,59,205086,1,0,3:2:0:0:
167,68,205158,2,0,P|208:60|244:53,2,73.2000000000001,8|0|0,2:0|3:2|3:2,2:0:0:0:
23,137,205375,6,0,P|6:168|13:203,1,73.2000000000001,8|0,2:0|3:2,2:0:0:0:
117,236,205520,5,0,3:2:0:0:
133,227,205593,2,0,P|149:195|142:160,1,73.2000000000001,8|0,2:0|3:2,2:0:0:0:
36,50,205738,5,0,3:2:0:0:
24,62,205810,2,0,P|16:97|33:128,1,73.2000000000001,8|0,2:0|3:2,2:0:0:0:
240,128,205955,5,0,3:2:0:0:
252,116,206028,2,0,P|259:80|242:49,1,73.2000000000001,10|0,2:0|3:2,2:0:0:0:
130,145,206173,5,0,3:2:0:0:
142,160,206245,2,0,P|222:177|305:207,1,146.4,10|0,2:0|2:0,2:0:0:0:
391,245,206462,6,0,P|393:210|369:184,2,73.2000000000001,8|0|0,2:0|3:2|3:2,2:0:0:0:
315,270,206680,2,0,P|291:245|294:209,2,73.2000000000001,8|0|0,2:0|3:2|3:2,2:0:0:0:
457,109,206897,6,0,P|451:148|440:206,1,73.2000000000001,10|0,2:0|3:2,2:0:0:0:
318,367,207042,5,0,3:2:0:0:
307,354,207115,2,0,P|313:317|318:281,1,73.2000000000001,10|0,2:0|3:2,2:0:0:0:
259,46,207259,5,0,3:2:0:0:
245,52,207332,2,0,P|239:91|228:149,1,73.2000000000001,10|0,2:0|3:2,2:0:0:0:
71,280,207477,5,0,3:2:0:0:
62,270,207549,2,0,P|54:222|94:180,1,91.5000000000002,10|0,2:0|3:2,2:0:0:0:
294,208,207767,6,0,P|212:214|150:235,1,137.25,10|0,2:0|2:0,2:0:0:0:
146,240,207984,5,0,3:2:0:0:
376,191,208093,2,0,P|379:235|349:268,1,91.5000000000002,12|0,2:0|2:0,2:0:0:0:
170,126,208310,5,0,3:2:0:0:
418,323,208419,2,0,P|385:353|333:344,1,91.5000000000002,12|0,2:0|2:0,2:0:0:0:
263,120,208636,5,0,3:2:0:0:
233,369,208745,2,0,P|242:305|254:243,1,91.5000000000002,12|0,2:0|2:0,2:0:0:0:
43,140,208962,5,0,3:2:0:0:
64,319,209071,2,0,P|55:255|43:193,1,91.5000000000002,12|0,2:0|2:0,2:0:0:0:
156,35,209288,2,0,P|163:80|169:125,1,91.5000000000002,0|0,3:2|2:0,2:0:0:0:
324,223,209506,2,0,P|342:161|282:109,1,137.25,0|0,3:2|2:0,2:0:0:0:
276,109,209723,5,0,3:2:0:0:
129,217,209832,2,0,P|173:208|219:201,1,91.5000000000002,12|0,2:0|2:0,2:0:0:0:
419,223,210049,5,0,3:2:0:0:
164,41,210158,2,0,P|208:32|254:25,1,91.5000000000002,12|0,2:0|2:0,2:0:0:0:
362,155,210375,5,0,3:2:0:0:
223,296,210484,2,0,P|201:258|222:202,1,91.5000000000002,12|0,2:0|2:0,2:0:0:0:
276,109,210702,5,0,3:2:0:0:
482,302,210810,2,0,P|507:267|498:203,1,91.5000000000002,12|0,3:2|2:0,2:0:0:0:
279,15,211028,2,0,P|271:59|265:112,1,91.5000000000002,0|0,3:2|2:0,2:0:0:0:
309,383,211245,2,0,P|319:315|332:247,1,137.25,0|0,3:2|2:0,2:0:0:0:
344,238,211462,5,0,3:2:0:0:
254,179,211571,1,14,2:0:0:0:
248,281,211680,1,2,2:0:0:0:
341,144,211788,5,0,3:2:0:0:
172,226,211897,1,14,2:0:0:0:
330,334,212006,1,2,2:0:0:0:
248,167,212115,5,0,3:2:0:0:
113,295,212223,2,0,P|67:301|22:309,1,91.5000000000002,12|2,2:0|2:0,2:0:0:0:
344,238,212441,5,0,3:2:0:0:
163,111,212549,2,0,P|117:117|72:125,1,91.5000000000002,12|2,2:0|2:0,2:0:0:0:
227,370,212767,2,0,P|235:325|247:280,1,91.5000000000002,0|0,3:2|2:0,2:0:0:0:
465,112,212984,2,0,P|447:178|433:245,1,137.25,0|0,3:2|2:0,2:0:0:0:
416,262,213202,6,0,P|373:270|343:215,1,91.5000000000002,12|0,2:0|2:0,2:0:0:0:
153,126,213419,2,0,P|196:118|243:208,1,137.25,8|0,2:0|2:0,2:0:0:0:
246,201,213636,5,8,2:0:0:0:
350,66,213745,2,0,P|369:111|337:163,1,91.5000000000002,8|0,2:0|2:0,2:0:0:0:
95,369,213926,6,0,P|72:233|39:65,1,305.000011634827,12|0,2:0|3:2,2:0:0:0:
37,56,214343,1,0,3:2:0:0:
30,42,214397,1,0,3:2:0:0:
453,131,214506,5,12,2:0:0:0:
256,192,214560,12,0,220375,3:2:0:0:
401,291,221245,5,8,2:0:0:0:
396,312,221354,1,8,2:0:0:0:
393,333,221462,1,0,3:2:0:0:
