osu file format v14

[General]
AudioFilename: audio.mp3
AudioLeadIn: 0
PreviewTime:172333
Countdown: 0
SampleSet: Soft
StackLeniency: 0.6
Mode: 0
LetterboxInBreaks: 0
WidescreenStoryboard: 1

[Editor]
Bookmarks: 1030,67008,124507,173202,214507,221463
DistanceSpacing: 1
BeatDivisor: 6
GridSize: 32
TimelineZoom: 2.2

[Metadata]
Title:Jinsei Easy?
TitleUnicode:人生イージー?
Artist:DIALOGUE+
ArtistUnicode:DIALOGUE+
Creator:Amateurre
Version:LV.50 AmaCandy's Expert
Source:弱キャラ友崎くん
Tags:anime japanese pop j-pop jpop opening jaku chara tomozaki kun bottom tier character tomozaki-kun iljaaz keqing finshie kuse KuBsNia_ZhoYL_ winnie yogurtt lecandy asagi tsukinyuni matha petal
BeatmapID:3132548
BeatmapSetID:1507979

[Difficulty]
HPDrainRate:5.5
CircleSize:3.8
OverallDifficulty:8.8
ApproachRate:9.4
SliderMultiplier:1.84
SliderTickRate:1

[Events]
//Background and Video events
0,0,"DoqxyrCVAAAO5X.jpg",0,0
//Break Periods
2,157750,163097
//Storyboard Layer 0 (Background)
//Storyboard Layer 1 (Fail)
//Storyboard Layer 2 (Pass)
//Storyboard Layer 3 (Foreground)
//Storyboard Layer 4 (Overlay)
//Storyboard Sound Samples

[TimingPoints]
1030,434.782608695652,4,2,1,60,1,0
1030,-71.4285714285714,4,2,1,60,0,0
4508,-62.5,4,2,1,60,0,0
6247,-50,4,2,1,70,0,0
7551,-38.4615384615385,4,2,1,70,0,0
7986,-105.180352835171,4,2,1,70,0,0
8856,-122.71457333433,4,2,1,70,0,0
9725,-100,4,2,1,70,0,0
11464,-55.5555555555556,4,2,1,70,0,0
13203,-55.5555555555556,4,2,1,75,0,0
19725,-45.4545454545455,4,2,1,75,0,0
20160,-100,4,2,1,60,0,0
25377,-58.8235294117647,4,2,1,60,0,0
26682,-142.857142857143,4,2,1,60,0,0
27116,-62.5,4,2,1,70,0,0
34073,-76.9230769230769,4,2,1,70,0,0
35377,-115.39256403051,4,2,1,70,0,0
35812,-76.9230769230769,4,2,1,70,0,0
37116,-109.197738422101,4,2,1,70,0,0
37551,-76.9230769230769,4,2,1,70,0,0
40703,-90.4329481856323,4,2,1,70,0,0
41029,-62.5,4,2,1,70,0,0
44508,-58.8235294117647,4,2,1,70,0,0
45377,-83.3333333333333,4,2,1,70,0,0
45812,-50,4,2,1,70,0,0
46247,-58.8235294117647,4,2,1,70,0,0
49290,-200,4,2,1,70,0,0
49725,-55.5555555555556,4,2,1,80,0,0
55921,-45.4545454545455,4,2,1,80,0,0
56682,-55.5555555555556,4,2,1,80,0,0
63312,-111.111111111111,4,2,1,80,0,0
63638,-55.5555555555556,4,2,1,80,0,0
65377,-250,4,2,1,80,0,0
67008,-166.666666666667,4,2,1,65,0,0
70486,-66.6666666666667,4,2,1,65,0,0
72443,-55.5555555555556,4,2,1,70,0,0
74073,-83.3333333333333,4,2,1,70,0,0
79290,-55.5555555555556,4,2,1,70,0,0
83638,434.782608695652,4,2,1,70,1,0
83638,-62.5,4,2,1,70,0,0
89290,-50,4,2,1,70,0,0
89724,-55.5555555555556,4,2,1,70,0,0
93203,434.782608695652,4,2,1,70,1,0
93203,-62.5,4,2,1,70,0,0
103637,-45.4545454545455,4,2,1,70,0,0
108855,-55.5555555555556,4,2,1,80,0,0
115050,-45.4545454545455,4,2,1,80,0,0
115811,-55.5555555555556,4,2,1,80,0,0
122442,-111.111111111111,4,2,1,80,0,0
122768,-55.5555555555556,4,2,1,80,0,0
124507,-81.2116976506423,4,2,1,65,0,0
125376,-100,4,2,1,65,0,0
125811,-199.849574179621,4,2,1,65,0,0
126246,-81.2116976506423,4,2,1,65,0,0
127116,-100,4,2,1,65,0,0
127550,-200,4,2,1,65,0,0
127985,-79.3650793650794,4,2,1,65,0,0
129724,-89.2899890341088,4,2,1,65,0,0
131463,-66.6666666666667,4,2,1,70,0,0
136681,-333.333333333333,4,2,1,70,0,0
137442,-333.333333333333,4,2,1,70,0,0
137550,-333.333333333333,4,2,1,70,0,0
137876,-333.333333333333,4,2,1,70,0,0
137984,-333.333333333333,4,2,1,70,0,0
138311,-333.333333333333,4,2,1,70,0,0
138419,-333.333333333333,4,2,1,70,0,0
138746,-333.333333333333,4,2,1,70,0,0
138854,-333.333333333333,4,2,1,70,0,0
139181,-333.333333333333,4,2,1,70,0,0
139289,-71.4285714285714,4,2,1,70,0,0
140159,217.391304347826,4,2,1,75,1,0
140159,-125,4,2,1,75,0,0
141898,-100,4,2,1,75,0,0
142224,-125,4,2,1,75,0,0
143637,-100,4,2,1,75,0,0
143963,-125,4,2,1,75,0,0
150702,-111.111111111111,4,2,1,75,0,0
154072,-117.647058823529,4,2,1,75,0,0
156029,-76.9230769230769,4,2,1,75,0,0
157116,-333.333333333334,4,2,1,75,0,0
157550,434.782608695652,4,2,1,60,1,0
157550,-166.666666666667,4,2,1,60,0,0
164507,-71.4285714285714,4,2,1,70,0,0
169724,-58.8235294117647,4,2,1,70,0,0
170159,-71.4285714285714,4,2,1,70,0,0
171572,-45.4545454545455,4,2,1,70,0,0
172224,-41.6666666666667,4,2,1,70,0,0
172768,-50,4,2,1,70,0,0
173202,217.391304347826,4,2,1,80,1,0
173202,-111.111111111111,4,2,1,80,0,0
179398,-90.9090909090909,4,2,1,80,0,0
180159,-111.111111111111,4,2,1,80,0,0
186789,-222.222222222222,4,2,1,80,0,0
187116,-111.111111111111,4,2,1,80,0,0
188855,-166.666666666667,4,2,1,80,0,0
190594,-133.333333333333,4,2,1,80,0,0
192333,-500,4,2,1,80,0,0
193529,-111.111111111111,4,2,1,80,0,0
194072,-111.111111111111,4,2,1,70,0,0
200159,-90.9090909090909,4,2,1,70,0,0
201029,-111.111111111111,4,2,1,70,0,0

[Colours]
Combo1 : 255,166,166
Combo2 : 130,219,77
Combo3 : 255,108,108
Combo4 : 164,255,164

[HitObjects]
498,346,1030,6,0,P|466:339|434:337,1,64.399998034668,2|0,0:0|0:0,0:0:0:0:
336,250,1247,2,0,P|367:256|398:259,1,64.399998034668,2|0,0:0|0:0,0:0:0:0:
488,358,1464,2,0,P|455:351|423:350,1,64.399998034668,2|0,0:0|0:0,0:0:0:0:
386,270,1682,2,0,P|353:268|322:261,1,64.399998034668,2|0,0:0|0:0,0:0:0:0:
228,343,1899,2,0,P|173:317|172:256,1,128.799996069336,2|2,0:0|0:0,0:0:0:0:
182,247,2225,1,8,0:3:0:0:
252,170,2334,6,0,P|248:191|253:222,2,42.933332023112,8|8|8,0:0|0:3|3:0,0:0:0:0:
180,137,2551,2,0,P|166:153|157:172,2,42.933332023112,8|0|0,3:0|3:2|3:2,0:0:0:0:
246,91,2769,6,0,P|277:91|318:81,1,64.399998034668,10|0,0:0|0:0,0:0:0:0:
400,157,2986,2,0,P|368:158|337:164,1,64.399998034668,2|0,0:0|0:0,0:0:0:0:
386,9,3203,2,0,P|392:41|392:73,1,64.399998034668,2|0,0:0|0:0,0:0:0:0:
490,178,3421,2,0,P|484:147|484:115,1,64.399998034668,2|0,0:0|0:0,0:0:0:0:
337,164,3638,2,0,P|287:196|311:287,1,128.799996069336,2|0,0:0|3:2,0:0:0:0:
301,265,3964,1,8,0:3:0:0:
216,381,4073,5,8,0:0:0:0:
175,332,4182,1,8,0:0:0:0:
137,330,4290,1,8,3:0:0:0:
122,341,4399,1,8,3:0:0:0:
7,267,4508,6,0,P|13:230|15:193,1,73.6,6|0,3:2|0:0,0:0:0:0:
184,259,4725,2,0,P|176:294|174:331,1,73.6,2|0,3:2|0:0,0:0:0:0:
96,254,4943,2,0,P|100:233|101:212,2,36.8,10|8|8,0:0|0:0|0:0,0:0:0:0:
110,131,5160,1,8,0:0:0:0:
102,106,5269,1,0,0:0:0:0:
79,87,5377,2,0,P|39:85|-8:75,1,73.6,8|8,3:2|0:3,0:0:0:0:
179,179,5595,2,0,P|219:181|266:191,1,73.6,0|8,3:2|3:0,0:0:0:0:
366,96,5812,5,0,3:2:0:0:
420,98,5921,1,8,3:0:0:0:
443,122,6029,1,0,3:2:0:0:
446,141,6138,1,0,3:2:0:0:
343,234,6247,5,8,0:0:0:0:
343,233,6356,2,0,P|343:141|315:54,1,184,6|10,3:2|0:0,0:0:0:0:
82,96,6682,2,0,P|81:187|109:274,1,184,4|8,3:2|0:0,0:0:0:0:
81,368,7008,1,4,3:2:0:0:
104,384,7116,2,0,P|154:369|168:317,1,92,2|8,0:0|0:0,0:0:0:0:
343,233,7334,2,0,P|393:248|407:300,1,92,0|0,3:2|3:2,0:0:0:0:
264,376,7551,2,0,P|245:196|185:-14,1,358.79998357544,12|0,0:0|0:0,0:0:0:0:
210,4,7986,6,0,B|302:-44|352:42|340:47|335:59|385:143|469:95,1,306.140829680465,6|0,3:2|0:0,0:0:0:0:
432,17,8856,2,0,P|404:145|393:276,1,262.397522356799,4|0,3:2|0:0,0:0:0:0:
446,342,9725,6,0,P|504:322|511:278,2,92,4|2|2,3:2|0:2|0:2,0:2:0:0:
393,275,10377,1,2,0:0:0:0:
329,352,10595,2,0,P|297:356|266:366,1,61.3333333333333,4|0,3:2|0:0,0:0:0:0:
232,343,10812,2,0,P|235:324|250:297,2,30.6666666666667,2|8|8,3:2|3:0|0:3,0:0:0:0:
153,383,11029,2,0,P|84:360|113:278,1,138,2|0,3:2|0:0,0:0:0:0:
130,143,11464,6,0,P|107:27|-12:9,2,248.399992419434,14|14|14,0:0|0:0|3:2,0:0:0:0:
0,239,12334,2,0,P|78:223|164:217,1,165.599994946289,14|2,3:2|0:0,0:0:0:0:
244,234,12660,1,8,0:3:0:0:
344,88,12769,5,8,0:0:0:0:
354,68,12877,1,8,0:0:0:0:
389,44,12986,1,8,0:0:0:0:
446,47,13095,1,8,0:0:0:0:
503,89,13203,6,0,P|504:174|514:254,1,165.599994946289,6|2,3:2|0:0,0:0:0:0:
432,373,13529,1,0,0:0:0:0:
389,383,13638,2,0,P|345:359|362:289,1,82.7999974731446,8|0,0:0|0:0,0:0:0:0:
261,305,13856,2,0,P|272:257|344:255,1,82.7999974731446,2|2,0:0|0:0,0:0:0:0:
398,148,14073,5,0,3:2:0:0:
421,126,14182,2,0,P|418:66|310:46,1,165.599994946289,8|2,0:0|0:0,0:0:0:0:
238,9,14508,2,0,P|217:44|247:115,1,82.7999974731446,10|0,0:0|0:0,0:0:0:0:
289,150,14725,1,2,0:0:0:0:
289,150,14834,1,2,0:0:0:0:
179,213,14943,6,0,P|122:223|36:227,1,82.7999974731446,4|0,3:2|0:0,0:0:0:0:
179,317,15160,2,0,P|235:306|321:302,1,82.7999974731446,2|0,0:0|0:0,0:0:0:0:
453,127,15377,2,0,P|386:140|284:151,1,165.599994946289,8|2,0:0|0:0,0:0:0:0:
220,84,15703,1,2,0:0:0:0:
107,112,15812,5,0,3:2:0:0:
95,103,15921,2,0,P|92:64|139:22,1,82.7999974731446,8|2,0:0|0:0,0:0:0:0:
288,175,16138,1,0,0:0:0:0:
302,171,16247,2,0,P|326:138|324:98,1,82.7999974731446,10|0,0:0|0:2,0:0:0:0:
179,213,16464,2,0,P|192:257|196:306,1,82.7999974731446,2|0,0:0|0:2,0:0:0:0:
429,381,16682,6,0,P|413:299|404:217,1,165.599994946289,4|2,3:2|0:2,0:2:0:0:
474,162,17008,2,0,P|461:118|457:69,1,82.7999974731446,2|8,0:0|0:0,0:0:0:0:
296,195,17225,2,0,P|309:239|313:288,1,82.7999974731446
404,217,17443,1,2,0:0:0:0:
319,96,17551,5,0,3:2:0:0:
290,84,17660,2,0,P|232:94|236:233,1,165.599994946289,8|0,0:0|0:0,0:0:0:0:
113,339,17986,1,8,3:2:0:0:
89,358,18095,2,0,P|37:343|25:302,1,82.7999974731446,8|2,0:0|0:0,0:0:0:0:
213,266,18312,1,2,3:2:0:0:
213,266,18529,6,0,P|252:258|305:254,1,82.7999974731446,4|0,3:2|0:0,0:0:0:0:
337,184,18747,1,2,0:0:0:0:
127,114,18856,2,0,P|88:122|35:126,1,82.7999974731446,4|0,3:2|0:0,0:0:0:0:
3,196,19074,1,8,0:0:0:0:
168,384,19182,6,0,P|233:342|214:267,1,165.599994946289,4|2,3:2|0:0,0:0:0:0:
77,44,19508,1,4,3:2:0:0:
100,15,19616,1,0,3:2:0:0:
157,3,19725,2,0,P|120:141|88:361,1,354.200010809327,12|0,0:0|0:0,0:0:0:0:
55,362,20160,6,0,P|16:337|32:276,1,92,6|0,3:2|0:2,0:2:0:0:
0,216,20486,1,2,0:2:0:0:
0,216,20595,2,0,P|34:184|101:203,1,92,0|2,3:2|0:2,0:0:0:0:
207,246,21029,1,2,3:2:0:0:
118,265,21247,1,0,0:2:0:0:
160,171,21464,2,0,P|153:125|141:81,1,92,2|0,3:2|0:0,0:2:0:0:
374,9,21899,6,0,P|410:28|405:94,1,92,2|0,3:2|0:2,0:0:0:0:
479,125,22225,1,2,0:2:0:0:
479,125,22334,2,0,P|469:164|404:176,1,92,0|2,3:0|0:2,0:0:0:0:
261,141,22769,2,0,P|249:97|243:52,1,92,2|2,3:2|0:2,0:2:0:0:
241,25,23095,1,0,0:2:0:0:
241,25,23203,1,2,3:2:0:0:
337,86,23421,1,0,0:2:0:0:
162,104,23638,6,0,P|116:113|66:119,1,92,2|0,3:2|0:2,0:0:0:0:
0,218,23964,1,2,0:2:0:0:
0,218,24073,2,0,P|46:209|96:203,1,92,0|2,3:0|0:2,0:0:0:0:
216,286,24508,1,2,3:2:0:0:
173,200,24725,1,2,0:2:0:0:
22,362,24943,5,10,0:2:0:0:
81,380,25051,1,8,0:2:0:0:
118,345,25160,2,0,P|125:319|129:294,1,46,0|0,3:2|0:2,0:2:0:0:
281,359,25377,6,0,P|359:370|475:394,1,156.400002983093,12|0,0:2|3:2,0:2:0:0:
332,229,25703,2,0,P|254:218|138:194,1,156.400002983093,12|0,0:2|3:2,0:2:0:0:
397,292,26029,2,0,P|433:203|387:157,1,156.400002983093,12|0,0:2|3:2,0:2:0:0:
92,227,26356,2,0,P|56:138|102:92,1,156.400002983093,12|0,0:2|3:2,0:2:0:0:
242,11,26682,6,0,P|243:26|243:43,1,32.199999017334,12|0,0:2|0:0,0:2:0:0:
322,63,26899,2,0,P|330:48|348:25,1,32.199999017334,8|0,0:2|0:2,0:2:0:0:
185,122,27116,6,0,P|260:127|329:161,1,147.2,6|0,3:2|0:2,0:2:0:0:
414,92,27443,1,2,3:2:0:0:
414,92,27551,2,0,P|447:110|441:174,1,73.6,8|0,0:2|0:2,0:2:0:0:
395,200,27769,1,2,3:2:0:0:
155,34,27986,5,2,3:2:0:0:
155,34,28095,1,8,0:2:0:0:
155,34,28203,2,0,P|109:41|56:41,1,73.6,0|0,0:0|0:2,0:0:0:0:
0,194,28421,2,0,P|45:186|99:187,1,73.6,10|0,0:2|0:2,0:2:0:0:
25,104,28638,1,0,0:2:0:0:
179,287,28856,6,0,P|179:323|186:359,1,73.6,2|0,3:2|0:0,0:2:0:0:
346,343,29073,1,0,0:2:0:0:
346,343,29182,1,2,3:2:0:0:
346,343,29290,2,0,P|345:306|338:270,1,73.6,10|0,0:2|0:2,0:2:0:0:
263,313,29508,1,2,3:2:0:0:
360,73,29725,5,2,3:2:0:0:
360,73,29834,1,8,0:2:0:0:
360,73,29943,2,0,P|368:26|413:5,1,73.6,0|0,0:0|0:2,0:0:0:0:
510,107,30160,2,0,P|477:123|442:114,1,73.6,10|0,0:2|0:2,0:2:0:0:
470,27,30377,1,0,0:2:0:0:
470,27,30595,6,0,P|474:100|486:172,1,147.2,2|0,3:2|0:2,0:2:0:0:
338,270,30921,1,2,3:2:0:0:
338,270,31029,2,0,P|334:234|320:186,1,73.6,8|0,0:2|0:2,0:2:0:0:
415,216,31247,1,2,3:2:0:0:
133,38,31464,5,2,3:2:0:0:
133,38,31573,1,8,0:2:0:0:
133,38,31682,2,0,P|84:30|45:17,1,73.6,2|0,0:2|3:2,0:0:0:0:
279,83,31899,2,0,P|328:91|367:104,1,73.6,10|0,0:2|0:2,0:2:0:0:
195,103,32116,1,2,3:2:0:0:
451,0,32334,6,0,P|434:32|424:68,1,73.6,12|0,0:2|0:2,0:2:0:0:
174,169,32551,2,0,P|188:134|197:98,1,73.6,12|0,3:2|0:0,0:2:0:0:
429,309,32769,1,0,3:2:0:0:
429,309,32877,2,0,P|443:238|471:168,1,147.2,12|0,0:2|0:0,0:2:0:0:
263,334,33203,5,4,3:2:0:0:
262,378,34073,6,0,P|229:288|136:289,2,179.39999178772,4|0|0,3:2|3:2|3:2,0:2:0:0:
26,365,34943,2,0,P|55:358|106:356,1,59.7999972625734,8|0,0:2|0:0,0:0:0:0:
169,295,35160,2,0,P|178:310|182:344,2,39.8666648417156,4|4|4,0:3|0:3|0:3,0:0:0:0:
155,278,35377,2,0,P|215:274|273:261,1,119.591761531109,4|0,0:3|0:0,0:0:0:0:
358,314,35812,6,0,P|390:232|473:219,2,179.39999178772,4|0|0,3:2|3:2|3:2,0:2:0:0:
471,218,36682,2,0,P|476:174|493:119,1,59.7999972625734,8|0,0:2|0:0,0:0:0:0:
431,33,36899,2,0,P|412:40|399:54,2,39.8666648417156,4|4|4,0:3|0:3|0:3,0:0:0:0:
418,10,37116,2,0,P|412:59|391:133,1,126.376243678752,4|0,0:3|0:0,0:0:0:0:
279,155,37551,6,0,P|211:117|149:154,1,119.599994525147,4|0,3:2|0:2,0:2:0:0:
86,96,37877,2,0,P|31:151|51:221,1,119.599994525147,0|0,3:2|0:2,0:2:0:0:
74,262,38203,1,0,3:2:0:0:
175,127,38421,6,0,P|177:91|189:40,1,59.7999972625734,8|0,0:2|0:0,0:0:0:0:
282,41,38638,2,0,P|285:15|294:-12,2,39.8666648417156,4|4|4,0:3|0:3|0:3,0:0:0:0:
290,64,38856,1,8,0:2:0:0:
346,96,38964,1,8,0:2:0:0:
393,80,39073,2,0,P|394:60|400:40,1,39.8666648417156,8|0,0:2|0:0,0:0:0:0:
512,310,39290,5,0,2:2:0:0:
498,286,39399,2,0,P|451:270|387:322,1,119.599994525147,4|8,3:2|0:2,0:2:0:0:
378,379,39725,1,4,3:2:0:0:
473,188,39943,6,0,P|467:151|461:107,1,59.7999972625734,4|0,3:2|0:2,0:2:0:0:
165,101,40160,2,0,P|188:82|211:63,1,59.7999972625734,4|0,3:2|0:2,0:2:0:0:
337,68,40377,2,0,P|350:32|367:-8,1,59.7999972625734,6|8,3:2|0:2,0:0:0:0:
311,163,40595,1,8,0:2:0:0:
311,162,40703,2,0,P|295:211|286:267,1,101.732836129773,6|8,3:2|0:2,0:2:0:0:
94,380,41029,6,0,P|38:333|57:242,1,147.2,6|0,3:2|0:2,0:2:0:0:
5,169,41356,1,0,3:2:0:0:
5,169,41464,2,0,P|36:148|111:192,1,73.6,8|0,0:2|0:2,0:2:0:0:
165,101,41682,2,0,P|193:125|170:209,1,73.6,2|0,3:2|0:0,0:2:0:0:
129,226,41899,1,2,3:2:0:0:
129,226,42008,2,0,P|137:260|138:302,1,73.6,8|0,0:2|0:0,0:2:0:0:
262,352,42225,1,2,3:2:0:0:
292,373,42334,1,8,0:2:0:0:
313,372,42443,2,0,P|366:337|338:256,1,147.2,2|0,0:2|0:2,0:0:0:0:
285,183,42769,6,0,P|302:93|336:19,1,147.2,2|0,3:2|0:2,0:2:0:0:
253,6,43095,1,0,3:2:0:0:
232,0,43203,2,0,P|179:35|207:116,1,147.2,10|0,0:2|3:2,0:2:0:0:
512,242,43638,5,2,3:2:0:0:
493,233,43747,2,0,P|419:240|349:265,1,147.2,8|2,0:2|3:2,0:2:0:0:
182,326,44073,1,8,0:2:0:0:
138,282,44182,1,4,0:3:0:0:
152,232,44290,1,8,0:3:0:0:
176,217,44399,1,0,3:2:0:0:
190,216,44508,6,0,P|248:261|268:344,1,156.400002983093,6|2,3:2|3:2,0:2:0:0:
363,377,44834,1,0,0:0:0:0:
385,376,44943,2,0,P|421:351|415:289,1,78.2000014915467,2|0,3:2|0:0,0:2:0:0:
501,277,45160,2,0,P|486:235|424:225,1,78.2000014915467,2|0,3:2|0:0,0:2:0:0:
337,178,45377,6,0,P|334:154|327:133,2,27.5999991577149,0|0|0,3:2|0:0|0:0,0:0:0:0:
416,152,45595,2,0,P|413:128|406:107,2,27.5999991577149,2|0|0,3:2|0:0|0:0,0:0:0:0:
330,261,45812,6,0,P|351:253|374:251,2,46,2|0|0,3:2|0:0|0:0,0:0:0:0:
376,53,46029,2,0,P|399:51|421:43,2,46,2|0|0,3:2|0:0|0:0,0:0:0:0:
201,145,46247,6,0,P|124:158|49:180,1,156.400002983093,2|2,3:2|3:2,0:2:0:0:
65,93,46573,1,0,0:0:0:0:
75,78,46682,2,0,P|72:41|55:-30,1,78.2000014915467,2|0,3:2|0:0,0:2:0:0:
274,91,46899,2,0,P|266:52|263:13,1,78.2000014915467,2|0,3:2|0:0,0:2:0:0:
49,180,47116,2,0,P|138:170|204:289,1,234.60000447464,2|0,3:2|0:0,0:0:0:0:
102,376,47551,5,8,0:0:0:0:
98,321,47660,1,8,0:0:0:0:
81,252,47769,1,8,0:0:0:0:
49,180,47877,1,8,0:0:0:0:
5,113,47986,5,4,3:2:0:0:
157,172,48095,1,2,0:0:0:0:
130,187,48421,5,4,3:2:0:0:
298,146,48529,1,2,0:0:0:0:
321,152,48856,5,8,0:0:0:0:
399,31,48964,1,2,0:0:0:0:
254,284,49290,6,0,P|261:321|266:357,1,69,8|0,0:0|0:0,0:0:0:0:
169,384,49725,6,0,P|98:334|123:254,1,165.599994946289,4|2,3:2|0:0,0:2:0:0:
312,131,50051,1,2,0:0:0:0:
349,204,50160,2,0,P|341:246|340:290,1,82.7999974731446,8|2,0:2|0:0,0:0:0:0:
201,152,50377,2,0,P|190:193|187:237,1,82.7999974731446,2|0,0:0|0:0,0:0:0:0:
0,32,50595,1,2,3:2:0:0:
30,18,50703,1,0,0:0:0:0:
79,56,50812,2,0,P|87:98|88:142,1,82.7999974731446,2|0,0:0|0:0,0:0:0:0:
260,7,51029,2,0,P|271:48|274:92,1,82.7999974731446,8|2,0:0|0:0,0:0:0:0:
176,67,51247,1,2,0:2:0:0:
280,333,51464,6,0,P|320:325|361:323,1,82.7999974731446,2|0,3:2|0:0,0:0:0:0:
438,362,51682,1,2,0:0:0:0:
450,351,51790,1,0,0:0:0:0:
510,259,51899,2,0,P|469:266|428:268,1,82.7999974731446,10|0,0:2|0:0,0:0:0:0:
351,229,52117,1,2,0:0:0:0:
339,240,52225,1,0,0:0:0:0:
238,255,52334,6,0,P|212:217|226:172,1,82.7999974731446,2|2,3:2|0:0,0:0:0:0:
205,104,52551,2,0,P|233:70|280:71,1,82.7999974731446,2|2,0:0|0:0,0:0:0:0:
333,9,52769,2,0,P|308:88|295:169,1,165.599994946289,8|0,0:0|0:0,0:0:0:0:
197,330,53095,5,2,0:0:0:0:
129,354,53203,2,0,P|60:315|68:237,1,165.599994946289,2|2,3:2|0:0,0:0:0:0:
116,101,53529,1,2,0:0:0:0:
103,85,53638,2,0,P|95:43|94:1,1,82.7999974731446,8|0,0:0|0:0,0:0:0:0:
0,90,53856,2,0,P|10:131|13:173,1,82.7999974731446,2|8,0:0|0:0,0:0:0:0:
156,247,54073,6,0,P|198:248|239:256,1,82.7999974731446,2|8,3:2|0:0,0:0:0:0:
295,315,54290,1,2,0:0:0:0:
309,301,54399,1,0,0:0:0:0:
308,210,54508,2,0,P|349:221|386:240,1,82.7999974731446,10|0,0:2|0:2,0:2:0:0:
423,317,54725,1,2,0:0:0:0:
429,332,54834,1,0,0:0:0:0:
482,238,54943,6,0,P|486:157|504:71,1,165.599994946289,4|2,3:2|0:0,0:0:0:0:
309,11,55269,1,0,0:0:0:0:
296,29,55377,2,0,P|296:66|359:100,1,82.7999974731446,10|0,0:0|0:0,0:0:0:0:
474,0,55595,2,0,P|434:13|393:17,1,82.7999974731446,2|8,0:0|0:0,0:0:0:0:
172,85,55812,1,8,0:0:0:0:
229,145,55921,2,0,P|138:113|12:104,2,202.400006176758,10|2|2,0:0|3:2|3:2,0:0:0:0:
512,345,56573,5,8,0:0:0:0:
512,345,56682,2,0,P|428:350|347:369,1,165.599994946289,4|2,3:2|0:0,0:0:0:0:
135,208,57008,1,2,0:2:0:0:
204,224,57116,2,0,P|244:216|283:202,1,82.7999974731446,8|2,0:0|0:0,0:0:0:0:
266,342,57334,2,0,P|225:349|186:363,1,82.7999974731446,2|0,0:2|0:0,0:0:0:0:
396,258,57551,5,2,3:2:0:0:
411,252,57660,2,0,P|431:215|413:167,1,82.7999974731446,8|2,0:0|0:0,0:0:0:0:
259,80,57877,1,2,0:0:0:0:
255,64,57986,2,0,P|277:28|327:19,1,82.7999974731446,8|2,0:0|0:0,0:0:0:0:
430,61,58203,1,2,0:0:0:0:
209,262,58421,6,0,P|200:221|196:179,1,82.7999974731446,4|0,3:2|0:0,0:0:0:0:
139,112,58638,1,2,0:2:0:0:
124,105,58747,1,0,0:0:0:0:
44,169,58856,2,0,P|38:128|27:88,1,82.7999974731446,10|0,0:2|0:0,0:0:0:0:
83,20,59073,1,2,0:2:0:0:
92,6,59182,1,0,0:0:0:0:
223,101,59290,6,0,P|268:106|323:131,1,82.7999974731446,0|8,3:2|0:0,0:0:0:0:
441,73,59508,2,0,P|455:34|477:0,1,82.7999974731446,0|2,0:0|0:0,0:0:0:0:
475,207,59725,2,0,P|494:287|402:322,1,165.599994946289,8|0,0:0|0:0,0:0:0:0:
129,219,60051,5,2,0:0:0:0:
76,274,60160,2,0,P|84:354|166:369,1,165.599994946289,4|2,3:2|0:0,0:0:0:0:
307,228,60486,1,2,0:0:0:0:
321,236,60595,2,0,P|330:276|304:314,1,82.7999974731446,8|2,0:0|0:0,0:0:0:0:
221,312,60812,1,2,0:0:0:0:
65,60,61029,5,0,3:2:0:0:
65,60,61138,1,8,0:0:0:0:
65,60,61247,2,0,P|105:70|146:73,1,82.7999974731446,2|0,0:0|0:0,0:0:0:0:
233,145,61464,2,0,P|272:133|310:116,1,82.7999974731446,8|0,0:0|0:0,0:0:0:0:
398,140,61682,2,0,P|426:110|450:76,1,82.7999974731446,2|0,0:0|0:0,0:0:0:0:
465,0,61899,1,4,3:2:0:0:
498,252,62116,5,2,0:0:0:0:
498,252,62225,1,0,0:0:0:0:
498,252,62334,2,0,P|488:292|484:333,1,82.7999974731446,10|0,0:0|0:0,0:0:0:0:
252,376,62551,2,0,P|261:335|265:294,1,82.7999974731446,2|8,0:0|0:0,0:0:0:0:
398,140,62769,5,8,0:0:0:0:
409,216,62877,2,0,P|379:241|309:204,1,82.7999974731446,0|0,3:2|0:0,0:0:0:0:
169,327,63095,2,0,P|137:304|154:227,1,82.7999974731446,0|0,3:2|0:0,0:0:0:0:
0,153,63312,6,0,P|13:119|54:94,1,82.7999974731446,4|2,3:2|0:0,0:0:0:0:
99,12,63638,6,0,P|93:90|72:191,1,165.599994946289,4|0,3:2|0:0,0:0:0:0:
289,313,63964,1,2,0:0:0:0:
314,310,64073,2,0,P|330:296|301:207,1,82.7999974731446,8|0,0:0|0:0,0:0:0:0:
387,164,64290,2,0,P|377:144|284:149,1,82.7999974731446,2|0,0:0|0:0,0:0:0:0:
99,12,64508,6,0,P|112:38|131:115,1,82.7999974731446,8|8,0:0|0:0,0:0:0:0:
217,170,64725,2,0,P|215:199|193:275,1,82.7999974731446,0|0,3:2|3:2,0:0:0:0:
139,308,64943,1,2,3:2:0:0:
95,257,65051,1,0,0:0:0:0:
49,256,65160,1,2,3:2:0:0:
26,270,65269,1,0,3:2:0:0:
201,384,65377,6,0,P|223:379|259:377,1,55.2,8|0,0:0|0:0,0:0:0:0:
449,328,65812,2,0,P|427:333|391:335,1,55.2,4|0,3:2|0:0,0:0:0:0:
316,328,66247,1,12,0:0:0:0:
316,328,67008,6,0,P|320:290|329:235,1,82.7999974731446,2|0,0:0|0:0,0:0:0:0:
350,163,67551,1,0,0:0:0:0:
350,163,67660,1,0,0:0:0:0:
182,39,67877,6,0,P|160:74|171:121,1,82.7999974731446,2|0,0:0|0:0,0:0:0:0:
235,152,68312,2,0,L|275:145,2,27.5999991577149
72,227,68747,6,0,P|112:220|154:216,1,82.7999974731446,2|0,0:0|0:0,0:0:0:0:
218,270,69182,1,0,0:0:0:0:
218,270,69290,2,0,L|211:310,1,27.5999991577149
335,195,69616,6,0,P|357:160|346:113,1,82.7999974731446,2|0,0:0|0:0,0:0:0:0:
298,64,70051,1,0,0:0:0:0:
294,55,70159,1,0,0:0:0:0:
294,46,70268,1,0,0:0:0:0:
297,37,70377,1,8,0:0:0:0:
358,117,70486,6,0,P|291:100|196:95,1,138.000005264282,4|8,3:2|0:0,0:0:0:0:
58,158,70812,1,8,0:0:0:0:
45,166,70921,1,8,0:0:0:0:
27,163,71029,2,0,P|74:74|104:90,1,138.000005264282,0|8,3:2|3:0,0:0:0:0:
149,139,71356,6,0,P|143:179|137:220,1,69.0000026321412,0|8,3:2|0:0,0:0:0:0:
135,287,71573,2,0,P|144:218|156:150,1,138.000005264282,0|8,3:2|0:0,0:0:0:0:
79,75,71899,1,0,3:2:0:0:
77,66,72007,1,0,3:2:0:0:
75,58,72116,1,0,3:2:0:0:
74,48,72225,1,0,3:2:0:0:
225,58,72443,6,0,P|270:85|306:72,1,82.7999974731446,4|0,3:2|0:0,0:0:0:0:
363,31,72660,1,2,0:0:0:0:
332,165,72769,6,0,P|377:139|385:101,1,82.7999974731446,4|0,3:2|0:0,0:0:0:0:
359,20,72986,1,2,0:0:0:0:
322,159,73095,6,0,P|332:241|341:323,1,165.599994946289,4|8,3:2|0:0,0:0:0:0:
416,369,73421,2,0,P|432:331|420:293,1,82.7999974731446,4|0,3:2|3:2,0:0:0:0:
118,157,73638,6,0,P|145:30|237:86,1,248.399992419434,12|0,0:0|0:0,0:0:0:0:
215,68,74073,6,0,P|139:73|50:82,2,165.599994946289,0|0|8,3:2|3:2|0:0,0:0:0:0:
322,159,74943,1,2,0:0:0:0:
378,106,75377,5,2,0:0:0:0:
449,319,75812,6,0,P|455:264|466:210,1,110.399996630859,10|0,3:2|0:0,0:0:0:0:
383,119,76138,2,0,P|371:173|365:227,1,110.399996630859,10|0,3:2|0:0,0:0:0:0:
267,300,76464,2,0,P|270:272|275:245,1,55.1999983154297,8|0,3:2|0:0,0:0:0:0:
172,40,76682,6,0,P|192:48|212:128,1,110.399996630859,2|8,0:0|3:0,0:0:0:0:
45,46,77008,1,0,3:2:0:0:
45,29,77116,2,0,P|72:3|93:0,1,55.1999983154297,0|0,3:2|3:2,0:0:0:0:
117,119,77334,2,0,P|110:159|110:188,1,55.1999983154297,0|0,3:2|3:2,0:0:0:0:
93,260,77551,6,0,P|120:254|147:252,1,55.1999983154297,8|0,0:0|0:0,0:0:0:0:
294,298,77769,5,8,0:0:0:0:
281,313,77877,2,0,P|253:315|226:320,1,55.1999983154297,4|0,3:2|0:0,0:0:0:0:
273,155,78095,5,8,0:0:0:0:
284,166,78203,2,0,P|311:161|339:159,1,55.1999983154297,4|0,3:2|0:2,0:2:0:0:
411,271,78421,6,0,P|407:288|403:306,2,36.7999988769532,8|8|8,3:2|3:0|3:0,0:0:0:0:
478,206,78638,2,0,P|481:187|485:170,2,36.7999988769532,0|8|8,3:0|3:0|3:0,0:0:0:0:
477,346,78856,5,8,0:0:0:0:
396,305,78964,1,8,0:0:0:0:
324,257,79073,5,2,0:0:0:0:
243,298,79181,1,8,0:0:0:0:
153,228,79290,6,0,P|160:167|171:106,1,124.199996209717,4|0,3:2|0:0,0:0:0:0:
180,93,79508,1,8,0:0:0:0:
56,172,79616,6,0,P|63:110|73:49,1,124.199996209717,4|0,3:2|0:0,0:0:0:0:
83,38,79834,1,8,0:0:0:0:
253,199,79943,6,0,P|261:149|271:100,1,82.7999974731446,4|0,3:2|0:0,0:0:0:0:
287,42,80160,1,8,0:0:0:0:
259,205,80269,6,0,P|267:155|277:106,1,82.7999974731446,4|0,3:2|0:0,0:0:0:0:
293,48,80486,1,8,0:0:0:0:
265,211,80595,6,0,P|273:161|283:112,1,82.7999974731446,4|0,3:2|0:0,0:0:0:0:
298,54,80812,1,8,0:0:0:0:
271,217,80921,6,0,P|279:167|289:118,1,82.7999974731446,4|0,3:2|0:0,0:0:0:0:
305,60,81138,1,8,0:0:0:0:
277,223,81247,6,0,P|285:173|295:124,1,82.7999974731446,4|0,3:2|0:0,0:0:0:0:
311,66,81464,1,8,0:0:0:0:
283,229,81573,6,0,P|291:179|301:130,1,82.7999974731446,4|0,3:2|0:0,0:0:0:0:
317,72,81790,1,8,0:0:0:0:
288,236,81899,5,4,3:2:0:0:
120,167,83203,6,0,P|124:146|130:126,6,41.3999987365723,2|2|2|2|2|2|2,0:0|0:0|0:0|0:0|0:0|0:0|0:0,0:0:0:0:
172,242,83638,6,0,P|103:261|43:222,1,147.2,4|0,3:2|0:2,0:2:0:0:
243,170,83964,1,2,3:2:0:0:
254,183,84072,2,0,P|256:219|258:256,1,73.6,8|0,0:2|0:2,0:2:0:0:
349,378,84290,2,0,P|346:341|344:304,1,73.6,2|0,0:2|0:2,0:2:0:0:
411,103,84507,5,2,3:2:0:0:
401,99,84616,2,0,P|349:147|362:217,1,147.2,8|0,0:2|0:2,0:2:0:0:
512,189,84942,2,0,P|472:183|411:179,1,73.6,10|0,0:2|0:2,0:2:0:0:
352,224,85159,1,2,0:2:0:0:
234,41,85377,6,0,P|279:62|274:108,1,73.6,2|0,3:2|0:2,0:2:0:0:
133,118,85594,1,2,0:2:0:0:
121,109,85703,2,0,P|116:59|159:40,1,73.6,2|8,3:2|0:2,0:2:0:0:
238,157,85920,1,2,0:2:0:0:
236,172,86029,2,0,P|195:200|157:173,1,73.6,2|0,3:2|0:2,0:2:0:0:
3,251,86246,5,2,3:2:0:0:
11,241,86355,2,0,P|80:234|128:327,1,147.2,8|0,0:2|0:2,0:2:0:0:
212,384,86681,2,0,P|213:347|219:311,1,73.6,10|0,0:2|0:2,0:2:0:0:
267,245,86898,1,0,0:2:0:0:
148,49,87116,6,0,P|162:121|175:193,1,147.2,2|0,3:2|0:2,0:2:0:0:
241,62,87442,1,2,3:2:0:0:
249,69,87551,2,0,P|257:108|263:143,1,73.6,8|0,0:2|0:2,0:2:0:0:
58,91,87768,2,0,P|65:127|71:163,1,73.6,2|0,3:2|0:2,0:2:0:0:
223,319,87985,1,2,3:2:0:0:
233,307,88094,2,0,P|232:235|175:193,1,147.2,8|0,0:2|3:2,0:2:0:0:
61,298,88420,2,0,P|96:287|132:281,1,73.6,10|0,0:2|0:2,0:2:0:0:
313,384,88638,2,0,P|320:348|328:312,1,73.6,2|0,3:2|0:2,0:2:0:0:
280,45,88855,6,0,P|244:55|208:61,1,73.6,12|0,0:2|0:2,0:2:0:0:
408,283,89072,2,0,P|372:293|336:299,1,73.6,12|0,0:2|0:0,0:2:0:0:
476,123,89290,1,0,3:2:0:0:
466,134,89398,2,0,P|368:155|261:177,1,184,12|0,0:2|0:2,0:2:0:0:
25,330,89724,6,0,P|33:280|43:231,1,82.7999974731446,4|0,3:2|0:2,0:2:0:0:
59,173,89941,1,8,0:2:0:0:
31,338,90051,6,0,P|39:288|49:239,1,82.7999974731446,4|0,3:2|0:2,0:2:0:0:
65,181,90268,1,8,0:2:0:0:
127,272,90377,5,4,3:2:0:0:
131,281,90485,1,0,3:2:0:0:
135,290,90594,1,8,0:2:0:0:
139,300,90703,2,0,P|147:250|157:201,1,82.7999974731446,4|0,3:2|0:2,0:2:0:0:
173,143,90920,1,8,0:2:0:0:
144,308,91029,6,0,P|152:258|162:209,1,82.7999974731446,4|0,3:2|0:2,0:2:0:0:
178,151,91246,1,0,3:2:0:0:
149,315,91355,5,4,3:2:0:0:
446,0,92768,5,2,0:2:0:0:
488,78,92985,1,2,0:2:0:0:
421,145,93203,2,0,B|380:156|348:131|365:111|328:87|289:101,1,147.2,4|0,3:2|0:2,0:2:0:0:
124,175,93529,2,0,P|119:138|113:102,2,73.6,0|0|0,0:2|3:0|0:2,0:2:0:0:
220,207,93855,2,0,P|215:170|209:134,1,73.6,2|0,0:2|0:2,0:2:0:0:
4,233,94072,6,0,P|-26:174|15:104,1,147.2,2|2,3:2|0:2,0:2:0:0:
124,175,94398,1,2,0:2:0:0:
131,181,94507,2,0,P|94:175|58:170,1,73.6,0|2,3:2|0:2,0:2:0:0:
173,291,94724,5,2,0:2:0:0:
179,299,94833,1,2,0:2:0:0:
185,307,94942,2,0,P|259:320|339:336,1,147.2,2|0,3:2|0:2,0:2:0:0:
486,223,95268,2,0,P|500:256|488:291,2,73.6,2|0|0,0:2|3:0|0:2,0:2:0:0:
423,368,95594,2,0,P|412:310|399:271,1,73.6,2|0,0:2|0:2,0:2:0:0:
245,127,95811,6,0,P|234:188|230:211,1,73.6,2|0,3:2|0:2,0:2:0:0:
327,144,96029,2,0,P|320:180|314:216,1,73.6,2|0,0:2|0:2,0:2:0:0:
416,287,96246,6,0,P|410:251|403:215,1,73.6,2|0,3:2|0:2,0:2:0:0:
498,270,96464,2,0,P|492:234|485:198,1,73.6,2|0,0:2|0:2,0:2:0:0:
326,313,96681,6,0,P|254:299|181:290,1,147.2,2|0,3:2|0:2,0:2:0:0:
16,314,97007,1,2,0:2:0:0:
8,308,97116,2,0,P|4:268|0:235,1,73.6,0|0,3:0|0:2,0:0:0:0:
99,290,97333,2,0,P|103:326|107:363,1,73.6,2|0,0:2|0:2,0:2:0:0:
215,171,97550,6,0,P|211:131|207:98,1,73.6,2|0,3:2|0:2,0:2:0:0:
114,21,97768,2,0,P|119:58|122:94,1,73.6,2|0,0:2|0:2,0:2:0:0:
73,161,97985,1,10,0:2:0:0:
75,179,98093,1,8,0:2:0:0:
77,197,98202,1,2,3:2:0:0:
214,22,98420,5,2,3:2:0:0:
279,68,98529,2,0,B|318:85|353:66|340:43|380:25|416:45,1,147.2,12|0,0:2|0:2,0:2:0:0:
512,141,98855,6,0,P|480:142|449:112,1,73.6,6|0,3:2|0:2,0:2:0:0:
357,225,99072,2,0,P|340:198|351:156,1,73.6,4|0,3:2|0:2,0:2:0:0:
226,108,99289,2,0,P|241:80|283:68,1,73.6,4|0,3:2|0:2,0:2:0:0:
415,297,99507,5,6,3:2:0:0:
358,318,99615,1,8,0:2:0:0:
302,298,99724,1,8,0:2:0:0:
269,247,99833,2,0,P|196:259|125:278,1,147.2,6|8,3:2|0:2,0:2:0:0:
11,145,100159,6,0,P|38:170|74:171,1,73.6,4|0,3:2|0:0,0:0:0:0:
133,285,100376,1,8,0:0:0:0:
133,285,100485,1,0,3:2:0:0:
132,285,100594,2,0,P|166:272|185:242,1,73.6,8|0,3:0|0:0,0:0:0:0:
344,177,100811,5,2,0:0:0:0:
317,152,100919,1,8,3:2:0:0:
281,150,101028,1,0,3:2:0:0:
255,174,101137,2,0,P|263:209|269:249,1,73.6,8|0,0:0|0:0,0:0:0:0:
423,127,101355,1,0,3:2:0:0:
422,126,101463,2,0,P|431:162|436:199,1,73.6,8|0,3:0|0:0,0:0:0:0:
373,337,101681,5,2,0:0:0:0:
373,337,101790,1,8,0:0:0:0:
373,337,101899,2,0,P|367:300|359:264,1,73.6,8|0,3:2|0:0,0:0:0:0:
185,241,102116,2,0,P|179:204|171:168,1,73.6
267,77,102333,6,0,P|274:112|280:149,1,73.6,0|0,3:2|0:0,0:0:0:0:
121,336,102550,1,8,0:0:0:0:
94,361,102658,1,2,0:0:0:0:
58,363,102767,1,8,0:0:0:0:
32,339,102876,2,0,P|26:302|18:266,1,73.6,8|0,0:0|0:0,0:0:0:0:
97,138,103094,5,8,0:0:0:0:
87,148,103203,2,0,P|80:180|130:219,1,73.6,8|0,0:0|0:0,0:0:0:0:
264,75,103420,2,0,P|236:51|200:55,1,73.6,8|0,0:0|0:0,0:0:0:0:
270,248,103637,5,8,3:2:0:0:
286,240,103746,1,0,3:2:0:0:
303,234,103855,1,0,3:2:0:0:
322,229,103963,1,0,3:2:0:0:
456,182,104072,5,8,0:0:0:0:
433,153,104180,1,0,3:2:0:0:
399,142,104289,1,0,3:2:0:0:
364,152,104398,1,0,3:2:0:0:
261,256,104507,5,8,0:0:0:0:
213,246,104615,1,0,3:2:0:0:
184,208,104724,1,0,3:2:0:0:
187,160,104833,1,0,3:2:0:0:
301,9,104942,5,8,0:0:0:0:
291,53,105050,1,0,3:2:0:0:
282,99,105159,1,0,3:2:0:0:
274,144,105268,1,0,3:2:0:0:
398,231,105376,5,8,0:0:0:0:
431,268,105484,1,0,3:2:0:0:
432,315,105593,1,0,3:2:0:0:
402,352,105702,1,0,3:2:0:0:
289,334,105811,5,8,0:0:0:0:
256,338,105919,1,0,3:2:0:0:
228,320,106028,1,0,3:2:0:0:
217,289,106137,1,0,3:2:0:0:
115,347,106246,5,8,0:0:0:0:
96,301,106354,1,0,3:2:0:0:
104,251,106463,1,0,3:2:0:0:
138,214,106572,1,0,3:2:0:0:
218,63,106681,6,0,P|289:58|280:146,1,151.800004632569,12|0,0:0|0:0,0:0:0:0:
216,154,106898,2,0,P|170:135|119:124,1,101.200003088379,2|0,0:0|3:2,0:0:0:0:
329,41,107116,6,0,P|403:61|478:79,2,134.933337451172,12|2|2,0:0|0:1|0:1,0:0:0:0:
346,211,107550,2,0,P|394:179|377:119,1,101.200003088379,12|0,0:0|0:0,0:0:0:0:
112,130,107768,6,0,P|122:179|127:230,1,101.200003088379,2|0,0:0|0:0,0:0:0:0:
244,298,107985,2,0,P|237:230|223:164,2,134.933337451172,12|2|2,0:0|0:1|0:1,0:0:0:0:
20,147,108420,5,8,0:0:0:0:
37,70,108529,1,8,0:0:0:0:
105,34,108637,1,8,0:0:0:0:
179,63,108746,1,8,0:0:0:0:
301,126,108855,6,0,P|384:106|471:89,1,165.599994946289,4|2,3:2|0:0,3:2:0:0:
229,175,109181,1,2,0:0:0:0:
164,131,109289,2,0,P|153:92|179:62,1,82.7999974731446,8|2,0:2|0:0,0:0:0:0:
308,212,109507,2,0,P|298:252|290:293,1,82.7999974731446,2|0,0:0|0:0,0:0:0:0:
52,384,109724,5,2,3:2:0:0:
1,324,109833,2,0,P|9:279|52:261,1,82.7999974731446,8|2,0:0|0:0,0:0:0:0:
317,217,110050,1,0,0:0:0:0:
281,287,110159,2,0,P|238:302|200:274,1,82.7999974731446,8|2,0:0|0:0,0:0:0:0:
114,216,110376,2,0,P|121:256|127:309,1,82.7999974731446,2|0,0:2|0:0,0:0:0:0:
440,384,110594,6,0,P|455:352|431:300,1,82.7999974731446,2|0,3:2|0:0,0:0:0:0:
371,275,110811,1,2,0:0:0:0:
366,285,110920,1,0,0:0:0:0:
306,205,111029,2,0,P|291:173|315:121,1,82.7999974731446,10|0,0:2|0:0,0:0:0:0:
383,96,111246,1,2,0:0:0:0:
378,106,111355,1,0,0:0:0:0:
224,210,111463,6,0,P|183:215|107:234,1,82.7999974731446,2|2,3:2|0:0,0:0:0:0:
281,37,111681,2,0,P|239:42|199:50,1,82.7999974731446,2|2,0:0|0:0,0:0:0:0:
2,116,111898,2,0,P|77:89|140:137,1,165.599994946289,8|0,0:0|0:0,0:0:0:0:
273,376,112224,5,2,0:0:0:0:
285,369,112332,2,0,P|293:280|306:201,1,165.599994946289,2|2,3:2|0:0,0:0:0:0:
365,82,112658,1,2,0:0:0:0:
379,89,112767,2,0,P|406:118|401:158,1,82.7999974731446,10|0,3:2|0:0,0:0:0:0:
218,190,112985,2,0,P|229:151|266:135,1,82.7999974731446,2|8,0:0|0:0,0:0:0:0:
492,308,113202,6,0,P|450:309|409:317,1,82.7999974731446,2|8,3:2|0:0,0:0:0:0:
328,300,113419,1,2,0:0:0:0:
334,281,113528,1,0,0:0:0:0:
305,204,113637,2,0,P|263:205|222:213,1,82.7999974731446,10|0,0:2|0:2,0:2:0:0:
139,254,113855,1,2,0:0:0:0:
145,235,113964,1,0,0:0:0:0:
125,148,114072,6,0,P|97:134|6:228,1,165.599994946289,4|2,3:2|0:0,0:0:0:0:
212,123,114398,1,0,0:0:0:0:
220,114,114507,2,0,P|226:73|232:32,1,82.7999974731446,10|0,0:0|0:0,0:0:0:0:
425,223,114724,2,0,P|431:182|437:141,1,82.7999974731446,2|8,0:0|0:0,0:0:0:0:
308,72,114942,1,8,0:0:0:0:
351,8,115050,2,0,P|336:106|321:209,2,202.400006176758,10|2|2,0:0|3:2|3:2,0:0:0:0:
78,245,115703,5,8,0:0:0:0:
78,245,115811,2,0,P|25:173|92:88,1,165.599994946289,4|2,3:2|0:0,0:0:0:0:
207,39,116137,1,2,0:2:0:0:
122,15,116246,2,0,P|132:54|136:96,1,82.7999974731446,8|2,0:0|0:0,0:0:0:0:
287,184,116463,2,0,P|283:142|272:102,1,82.7999974731446,2|0,0:2|0:0,0:0:0:0:
353,12,116681,5,2,3:2:0:0:
364,14,116789,2,0,P|391:43|389:84,1,82.7999974731446,8|2,0:0|0:0,0:0:0:0:
198,169,117007,1,2,0:0:0:0:
193,181,117115,2,0,P|190:221|217:250,1,82.7999974731446,10|0,0:0|0:0,0:0:0:0:
272,102,117333,1,2,0:0:0:0:
483,384,117550,6,0,P|487:342|495:302,1,82.7999974731446,4|0,3:2|0:0,0:0:0:0:
464,224,117767,1,2,0:2:0:0:
444,216,117876,1,0,0:0:0:0:
357,248,117985,2,0,P|363:207|374:167,1,82.7999974731446,10|0,0:2|0:0,0:0:0:0:
441,112,118203,1,2,0:2:0:0:
461,120,118312,1,0,0:0:0:0:
280,202,118420,6,0,P|238:205|198:214,1,82.7999974731446,0|8,3:2|0:0,0:0:0:0:
6,130,118637,2,0,P|51:126|108:110,1,82.7999974731446,0|2,0:0|0:0,0:0:0:0:
308,71,118854,2,0,P|225:59|190:151,1,165.599994946289,8|0,0:0|0:0,0:0:0:0:
63,340,119181,5,2,0:0:0:0:
2,290,119289,2,0,P|6:206|12:124,1,165.599994946289,4|2,3:2|0:0,0:0:0:0:
191,295,119616,1,2,0:0:0:0:
202,289,119724,2,0,P|205:244|211:191,1,82.7999974731446,8|2,0:0|0:0,0:0:0:0:
106,244,119942,1,2,0:0:0:0:
307,365,120159,5,0,3:2:0:0:
307,365,120268,1,8,0:0:0:0:
307,365,120376,2,0,P|336:306|304:267,1,82.7999974731446,2|0,0:0|0:0,0:0:0:0:
426,266,120594,2,0,P|389:211|340:219,1,82.7999974731446,8|0,0:0|0:0,0:0:0:0:
400,114,120811,2,0,P|334:118|316:164,1,82.7999974731446,2|0,0:0|0:0,0:0:0:0:
286,203,121029,1,4,3:2:0:0:
104,66,121246,5,2,0:0:0:0:
104,66,121355,1,0,0:0:0:0:
104,66,121463,2,0,P|102:99|96:162,1,82.7999974731446,10|0,0:0|0:0,0:0:0:0:
210,24,121681,2,0,P|207:65|203:106,1,82.7999974731446,2|8,0:0|0:0,0:0:0:0:
327,284,121898,5,8,0:0:0:0:
294,215,122007,2,0,P|258:191|201:212,1,82.7999974731446,0|0,3:2|0:0,0:0:0:0:
66,334,122224,2,0,P|104:314|115:254,1,82.7999974731446,0|0,3:2|0:0,0:0:0:0:
97,148,122442,6,0,P|73:115|77:75,1,82.7999974731446,4|2,3:2|0:0,0:0:0:0:
163,66,122768,6,0,P|77:53|-31:30,1,165.599994946289,4|0,3:2|0:0,0:0:0:0:
213,149,123094,1,2,0:0:0:0:
267,90,123202,2,0,P|270:37|232:9,1,82.7999974731446,8|0,0:0|0:0,0:0:0:0:
108,156,123420,2,0,P|114:197|116:238,1,82.7999974731446,2|0,0:0|0:0,0:0:0:0:
351,307,123637,5,8,0:0:0:0:
318,270,123746,1,8,0:0:0:0:
276,259,123855,1,0,3:2:0:0:
232,275,123963,1,0,3:2:0:0:
155,335,124072,6,0,P|115:326|51:319,1,82.7999974731446,2|0,3:2|0:0,0:0:0:0:
19,147,124289,2,0,B|60:152|100:161,1,82.7999974731446,2|0,3:2|0:0,0:0:0:0:
116,238,124507,6,0,P|128:158|151:72,2,169.926259384024,4|0|0,3:2|3:2|3:2,0:2:0:0:
262,384,125376,2,0,P|306:367|353:357,1,92,8|0,0:2|0:0,0:2:0:0:
414,296,125702,1,0,0:2:0:0:
419,272,125811,2,0,P|398:245|365:240,1,69.0519359705856,4|0,0:3|0:2,0:2:0:0:
267,193,126246,6,0,P|257:112|237:25,2,169.926259384024,4|0|0,3:2|3:2|3:2,0:2:0:0:
237,25,127116,1,8,0:2:0:0:
392,136,127333,2,0,P|397:120|415:101,2,30.6666666666667,4|4|4,0:3|0:3|0:3,0:0:0:0:
409,160,127550,2,0,P|378:157|349:147,1,61.3333333333333,4|0,0:3|0:0,0:2:0:0:
168,194,127985,6,0,P|85:166|0:156,2,173.879994693604,4|0|0,3:2|3:2|3:2,0:2:0:0:
0,157,128855,1,8,0:2:0:0:
130,92,129072,2,0,P|149:95|167:101,2,38.6399988208008,8|0|0,0:2|0:0|0:0,0:0:0:0:
86,160,129289,5,8,0:2:0:0:
116,225,129398,1,0,3:2:0:0:
162,245,129507,1,0,3:2:0:0:
190,238,129616,1,0,3:2:0:0:
265,156,129724,6,0,P|273:233|287:309,1,154.552600457017,4|0,3:2|0:2,0:2:0:0:
52,384,130159,2,0,P|44:307|30:231,1,154.552600457017,0|0,3:2|0:2,0:2:0:0:
86,160,130594,5,8,0:2:0:0:
96,141,130702,1,0,3:2:0:0:
97,121,130811,1,0,3:2:0:0:
92,109,130920,1,0,3:2:0:0:
28,64,131029,5,8,0:2:0:0:
57,21,131137,1,8,0:2:0:0:
117,0,131246,1,8,0:2:0:0:
191,27,131355,1,8,0:2:0:0:
233,100,131463,6,0,P|269:93|326:95,1,69.0000026321412,4|0,3:2|0:0,0:2:0:0:
441,0,131681,2,0,P|405:7|348:5,1,69.0000026321412,2|2,0:2|0:2,0:0:0:0:
512,184,131898,1,10,0:2:0:0:
502,164,132007,1,0,0:2:0:0:
476,149,132116,2,0,P|441:150|407:156,1,69.0000026321412,2|0,0:2|0:2,0:2:0:0:
210,377,132333,5,2,3:2:0:0:
178,366,132442,2,0,P|156:319|176:286,1,69.0000026321412,10|0,0:2|0:2,0:2:0:0:
332,369,132659,1,2,0:2:0:0:
379,341,132768,2,0,P|403:247|272:184,1,207.000007896424,8|8,0:2|0:2,0:2:0:0:
305,103,133203,2,0,P|259:117|242:165,1,69.0000026321412,0|0,3:2|0:2,0:2:0:0:
119,221,133420,5,2,0:2:0:0:
103,229,133529,1,0,0:2:0:0:
58,290,133637,2,0,P|52:253|40:208,1,69.0000026321412,10|0,0:2|0:2,0:2:0:0:
166,161,133855,2,0,P|172:198|184:243,1,69.0000026321412,2|0,0:2|0:2,0:2:0:0:
31,114,134072,5,2,3:2:0:0:
46,93,134181,2,0,P|77:84|120:106,1,69.0000026321412,10|0,0:2|0:2,0:2:0:0:
270,13,134398,1,2,3:2:0:0:
290,31,134507,2,0,P|298:62|274:105,1,69.0000026321412,10|0,0:2|0:2,0:2:0:0:
410,296,134724,5,0,3:2:0:0:
456,292,134833,1,0,3:2:0:0:
479,252,134942,2,0,P|483:217|491:184,1,69.0000026321412,4|0,3:2|0:2,0:2:0:0:
411,119,135159,2,0,P|417:85|427:52,1,69.0000026321412,0|0,3:2|0:2,0:2:0:0:
287,280,135376,2,0,P|291:245|299:212,1,69.0000026321412,0|0,3:2|0:2,0:2:0:0:
189,80,135594,2,0,P|195:46|205:13,1,69.0000026321412,0|0,3:2|0:2,0:2:0:0:
9,238,135811,6,0,P|41:227|75:221,1,69.0000026321412,0|0,3:2|0:2,0:2:0:0:
105,105,136029,2,0,P|70:109|37:117,1,69.0000026321412,0|0,3:2|0:2,0:2:0:0:
232,225,136246,2,0,P|265:216|299:212,1,69.0000026321412,0|0,3:2|0:2,0:2:0:0:
477,11,136463,2,0,P|442:11|408:16,1,69.0000026321412,0|0,3:2|0:2,0:2:0:0:
280,133,136681,6,0,P|259:137|239:140,1,41.3999987365723,4|0,3:2|0:0,0:0:0:0:
421,191,137116,2,0,P|399:193|379:198,1,41.3999987365723,4|0,3:2|0:2,0:2:0:0:
363,114,137550,6,0,P|357:94|355:73,1,41.3999987365723,4|0,3:2|0:2,0:2:0:0:
307,252,137985,2,0,P|303:231|298:211,1,41.3999987365723,4|0,3:2|0:2,0:2:0:0:
421,191,138420,6,0,P|399:193|379:198,1,41.3999987365723,4|0,3:2|0:2,0:2:0:0:
280,133,138855,2,0,P|257:138|232:141,1,41.3999987365723,4|0,3:2|0:2,0:2:0:0:
194,275,139289,6,0,P|128:284|50:306,1,128.799996069336,4|8,3:2|0:2,0:2:0:0:
1,252,139616,1,0,3:2:0:0:
205,364,139724,5,8,0:2:0:0:
268,321,139833,1,2,0:2:0:0:
341,292,139942,1,8,0:2:0:0:
420,272,140050,1,2,0:2:0:0:
502,259,140159,6,0,P|506:218|514:180,1,73.6,4|0,3:2|0:2,0:2:0:0:
318,120,140376,2,0,P|312:160|303:198,1,73.6,10|2,0:2|0:2,0:0:0:0:
468,124,140594,1,2,3:2:0:0:
459,96,140703,2,0,P|464:59|475:24,1,73.6,0|8,3:2|0:0,0:0:0:0:
404,223,140920,6,0,P|388:298|381:385,1,147.2,0|0,3:2|3:2,0:0:0:0:
180,347,141246,2,0,P|188:311|193:274,1,73.6,10|0,0:0|0:0,0:0:0:0:
304,192,141463,1,2,3:2:0:0:
318,120,141572,1,2,3:2:0:0:
334,48,141681,1,10,0:0:0:0:
337,33,141789,1,2,0:0:0:0:
395,144,141898,6,0,P|303:150|213:170,1,184,6|8,3:2|0:0,0:0:0:0:
68,67,142224,2,0,P|73:49|83:33,2,36.8,2|2|0,0:0|0:0|3:2,0:0:0:0:
144,107,142442,2,0,P|129:140|121:176,1,73.6,0|8,3:2|0:0,0:0:0:0:
15,258,142659,2,0,P|5:273|-1:291,1,36.8,2|2,3:2|0:0,0:0:0:0:
32,252,142768,2,0,P|41:236|47:218,1,36.8,2|2,0:2|0:0,0:0:0:0:
128,292,142876,5,0,3:2:0:0:
145,286,142985,2,0,P|184:288|232:302,1,73.6,10|2,0:0|0:0,0:0:0:0:
337,348,143203,1,0,3:2:0:0:
402,321,143311,1,0,3:2:0:0:
422,269,143420,1,8,0:0:0:0:
412,247,143529,1,2,0:0:0:0:
407,384,143637,6,0,P|396:292|379:202,1,184,4|8,3:2|0:0,0:0:0:0:
477,54,143963,2,0,P|491:54|523:47,2,36.8,0|0|2,0:0|0:0|3:2,0:0:0:0:
394,111,144181,1,0,3:2:0:0:
478,146,144289,1,8,0:0:0:0:
388,23,144398,2,0,P|331:24|294:114,1,147.2,0|2,3:2|3:2,0:0:0:0:
422,269,144724,2,0,P|457:258|508:250,1,73.6,8|2,0:0|0:0,0:0:0:0:
264,182,144942,5,2,3:2:0:0:
214,191,145050,1,2,0:0:0:0:
143,206,145159,1,10,0:0:0:0:
60,224,145268,1,2,0:0:0:0:
204,71,145376,6,0,P|209:54|212:35,1,36.8,12|0,0:0|0:0,0:0:0:0:
350,275,145811,6,0,P|355:258|358:239,1,36.8,12|0,0:0|0:0,0:0:0:0:
144,365,146246,6,0,P|149:348|152:329,1,36.8,12|0,0:0|0:0,0:0:0:0:
0,169,146572,5,8,0:0:0:0:
9,158,146681,2,0,P|14:141|17:122,2,36.8,12|8|8,0:0|0:0|0:0,0:0:0:0:
61,221,146898,1,8,0:0:0:0:
138,220,147007,1,8,0:0:0:0:
193,165,147116,6,0,P|202:130|207:89,1,73.6,4|0,3:2|0:0,0:0:0:0:
393,174,147333,2,0,P|384:209|379:250,1,73.6,8|0,0:0|0:0,0:0:0:0:
297,108,147550,1,0,3:2:0:0:
310,91,147659,2,0,P|317:55|321:14,1,73.6,0|8,3:2|0:0,0:0:0:0:
490,177,147876,2,0,P|496:103|512:31,1,147.2,0|0,3:2|3:2,0:0:0:0:
393,174,148202,1,8,0:0:0:0:
393,174,148420,6,0,P|354:183|312:188,1,73.6,0|0,3:2|0:0,0:0:0:0:
213,343,148637,2,0,P|252:334|294:329,1,73.6,8|0,0:2|0:0,0:0:0:0:
198,170,148855,2,0,P|207:209|212:251,1,73.6,2|0,3:2|3:2,0:0:0:0:
385,341,149072,2,0,P|376:302|371:260,1,73.6,8|0,0:0|0:0,0:0:0:0:
509,60,149289,1,0,3:2:0:0:
466,4,149398,1,0,3:2:0:0:
401,34,149507,2,0,P|410:73|415:115,1,73.6,8|0,0:0|0:0,0:0:0:0:
512,278,149724,5,8,0:0:0:0:
512,278,149833,1,8,0:0:0:0:
370,172,150050,1,8,0:0:0:0:
211,242,150268,1,2,3:2:0:0:
58,123,150485,2,0,P|94:117|129:106,1,73.6,4|0,3:2|0:0,0:0:0:0:
331,282,150702,6,0,P|370:270|411:264,1,82.7999974731446,4|2,3:2|0:0,0:0:0:0:
456,197,150920,1,2,0:0:0:0:
216,292,151029,2,0,P|239:326|257:363,1,82.7999974731446,4|0,3:2|0:0,0:0:0:0:
335,384,151245,1,8,0:0:0:0:
170,185,151355,2,0,P|144:217|115:246,1,82.7999974731446,4|0,3:2|0:0,0:0:0:0:
119,326,151573,1,0,3:2:0:0:
257,107,151681,2,0,P|218:92|181:73,1,82.7999974731446,4|0,3:2|0:0,0:0:0:0:
107,102,151899,1,0,3:2:0:0:
357,165,152006,2,0,P|358:123|365:82,1,82.7999974731446,4|0,3:2|0:0,0:0:0:0:
316,21,152224,1,0,3:2:0:0:
258,189,152333,6,0,P|257:212|251:237,2,41.3999987365723,8|0|0,0:0|0:0|3:2,0:0:0:0:
443,145,152550,1,0,3:2:0:0:
461,141,152659,2,0,P|515:181|480:283,1,165.599994946289,8|0,0:0|3:2,0:0:0:0:
165,203,152985,2,0,P|172:136|278:115,1,165.599994946289,8|0,0:0|3:2,0:0:0:0:
407,329,153311,5,8,0:0:0:0:
348,290,153420,1,0,0:0:0:0:
283,358,153529,1,0,3:2:0:0:
183,318,153637,2,0,P|135:321|86:331,1,82.7999974731446,8|0,0:0|0:0,0:0:0:0:
257,205,153855,2,0,P|298:202|339:195,1,82.7999974731446,0|0,3:2|3:2,0:0:0:0:
95,96,154072,6,0,P|92:48|82:-1,1,78.2000014915467,2|8,3:2|0:0,0:0:0:0:
163,176,154289,2,0,P|169:203|171:233,1,52.1333343276978,0|0,3:2|3:2,0:0:0:0:
378,119,154507,1,8,0:0:0:0:
422,187,154616,2,0,P|406:263|402:341,1,156.400002983093,2|0,3:2|3:2,0:0:0:0:
227,384,154942,5,8,0:0:0:0:
204,304,155050,1,0,0:0:0:0:
291,322,155159,1,0,3:2:0:0:
136,367,155268,1,0,3:2:0:0:
183,225,155376,1,8,0:0:0:0:
159,149,155485,2,0,P|169:106|173:64,1,78.2000014915467,0|0,3:2|3:2,0:0:0:0:
229,12,155702,1,0,3:2:0:0:
327,251,155811,5,8,0:0:0:0:
327,251,156029,6,0,B|365:274|403:248|422:203|415:199|409:192|420:153|464:124|510:147,2,239.199989050293,12|8|8,3:2|0:0|0:0,0:0:0:0:
506,145,156681,1,8,0:0:0:0:
244,293,157116,6,0,P|262:341|267:386,1,82.7999974731446,2|0,0:0|0:0,0:0:0:0:
267,384,157550,1,4,3:2:0:0:
246,2,163637,5,8,0:3:0:0:
298,106,163782,2,0,P|302:75|313:43,1,55.1999983154297
246,2,164072,2,0,P|233:6|220:8,1,27.5999991577149,4|4,0:3|0:3,0:0:0:0:
158,57,164288,1,0,3:0:0:0:
141,46,164397,1,0,3:0:0:0:
51,148,164507,6,0,P|73:199|90:278,1,128.799996069336,4|8,3:2|0:3,0:2:0:0:
28,322,164833,1,4,0:3:0:0:
35,337,164942,2,0,P|64:356|127:323,1,64.399998034668,4|0,0:3|0:2,0:2:0:0:
243,210,165159,5,8,0:3:0:0:
300,199,165268,1,8,0:3:0:0:
350,237,165376,2,0,P|328:288|311:367,1,128.799996069336,4|8,0:3|0:3,0:2:0:0:
235,384,165702,1,8,0:3:0:0:
220,376,165811,2,0,P|201:335|224:289,1,64.399998034668,4|0,0:3|0:2,0:2:0:0:
169,238,166029,2,0,P|190:214|221:206,1,64.399998034668,8|8,0:3|0:3,0:2:0:0:
494,89,166246,6,0,P|449:100|363:108,1,128.799996069336,4|4,3:2|0:3,0:2:0:0:
289,143,166572,1,8,0:3:0:0:
270,137,166681,2,0,P|241:115|219:76,1,64.399998034668,4|0,0:3|0:2,0:2:0:0:
151,49,166898,1,8,0:3:0:0:
159,29,167007,1,8,0:3:0:0:
70,34,167116,6,0,P|39:44|5:49,1,64.399998034668,4|0,3:2|0:2,0:2:0:0:
102,170,167333,2,0,P|132:159|164:155,1,64.399998034668,8|8,0:3|0:3,0:2:0:0:
372,299,167550,2,0,P|341:288|309:284,1,64.399998034668,4|4,0:3|0:3,0:0:0:0:
430,141,167768,2,0,P|460:151|492:155,1,64.399998034668,8|8,0:3|0:3,0:2:0:0:
355,202,167985,5,4,3:2:0:0:
340,174,168094,1,8,0:2:0:0:
306,157,168202,1,8,0:2:0:0:
263,176,168311,1,8,0:2:0:0:
221,88,168420,5,0,3:2:0:0:
184,86,168529,1,8,0:2:0:0:
143,113,168637,1,8,0:2:0:0:
135,171,168746,1,8,0:2:0:0:
26,202,168855,5,0,3:2:0:0:
0,243,168964,1,8,0:2:0:0:
5,306,169072,1,8,0:2:0:0:
65,354,169181,1,8,0:2:0:0:
194,231,169289,5,0,3:2:0:0:
204,164,169398,1,8,0:2:0:0:
222,103,169507,1,8,0:2:0:0:
240,55,169616,1,8,0:2:0:0:
266,18,169724,6,0,P|199:-3|140:72,1,156.400002983093,0|8,3:2|0:2,0:2:0:0:
294,145,170050,1,8,0:2:0:0:
310,142,170159,2,0,P|330:115|323:77,1,64.399998034668,0|0,3:2|0:2,0:0:0:0:
143,156,170376,2,0,P|157:183|187:195,1,64.399998034668,8|8,0:2|0:2,0:2:0:0:
426,118,170594,5,0,3:2:0:0:
479,132,170702,1,8,0:2:0:0:
512,194,170811,1,8,0:2:0:0:
492,275,170920,1,8,0:2:0:0:
422,322,171029,2,0,P|383:329|333:353,1,64.399998034668,0|0,3:2|0:2,0:2:0:0:
187,195,171246,2,0,P|177:226|172:258,1,64.399998034668,0|0,3:2|3:2,0:0:0:0:
247,365,171426,6,0,P|247:348|252:314,1,42.933332023112,0|0,3:0|3:0,0:0:0:0:
262,378,171572,2,0,P|271:285|303:142,1,202.400006176758,12|0,0:0|3:2,0:0:0:0:
49,105,171898,2,0,P|90:192|186:194,1,202.400006176758,12|0,0:0|3:2,0:0:0:0:
334,21,172224,2,0,B|399:5|419:75|411:80|408:84|433:154|501:137,1,220.799993261719,12|0,0:0|0:0,0:0:0:0:
283,84,172550,5,0,3:2:0:0:
214,43,172659,1,0,3:2:0:0:
168,104,172768,2,0,P|180:148|185:193,1,92,8|0,0:0|0:0,0:0:0:0:
512,228,172985,2,0,P|500:184|495:139,1,92,2|0,0:0|0:0,0:0:0:0:
151,384,173202,6,0,P|95:323|138:219,1,165.599994946289,6|10,3:2|0:2,0:2:0:0:
275,308,173529,2,0,P|234:299|193:293,1,82.7999974731446,2|0,3:2|0:2,0:2:0:0:
9,153,173746,1,2,3:2:0:0:
24,141,173855,2,0,P|64:147|105:155,1,82.7999974731446,10|2,0:2|3:2,0:0:0:0:
314,68,174072,5,2,3:2:0:0:
250,14,174181,2,0,P|227:44|257:108,1,82.7999974731446,0|10,0:2|0:2,0:2:0:0:
323,237,174398,2,0,P|327:197|333:154,1,82.7999974731446,2|0,3:2|0:2,0:0:0:0:
459,12,174616,1,2,3:2:0:0:
468,25,174724,2,0,P|461:65|457:107,1,82.7999974731446,10|0,0:2|0:2,0:2:0:0:
502,263,174942,6,0,P|463:252|407:243,1,82.7999974731446,2|0,3:2|0:2,0:2:0:0:
262,325,175159,2,0,P|302:332|342:343,1,82.7999974731446,10|0,0:2|0:2,0:2:0:0:
230,171,175376,5,2,3:2:0:0:
190,159,175484,1,0,3:2:0:0:
149,152,175593,1,10,0:2:0:0:
71,209,175702,2,0,P|48:176|56:137,1,82.7999974731446,0|2,3:2|0:2,0:2:0:0:
202,259,175920,5,0,3:2:0:0:
192,274,176029,2,0,P|151:281|111:292,1,82.7999974731446,10|0,0:2|0:2,0:2:0:0:
0,67,176246,2,0,P|39:55|80:48,1,82.7999974731446,2|0,3:2|0:2,0:2:0:0:
100,61,176463,1,8,0:2:0:0:
420,195,176681,6,0,P|465:139|408:43,2,165.599994946289,2|10|2,3:2|0:2|3:2,0:2:0:0:
277,145,177224,1,0,3:2:0:0:
288,130,177333,2,0,P|328:121|369:118,1,82.7999974731446,10|0,0:2|0:2,0:2:0:0:
472,289,177550,5,2,3:2:0:0:
436,308,177658,1,2,0:2:0:0:
397,298,177768,2,0,P|355:300|315:309,1,82.7999974731446,10|0,0:2|3:2,0:2:0:0:
158,115,177985,6,0,P|148:155|139:195,1,82.7999974731446,2|0,0:2|3:2,0:2:0:0:
206,375,178202,2,0,P|215:333|224:294,1,82.7999974731446,10|0,0:2|0:2,0:2:0:0:
288,233,178420,1,4,3:2:0:0:
123,330,178637,5,10,0:2:0:0:
123,330,178746,1,0,0:2:0:0:
123,330,178855,2,0,P|82:332|40:339,1,82.7999974731446,2|0,3:2|0:2,0:2:0:0:
34,248,179072,2,0,P|74:240|116:238,1,82.7999974731446,10|0,0:2|3:2,0:0:0:0:
257,147,179289,1,8,0:2:0:0:
238,62,179398,2,0,P|220:162|207:263,2,202.400006176758,10|2|2,0:2|3:2|3:2,0:2:0:0:
212,353,180050,5,0,3:2:0:0:
212,353,180159,2,0,B|256:367|289:328|268:334|289:277|367:300,1,165.599994946289,6|10,3:2|0:2,0:2:0:0:
502,354,180485,2,0,P|454:352|426:318,1,82.7999974731446,2|0,3:2|0:2,0:2:0:0:
505,149,180702,1,2,3:2:0:0:
512,163,180811,2,0,P|503:203|495:244,1,82.7999974731446,10|0,0:2|0:2,0:0:0:0:
250,181,181029,5,2,3:2:0:0:
279,153,181137,1,2,0:2:0:0:
319,154,181246,1,10,0:2:0:0:
371,216,181355,2,0,P|362:256|354:297,1,82.7999974731446,2|0,3:2|0:2,0:0:0:0:
98,312,181572,1,2,3:2:0:0:
168,374,181681,2,0,P|176:333|184:292,1,82.7999974731446,10|0,0:2|0:2,0:2:0:0:
81,43,181898,6,0,P|40:52|0:59,1,82.7999974731446,2|0,3:2|0:2,0:2:0:0:
82,159,182116,2,0,P|123:152|164:143,1,82.7999974731446,10|0,0:2|0:2,0:2:0:0:
386,23,182333,6,0,P|378:64|373:105,1,82.7999974731446,2|0,3:2|0:2,0:2:0:0:
269,210,182550,2,0,P|275:164|279:127,1,82.7999974731446,10|0,0:2|0:2,0:2:0:0:
481,59,182768,6,0,L|471:141,1,55.1999983154297,10|0,0:2|3:2,0:2:0:0:
467,196,182913,1,0,3:2:0:0:
467,196,182985,2,0,L|460:250,1,55.1999983154297,8|0,0:2|3:2,0:2:0:0:
351,296,183130,1,0,3:2:0:0:
351,296,183202,2,0,L|361:214,1,55.1999983154297,10|0,0:2|3:2,0:2:0:0:
365,159,183347,1,0,3:2:0:0:
365,159,183419,2,0,L|372:105,1,55.1999983154297,8|0,0:2|3:2,0:2:0:0:
278,36,183565,5,0,3:2:0:0:
278,36,183637,2,0,B|226:17|191:46|206:66|177:101|121:72,2,165.599994946289,4|10|0,3:2|0:2|0:2,0:2:0:0:
44,122,184181,1,2,3:2:0:0:
28,107,184289,2,0,P|18:67|42:35,1,82.7999974731446,10|0,0:2|0:2,0:2:0:0:
122,174,184507,6,0,P|116:213|109:255,1,82.7999974731446,2|0,3:2|0:2,0:2:0:0:
276,365,184724,2,0,P|281:324|288:283,1,82.7999974731446,10|0,0:2|0:2,0:2:0:0:
221,161,184942,5,2,3:2:0:0:
221,161,185050,1,0,3:2:0:0:
221,161,185159,2,0,P|215:200|208:242,1,82.7999974731446,10|0,0:2|0:2,0:2:0:0:
194,321,185376,1,4,3:2:0:0:
336,206,185594,5,10,0:2:0:0:
383,204,185703,1,0,0:2:0:0:
411,241,185811,2,0,P|419:283|386:317,1,82.7999974731446,2|0,3:2|0:2,0:2:0:0:
221,161,186029,2,0,P|227:120|234:79,1,82.7999974731446,10|0,0:2|3:2,0:0:0:0:
0,230,186246,5,8,0:2:0:0:
33,303,186355,2,0,P|65:330|115:311,1,82.7999974731446,0|0,3:2|0:0,0:2:0:0:
262,384,186572,2,0,P|301:369|309:316,1,82.7999974731446,0|0,3:2|0:0,0:2:0:0:
498,259,186789,6,0,P|505:217|463:183,1,82.7999974731446,4|2,3:2|3:2,0:2:0:0:
411,241,187116,6,0,P|329:227|247:216,2,165.599994946289,6|8|0,3:2|0:2|0:2,0:2:0:0:
296,135,187659,1,2,3:2:0:0:
296,135,187768,2,0,P|252:129|195:124,1,82.7999974731446,10|0,0:2|0:2,0:2:0:0:
60,271,187985,1,2,3:2:0:0:
37,273,188094,1,0,3:2:0:0:
17,261,188202,2,0,P|1:213|29:183,1,82.7999974731446,10|0,0:2|0:2,0:2:0:0:
125,75,188420,2,0,L|116:189,1,82.7999974731446,2|0,3:2|0:0,0:2:0:0:
214,355,188637,2,0,P|249:305|230:248,1,124.199996209717,10|0,0:2|0:0,0:2:0:0:
219,257,188855,6,0,P|328:269|438:283,2,220.799993261719,12|12|8,0:2|0:2|0:2,0:2:0:0:
127,284,189869,1,0,3:2:0:0:
19,310,190014,1,0,3:2:0:0:
51,202,190159,5,8,0:2:0:0:
94,170,190303,1,8,0:2:0:0:
148,173,190448,1,8,0:2:0:0:
237,97,190594,6,0,P|182:49|108:93,1,138.000005264282,6|0,3:2|0:2,0:2:0:0:
269,174,190920,1,2,3:2:0:0:
286,182,191029,2,0,P|307:173|323:127,1,69.0000026321412,8|0,0:2|0:2,0:0:0:0:
419,59,191246,2,0,P|412:90|405:140,1,69.0000026321412,2|2,3:2|3:2,0:0:0:0:
491,312,191463,5,10,0:2:0:0:
470,274,191571,1,0,0:2:0:0:
434,250,191680,1,2,3:2:0:0:
392,246,191789,1,0,0:2:0:0:
352,262,191898,2,0,P|324:264|270:276,1,69.0000026321412,10|0,0:2|0:2,0:2:0:0:
57,259,192116,5,2,3:2:0:0:
34,304,192224,1,2,3:2:0:0:
65,347,192333,2,0,P|87:342|120:335,1,55.2,6|0,3:2|0:0,0:0:0:0:
283,271,192768,2,0,P|255:276|229:282,1,55.2,4|0,3:2|0:0,0:0:0:0:
156,174,193202,2,0,P|159:155|163:138,1,36.8,12|0,3:2|0:0,0:0:0:0:
167,117,193529,5,0,3:2:0:0:
90,225,193637,2,0,P|37:245|-1:212,1,82.7999974731446,8|0,0:2|0:2,0:2:0:0:
106,51,193855,5,8,0:2:0:0:
193,36,193963,1,8,0:2:0:0:
251,99,194072,2,0,B|291:114|331:93|312:67|355:37|403:61,1,165.599994946289,2|10,0:2|0:2,0:2:0:0:
512,157,194398,2,0,P|467:167|436:126,1,82.7999974731446,2|0,3:2|0:2,0:2:0:0:
294,186,194616,1,2,3:2:0:0:
335,113,194724,2,0,L|313:337,1,165.599994946289,10|0,0:2|0:2,0:2:0:0:
177,356,195050,5,0,3:2:0:0:
163,362,195159,2,0,P|139:263|215:222,2,165.599994946289,10|2|10,0:2|3:2|0:2,0:2:0:0:
386,323,195702,5,0,0:2:0:0:
375,337,195811,2,0,B|335:352|295:331|314:305|271:275|223:299,1,165.599994946289,2|8,3:2|0:2,0:2:0:0:
49,368,196137,2,0,P|40:306|80:275,1,82.7999974731446,2|0,3:2|0:2,0:2:0:0:
228,167,196355,1,2,3:2:0:0:
234,179,196463,2,0,P|207:222|146:210,1,82.7999974731446,10|0,0:2|0:2,0:2:0:0:
14,139,196681,6,0,B|57:160|97:139|78:113|121:83|169:107,1,165.599994946289,2|8,3:2|0:2,0:0:0:0:
400,81,197007,2,0,P|395:123|390:171,1,82.7999974731446,2|0,3:2|0:2,0:2:0:0:
301,27,197224,1,2,3:2:0:0:
289,19,197333,2,0,P|284:60|279:101,1,82.7999974731446,10|0,0:2|0:0,0:2:0:0:
455,218,197550,5,2,3:2:0:0:
436,238,197658,1,2,0:2:0:0:
410,247,197767,1,10,0:2:0:0:
383,244,197876,1,2,3:2:0:0:
306,199,197985,5,0,0:2:0:0:
228,228,198094,1,2,3:2:0:0:
212,310,198202,2,0,P|171:318|130:327,1,82.7999974731446,10|0,0:2|0:2,0:0:0:0:
36,257,198420,1,0,0:2:0:0:
36,257,198529,1,0,3:2:0:0:
36,257,198637,2,0,P|27:297|18:338,1,82.7999974731446,10|0,0:2|0:2,0:2:0:0:
136,209,198855,5,2,3:2:0:0:
160,168,198963,1,2,3:2:0:0:
158,116,199072,1,10,0:2:0:0:
126,79,199181,1,2,3:2:0:0:
82,145,199289,6,0,P|52:139|-10:131,1,82.7999974731446,2|0,3:2|0:0,0:2:0:0:
231,235,199507,1,8,0:2:0:0:
240,247,199615,2,0,P|231:287|222:328,1,82.7999974731446,2|0,3:2|0:2,0:0:0:0:
326,384,199833,1,0,3:2:0:0:
339,375,199941,2,0,P|348:335|357:294,1,82.7999974731446,10|0,0:2|0:2,0:2:0:0:
391,61,200159,5,8,0:2:0:0:
482,85,200268,2,0,P|387:99|269:135,2,202.400006176758,10|2|2,0:2|3:2|3:2,0:2:0:0:
88,208,200920,5,0,3:2:0:0:
85,198,201029,2,0,P|90:155|96:114,1,82.7999974731446,6|0,3:2|0:2,0:2:0:0:
202,36,201246,2,0,P|190:119|176:234,1,165.599994946289,8|2,0:2|3:2,0:2:0:0:
271,329,201572,1,0,3:2:0:0:
284,324,201681,2,0,P|296:292|246:241,1,82.7999974731446,8|0,0:2|3:2,0:2:0:0:
30,321,201898,6,0,P|128:293|219:297,1,165.599994946289,2|10,0:2|0:2,0:2:0:0:
421,321,202224,2,0,P|434:252|399:225,1,82.7999974731446,2|0,0:2|3:2,0:2:0:0:
342,193,202442,1,0,3:2:0:0:
332,185,202550,2,0,P|321:145|341:110,1,82.7999974731446,10|0,0:2|0:2,0:2:0:0:
512,50,202768,6,0,P|489:138|415:150,1,165.599994946289,2|8,3:2|0:2,0:2:0:0:
189,36,203094,2,0,P|271:31|353:20,1,165.599994946289,2|2,3:2|3:2,0:2:0:0:
183,158,203420,2,0,P|228:153|294:150,1,82.7999974731446,10|0,0:2|0:2,0:2:0:0:
494,213,203637,6,0,L|499:158,2,55.1999983154297,10|0|0,0:2|3:2|3:2,0:2:0:0:
419,207,203855,2,0,L|424:152,2,55.1999983154297,8|0|0,3:2|3:2|3:2,0:2:0:0:
369,287,204072,6,0,L|374:341,2,55.1999983154297,10|0|0,0:2|3:2|3:2,0:2:0:0:
294,293,204288,2,0,L|299:347,2,55.1999983154297,8|0|0,0:2|3:2|3:2,0:2:0:0:
170,153,204507,2,0,P|109:141|70:236,1,165.599994946289,8|8,0:2|3:2,0:2:0:0:
140,310,204797,5,0,3:2:0:0:
147,303,204869,1,0,3:2:0:0:
157,290,204942,2,0,P|154:262|151:235,2,55.1999983154297,8|0|0,0:2|3:2|3:2,0:0:0:0:
249,196,205159,2,0,P|276:198|303:201,2,55.1999983154297,8|0|0,0:2|3:2|3:2,0:2:0:0:
83,126,205376,2,0,P|55:128|28:131,2,55.1999983154297,8|0|0,0:2|3:2|3:2,0:2:0:0:
242,46,205594,2,0,P|269:48|296:51,2,55.1999983154297,8|0|0,0:2|3:2|3:2,0:2:0:0:
170,153,205811,6,0,P|167:125|164:98,2,55.1999983154297,8|0|0,0:2|3:2|3:2,0:2:0:0:
389,248,206029,6,0,P|401:218|377:172,1,82.7999974731446,10|0,0:2|0:0,0:2:0:0:
249,196,206246,2,0,P|237:226|261:272,1,82.7999974731446,10|0,0:2|0:0,0:2:0:0:
423,382,206463,6,0,P|425:354|428:327,2,55.1999983154297,8|0|0,0:2|3:2|3:2,0:2:0:0:
326,371,206681,2,0,P|328:343|331:316,2,55.1999983154297,8|0|0,0:2|3:2|3:2,0:2:0:0:
172,292,206898,6,0,P|214:284|253:280,1,82.7999974731446,10|0,0:2|0:0,0:2:0:0:
386,167,207116,2,0,P|426:159|467:155,1,82.7999974731446,10|0,0:2|0:0,0:2:0:0:
172,122,207333,6,0,P|214:114|253:110,1,82.7999974731446,10|0,0:2|0:0,0:2:0:0:
343,321,207550,2,0,P|383:313|424:309,1,82.7999974731446,10|0,0:2|3:2,0:2:0:0:
488,264,207768,1,10,0:2:0:0:
229,315,207985,5,0,3:2:0:0:
156,285,208094,2,0,P|114:290|70:297,1,82.7999974731446,12|0,0:2|0:2,0:2:0:0:
11,261,208311,1,0,3:2:0:0:
170,195,208420,2,0,P|212:200|256:207,1,82.7999974731446,12|0,0:2|0:2,0:2:0:0:
311,257,208637,1,0,3:2:0:0:
150,188,208746,2,0,L|135:96,1,82.7999974731446,12|0,0:2|0:2,0:2:0:0:
142,25,208963,1,0,3:2:0:0:
48,144,209072,6,0,P|36:95|66:65,1,82.7999974731446,12|0,0:2|0:2,0:2:0:0:
237,17,209289,2,0,P|228:52|219:121,1,82.7999974731446,0|0,3:2|0:2,0:2:0:0:
328,274,209507,2,0,P|340:225|310:195,1,82.7999974731446,0|0,3:2|0:0,0:2:0:0:
156,255,209724,5,0,3:2:0:0:
250,247,209833,2,0,P|208:252|158:267,1,82.7999974731446,12|0,0:2|0:2,0:2:0:0:
116,327,210050,1,0,3:2:0:0:
0,163,210159,2,0,P|39:152|80:147,1,82.7999974731446,12|0,0:2|0:2,0:2:0:0:
156,181,210376,1,0,3:2:0:0:
14,331,210485,2,0,P|26:264|36:237,1,82.7999974731446,12|0,0:2|0:2,0:2:0:0:
3,176,210702,5,0,3:2:0:0:
145,100,210811,2,0,P|174:144|156:179,1,82.7999974731446,12|0,3:2|0:2,0:2:0:0:
252,262,211029,2,0,P|256:232|269:182,1,82.7999974731446,0|0,3:2|0:2,0:2:0:0:
385,51,211246,2,0,P|373:90|367:131,1,82.7999974731446,0|0,3:2|0:0,0:2:0:0:
391,259,211463,5,0,3:2:0:0:
410,275,211572,1,14,0:2:0:0:
415,252,211681,1,2,0:2:0:0:
378,288,211789,5,0,3:2:0:0:
443,272,211898,1,14,0:2:0:0:
394,218,212007,1,2,0:2:0:0:
406,259,212116,5,0,3:2:0:0:
471,184,212224,2,0,P|474:152|488:95,1,82.7999974731446,12|2,0:2|0:2,0:2:0:0:
512,33,212442,1,0,3:2:0:0:
381,106,212550,2,0,P|341:111|274:121,1,82.7999974731446,12|2,0:2|0:2,0:2:0:0:
129,63,212768,2,0,P|168:46|209:51,1,82.7999974731446,0|0,3:2|0:2,0:2:0:0:
97,248,212985,2,0,P|39:237|27:179,1,124.199996209717,0|0,3:2|0:2,0:2:0:0:
47,156,213202,6,0,P|89:165|128:170,1,82.7999974731446,12|0,0:2|0:2,0:2:0:0:
353,223,213420,2,0,P|311:228|271:237,1,82.7999974731446,8|0,0:2|0:0,0:2:0:0:
214,169,213637,1,8,0:2:0:0:
188,265,213746,2,0,P|203:195|207:172,1,82.7999974731446,8|0,0:2|0:2,0:2:0:0:
282,111,213926,6,0,P|279:8|187:84,1,275.999991577149,12|0,0:2|3:2,0:2:0:0:
186,81,214507,5,12,0:2:0:0:
256,192,214616,12,0,220159,0:0:0:0:
360,298,221246,5,8,0:2:0:0:
360,298,221355,1,8,0:2:0:0:
360,298,221463,1,0,3:2:0:0:
