osu file format v14

[General]
AudioFilename: audio.mp3
AudioLeadIn: 0
PreviewTime:172333
Countdown: 0
SampleSet: Soft
StackLeniency: 0.5
Mode: 0
LetterboxInBreaks: 0
WidescreenStoryboard: 1

[Editor]
Bookmarks: 1030,20160,25377,27116,32334,34073,41029,41899,49725,56682,65377,67116,72443,74073,79290,81899,83638,88855,91464,93203,97550,98420,100159,107116,108855,114942,115811,122768,124507,129724,131463,136681,139289,140159,145376,147116,150594,151029,151463,151898,152333,154072,155811,157550,164507,167985,169724,171463,173202,180159,187116,194072,201029,204507,207985,214507,221463
DistanceSpacing: 0.9
BeatDivisor: 4
GridSize: 4
TimelineZoom: 2.6

[Metadata]
Title:Jinsei Easy?
TitleUnicode:人生イージー?
Artist:DIALOGUE+
ArtistUnicode:DIALOGUE+
Creator:Amateurre
Version:LV.5 Tsukinyuni's Normal
Source:弱キャラ友崎くん
Tags:anime japanese pop j-pop jpop opening jaku chara tomozaki kun bottom tier character tomozaki-kun iljaaz keqing finshie kuse KuBsNia_ZhoYL_ winnie yogurtt lecandy asagi tsukinyuni matha petal
BeatmapID:3244703
BeatmapSetID:1507979

[Difficulty]
HPDrainRate:4
CircleSize:3.5
OverallDifficulty:4.5
ApproachRate:5
SliderMultiplier:1.02
SliderTickRate:1

[Events]
//Background and Video events
0,0,"DoqxyrCVAAAO5X.jpg",0,0
//Break Periods
2,67207,69226
2,157749,163246
//Storyboard Layer 0 (Background)
//Storyboard Layer 1 (Fail)
//Storyboard Layer 2 (Pass)
//Storyboard Layer 3 (Foreground)
//Storyboard Layer 4 (Overlay)
//Storyboard Sound Samples

[TimingPoints]
1030,434.782608695652,4,2,1,60,1,0
6247,-100,4,2,1,70,0,0
13203,-100,4,2,1,75,0,0
20160,-105.263157894737,4,2,1,60,0,0
25377,-100,4,2,1,60,0,0
27116,-105.263157894737,4,2,1,70,0,0
41029,-100,4,2,1,70,0,0
49725,-100,4,2,1,80,0,0
67008,-100,4,2,1,65,0,0
72443,-100,4,2,1,70,0,0
83638,434.782608695652,4,2,1,70,1,0
83638,-105.263157894737,4,2,1,70,0,0
93203,434.782608695652,4,2,1,70,1,0
93203,-105.263157894737,4,2,1,70,0,0
108855,-100,4,2,1,80,0,0
124507,-100,4,2,1,65,0,0
131463,-100,4,2,1,70,0,0
137442,-100,4,2,1,70,0,0
137550,-100,4,2,1,70,0,0
137876,-100,4,2,1,70,0,0
137985,-100,4,2,1,70,0,0
138311,-100,4,2,1,70,0,0
138420,-100,4,2,1,70,0,0
138746,-100,4,2,1,70,0,0
138855,-100,4,2,1,70,0,0
139181,-100,4,2,1,70,0,0
139289,-100,4,2,1,70,0,0
140159,217.391304347826,4,2,1,75,1,0
140159,-192.307692307692,4,2,1,75,0,0
157550,434.782608695652,4,2,1,60,1,0
164506,-100,4,2,1,70,0,0
173202,217.391304347826,4,2,1,80,1,1
173202,-192.307692307692,4,2,1,80,0,1
194071,-192.307692307692,4,2,1,70,0,0
204506,-181.818181818182,4,2,1,70,0,0

[Colours]
Combo1 : 255,166,166
Combo2 : 130,219,77
Combo3 : 255,108,108
Combo4 : 164,255,164

[HitObjects]
28,40,1030,6,0,P|68:52|128:60,1,102,2|2,2:0|2:0,2:0:0:0:
216,112,1899,1,2,2:0:0:0:
296,48,2334,1,8,2:0:0:0:
392,84,2769,2,0,P|380:124|372:184,1,102,10|2,2:0|2:0,2:0:0:0:
408,280,3638,1,2,2:0:0:0:
328,340,4073,2,0,P|304:332|288:312,1,51,8|8,2:0|3:0,0:0:0:0:
248,284,4508,6,0,P|260:244|268:184,1,102,6|10,3:2|2:0,2:0:0:0:
212,100,5377,2,0,B|175:88|150:116|159:122|134:149|98:138,1,127.5,8|8,3:2|3:0,0:0:0:0:
16,77,6356,2,0,P|8:20|3:-1,2,76.5,6|4|4,3:2|3:2|3:2,2:0:0:0:
72,140,7334,1,0,3:2:0:0:
72,140,7551,1,12,2:0:0:0:
164,92,7986,6,0,P|232:88|268:156,1,153,6|2,3:2|2:0,2:0:0:0:
244,200,8856,1,4,3:2:0:0:
340,380,9725,2,0,B|376:364|384:324|384:324|412:292|456:304,1,153,4|2,3:2|2:0,2:0:0:0:
500,280,10595,1,4,3:2:0:0:
472,180,11029,1,2,3:2:0:0:
376,216,11464,2,0,P|340:204|300:196,2,76.5,14|14|14,2:0|2:0|3:2,2:0:0:0:
412,252,12334,1,14,3:2:0:0:
468,168,12769,1,8,2:0:0:0:
424,76,13203,6,0,P|373:66|325:50,1,102,6|8,3:2|2:0,2:0:0:0:
224,52,14073,2,0,P|212:32|212:4,2,51,0|2|10,3:2|2:0|2:0,0:0:0:0:
276,140,14943,2,0,P|326:149|374:165,1,102,4|8,3:2|2:0,2:0:0:0:
460,224,15812,1,0,3:2:0:0:
408,312,16247,1,10,2:0:0:0:
324,256,16682,2,0,P|272:256|248:296,1,102,4|8,3:2|2:0,2:0:0:0:
184,372,17551,2,0,P|164:364|136:356,1,51,0|2,3:2|2:0,2:0:0:0:
104,316,17986,1,8,3:2:0:0:
216,252,18529,6,0,P|225:215|237:179,2,76.5,4|4|4,3:2|3:2|3:2,2:0:0:0:
252,328,19508,1,4,3:2:0:0:
252,328,19725,1,12,2:0:0:0:
336,276,20160,6,0,P|380:268|436:260,1,96.8999974124909,6|0,3:2|3:2,2:0:0:0:
500,192,21029,2,0,B|512:148|512:148|480:108,1,96.8999974124909,2|2,3:2|3:2,2:0:0:0:
388,136,21899,2,0,P|344:128|288:120,1,96.8999974124909,2|0,3:2|3:0,0:0:0:0:
208,72,22769,1,2,3:2:0:0:
136,136,23203,1,2,3:2:0:0:
44,104,23638,6,0,P|12:136|16:184,1,96.8999974124909,2|0,3:2|3:0,0:0:0:0:
96,240,24508,1,2,3:2:0:0:
184,204,24943,2,0,P|196:208|232:216,1,48.4499987062455,10|0,2:0|3:2,0:0:0:0:
276,244,25377,2,0,P|288:280|297:317,1,76.5,12|12,2:0|2:0,2:0:0:0:
368,352,26029,2,0,P|404:339|441:330,1,76.5,12|12,2:0|2:0,2:0:0:0:
492,268,26682,1,12,2:0:0:0:
492,268,26899,1,8,2:0:0:0:
492,268,27116,5,6,3:2:0:0:
416,204,27551,1,8,2:0:0:0:
320,224,27986,2,0,P|308:284|296:324,1,96.8999974124909,2|10,3:2|2:0,0:0:0:0:
216,372,28856,1,2,3:2:0:0:
124,340,29290,1,10,2:0:0:0:
144,248,29725,2,0,P|132:188|120:148,1,96.8999974124909,2|10,3:2|2:0,0:0:0:0:
172,72,30595,6,0,B|210:82|228:113|228:113|256:90|296:93,1,145.349996118736,2|2,3:2|3:2,2:0:0:0:
332,60,31464,2,0,P|380:56|428:44,1,96.8999974124909,2|10,3:2|2:0,0:0:0:0:
512,104,32334,1,12,2:0:0:0:
512,104,32551,2,0,P|504:132|496:176,1,72.6749980593682,12|12,3:2|2:0,2:0:0:0:
440,228,33203,1,4,3:2:0:0:
297,93,34073,6,0,P|290:57|281:22,2,72.6749980593682,4|0|0,3:2|3:2|3:2,2:0:0:0:
276,136,34943,1,8,2:0:0:0:
88,184,35812,2,0,P|52:174|17:168,2,72.6749980593682,4|0|0,3:2|3:2|3:2,2:0:0:0:
124,216,36682,1,8,2:0:0:0:
272,92,37551,6,0,P|307:82|342:76,2,72.6749980593682,4|0|0,3:2|3:2|3:2,2:0:0:0:
232,64,38421,1,8,2:0:0:0:
136,260,39399,2,0,B|172:272|208:276|208:276|220:300|236:316,1,121.124996765614,4|4,3:2|3:2,2:0:0:0:
276,340,40160,1,4,3:2:0:0:
276,340,40377,2,0,P|304:332|348:324,1,72.6749980593682,6|6,3:2|3:2,0:0:0:0:
412,280,41029,6,0,P|460:280|492:240,1,102,6|8,3:2|2:0,2:0:0:0:
460,144,41899,1,2,3:2:0:0:
484,44,42334,1,8,2:0:0:0:
384,24,42769,2,0,P|336:32|284:40,1,102,2|10,3:2|2:0,0:2:0:0:
200,100,43638,1,2,3:2:0:0:
244,192,44073,1,8,2:0:0:0:
340,156,44508,6,0,B|404:132|420:196|472:216,1,153,6|2,3:2|3:2,2:0:0:0:
508,252,45377,1,0,3:2:0:0:
464,344,45812,1,2,3:2:0:0:
372,304,46247,2,0,P|304:284|224:268,1,153,2|2,3:2|3:2,2:0:0:0:
180,240,47116,1,2,3:2:0:0:
112,316,47551,2,0,P|86:311|62:304,1,51,8|8,2:0|2:0,0:0:0:0:
24,272,47986,1,4,3:2:0:0:
68,180,48421,1,4,3:2:0:0:
56,80,48856,1,8,2:0:0:0:
144,24,49290,1,8,2:0:0:0:
224,84,49725,6,0,P|274:74|324:67,1,102,4|8,3:2|2:0,2:0:0:0:
364,36,50377,1,2,2:0:0:0:
364,36,50595,2,0,P|412:48|432:92,1,102,2|8,3:2|2:0,2:0:0:0:
468,136,51247,1,2,2:0:0:0:
468,136,51464,2,0,P|460:164|456:196,1,51,2|2,3:2|2:0,2:0:0:0:
428,228,51899,1,10,2:0:0:0:
328,212,52334,2,0,P|323:186|316:162,1,51,2|2,3:2|2:0,0:0:0:0:
280,128,52769,1,8,2:0:0:0:
184,164,53203,6,0,B|108:152,1,76.5,2|2,3:2|2:0,2:0:0:0:
48,200,53856,1,2,2:0:0:0:
48,200,54073,2,0,B|40:249,1,51,2|2,3:2|2:0,0:0:0:0:
60,296,54508,1,10,2:0:0:0:
156,264,54943,5,4,3:2:0:0:
236,324,55377,1,10,2:0:0:0:
284,340,55595,1,2,2:0:0:0:
324,308,55812,2,0,P|352:288|392:288,1,76.5,8|2,2:0|3:2,2:0:0:0:
444,296,56356,1,2,3:2:0:0:
500,240,56682,6,0,P|488:192|480:140,1,102,4|8,3:2|2:0,2:0:0:0:
444,104,57334,1,2,2:0:0:0:
444,104,57551,2,0,B|414:94|402:77|402:77|384:89|353:88,1,102,2|8,3:2|2:0,0:0:0:0:
308,76,58203,1,2,2:0:0:0:
308,76,58421,2,0,P|283:82|257:86,1,51,4|2,3:2|2:0,2:0:0:0:
220,120,58856,1,10,2:0:0:0:
156,200,59290,1,0,3:2:0:0:
56,180,59725,1,8,2:0:0:0:
20,84,60160,6,0,P|32:36|36:8,2,76.5,4|2|2,3:2|2:0|2:0,2:0:0:0:
40,132,61029,2,0,P|32:163|29:182,1,51,0|2,3:2|2:0,0:0:0:0:
0,216,61464,1,8,2:0:0:0:
64,296,61899,5,4,3:2:0:0:
164,272,62334,1,10,2:0:0:0:
200,236,62551,1,2,2:0:0:0:
196,184,62769,2,0,P|202:146|211:109,1,76.5,8|0,2:0|3:2,2:0:0:0:
248,76,63312,1,4,3:2:0:0:
320,108,63638,6,0,P|355:94|392:83,2,76.5,4|2|2,3:2|2:0|2:0,2:0:0:0:
288,148,64508,1,8,2:0:0:0:
212,80,64943,2,0,P|188:70|164:63,1,51,2|2,3:2|3:2,2:0:0:0:
116,80,65377,1,8,2:0:0:0:
72,172,65812,1,4,3:2:0:0:
108,268,66247,6,0,B|184:236|200:316|260:336,1,178.5,12|2,2:0|2:0,0:0:0:0:
492,176,70486,6,0,P|429:190|369:210,1,127.5,4|0,3:2|3:2,2:0:0:0:
292,276,71464,1,8,2:0:0:0:
200,232,71899,2,0,B|168:212|168:212|132:224,1,76.5,0|0,3:2|3:2,0:0:0:0:
84,240,72443,2,0,P|48:228|8:220,2,76.5,4|4|4,3:2|3:2|3:2,2:0:0:0:
136,308,73421,1,4,3:2:0:0:
136,308,73638,1,12,2:0:0:0:
236,284,74073,6,0,P|243:246|255:210,2,76.5,0|0|8,3:2|3:2|2:0,2:0:0:0:
376,344,75377,1,2,2:0:0:0:
433,260,75812,2,0,P|425:222|413:186,2,76.5,10|10|8,3:2|3:2|3:2,2:0:0:0:
376,344,76899,1,8,3:0:0:0:
376,344,77116,1,0,3:2:0:0:
284,304,77551,6,0,P|246:311|210:323,2,76.5,8|4|4,2:0|3:2|3:2,2:0:0:0:
320,268,78421,1,8,3:2:0:0:
264,180,78856,2,0,P|271:156|276:131,1,51,8|2,2:0|2:0,0:0:0:0:
320,104,79290,2,0,P|344:80|384:80,1,76.5,4|4,3:2|3:2,2:0:0:0:
456,116,79943,2,0,P|464:160|472:192,2,76.5,4|4|4,3:2|3:2|3:2,2:0:0:0:
384,80,80921,2,0,P|377:42|368:5,2,76.5,4|4|4,3:2|3:2|3:2,2:0:0:0:
340,148,81899,1,4,3:2:0:0:
456,116,83638,5,4,3:2:0:0:
380,56,84072,1,8,2:0:0:0:
304,116,84507,2,0,P|315:162|324:210,1,96.8999974124909,2|10,3:2|2:0,0:0:0:0:
356,244,85159,1,2,2:0:0:0:
356,244,85377,1,2,3:2:0:0:
320,336,85811,1,8,2:0:0:0:
220,324,86246,2,0,P|180:312|124:300,1,96.8999974124909,2|10,3:2|2:0,0:0:0:0:
48,244,87116,6,0,P|35:198|63:161,1,96.8999974124909,2|8,3:2|2:0,2:0:0:0:
104,136,87768,1,2,3:2:0:0:
104,136,87985,1,2,3:2:0:0:
196,180,88420,1,10,2:0:0:0:
288,144,88855,1,12,2:0:0:0:
288,144,89072,2,0,P|294:108|303:73,1,72.6749980593682,12|12,2:0|2:0,2:0:0:0:
376,40,89724,2,0,P|411:30|445:18,2,72.6749980593682,4|4|4,3:2|3:2|3:2,2:0:0:0:
303,73,90703,2,0,P|277:47|249:23,2,72.6749980593682,4|4|4,3:2|3:2|3:2,2:0:0:0:
369,120,93203,6,0,B|328:102|297:131|307:139|276:167|237:151,1,145.349996118736,4|2,3:2|2:0,2:0:0:0:
204,116,94072,2,0,P|157:118|129:156,1,96.8999974124909,2|0,3:2|3:2,2:0:0:0:
68,232,94942,2,0,P|79:279|87:326,1,96.8999974124909,2|0,3:2|3:0,2:0:0:0:
168,380,95811,1,2,3:2:0:0:
232,308,96246,1,2,3:2:0:0:
328,320,96681,6,0,P|375:328|422:339,1,96.8999974124909,2|0,3:2|3:0,2:0:0:0:
504,288,97550,2,0,P|515:240|488:204,1,96.8999974124909,2|10,3:2|2:0,2:0:0:0:
380,148,98529,2,0,B|302:167|302:167|298:187|282:203,1,121.124996765614,12|4,2:0|3:2,2:0:0:0:
248,236,99289,1,4,3:2:0:0:
248,236,99507,2,0,P|212:224|176:216,1,72.6749980593682,6|6,3:2|3:2,0:0:0:0:
120,164,100159,5,4,3:2:0:0:
208,48,100811,1,2,2:0:0:0:
208,48,101029,2,0,P|254:63|300:73,1,96.8999974124909,0|8,3:2|3:0,0:0:0:0:
392,36,101898,2,0,P|436:28|476:56,1,96.8999974124909,8|0,3:2|3:2,2:0:0:0:
492,152,102768,2,0,P|511:192|494:238,1,96.8999974124909,8|8,2:0|2:0,0:0:0:0:
400,268,103637,5,8,3:2:0:0:
324,208,104072,1,8,2:0:0:0:
228,192,104507,2,0,P|181:207|135:217,1,96.8999974124909,8|8,2:0|2:0,0:0:0:0:
40,240,105376,2,0,P|30:287|15:333,2,96.8999974124909,12|8|8,2:0|2:0|2:0,2:0:0:0:
104,168,106681,1,12,2:0:0:0:
192,208,107116,2,0,P|240:216|280:192,1,96.8999974124909,12|12,2:0|2:0,2:0:0:0:
344,120,107985,1,12,2:0:0:0:
432,160,108420,2,0,P|424:188|420:208,1,48.4499987062455,8|8,2:0|2:0,0:0:0:0:
388,248,108855,6,0,P|377:297|361:345,1,102,4|8,3:2|2:0,2:0:0:0:
316,368,109507,1,2,2:0:0:0:
316,368,109724,2,0,P|272:364|248:316,1,102,2|8,3:2|2:0,2:0:0:0:
224,280,110376,1,2,2:0:0:0:
224,280,110594,2,0,P|232:255|237:230,1,51,2|2,3:2|2:0,2:0:0:0:
228,180,111029,1,10,2:0:0:0:
324,144,111463,2,0,P|315:119|310:94,1,51,2|2,3:2|2:0,0:0:0:0:
280,56,111898,1,8,2:0:0:0:
184,92,112333,6,0,L|108:72,1,76.5,2|2,3:2|2:0,2:0:0:0:
48,116,112985,1,2,2:0:0:0:
48,116,113203,2,0,L|35:164,1,51,2|2,3:2|2:0,0:0:0:0:
60,208,113637,1,10,2:0:0:0:
8,296,114072,5,4,3:2:0:0:
93,351,114507,1,10,2:0:0:0:
132,320,114724,1,2,2:0:0:0:
180,332,114942,2,0,L|256:312,1,76.5,8|2,2:0|3:2,2:0:0:0:
292,276,115485,1,2,3:2:0:0:
356,320,115811,6,0,B|408:328|388:360|440:372,1,102,4|8,3:2|2:0,2:0:0:0:
492,356,116463,1,2,2:0:0:0:
492,356,116681,2,0,P|500:304|512:256,1,102,2|10,3:2|2:0,0:0:0:0:
492,216,117333,1,2,2:0:0:0:
492,216,117550,2,0,P|488:190|482:166,1,51,4|2,3:2|2:0,2:0:0:0:
496,116,117985,1,10,2:0:0:0:
424,40,118420,1,0,3:2:0:0:
328,80,118855,1,8,2:0:0:0:
232,44,119289,6,0,P|196:56|156:64,2,76.5,4|2|2,3:2|2:0|2:0,2:0:0:0:
280,64,120159,2,0,P|284:89|292:113,1,51,0|2,3:2|2:0,0:0:0:0:
280,164,120594,1,8,2:0:0:0:
364,220,121029,5,4,3:2:0:0:
464,212,121463,1,10,2:0:0:0:
500,248,121681,1,2,2:0:0:0:
488,296,121898,2,0,P|456:308|416:328,1,76.5,8|0,2:0|3:2,2:0:0:0:
388,368,122442,1,4,3:2:0:0:
320,332,122768,6,0,P|292:316|232:340,1,102,4|8,3:2|2:0,2:0:0:0:
132,356,123637,2,0,P|136:330|140:305,1,51,8|0,2:0|3:2,0:0:0:0:
168,264,124072,1,2,3:2:0:0:
268,240,124507,6,0,P|278:164|291:88,1,153,4|0,3:2|3:2,2:0:0:0:
264,48,125376,2,0,P|224:20|176:32,1,102,8|4,2:0|2:3,2:0:0:0:
100,100,126246,2,0,P|72:124|34:125,2,76.5,4|0|0,3:2|3:2|3:2,2:0:0:0:
128,56,127116,1,8,2:0:0:0:
204,124,127550,1,4,2:3:0:0:
300,92,127985,6,0,P|312:48|324:20,2,76.5,4|0|0,3:2|3:2|3:2,2:0:0:0:
332,132,128855,2,0,B|362:135|380:160|371:159|389:183|420:187,1,102,8|8,2:0|2:0,2:0:0:0:
512,152,129724,1,4,3:2:0:0:
476,56,130159,1,0,3:2:0:0:
376,84,130594,2,0,P|324:96|276:104,1,102,8|8,2:0|2:0,0:0:0:0:
244,144,131246,1,8,2:0:0:0:
244,144,131463,6,0,P|200:168|196:216,1,102,4|10,3:2|2:0,2:0:0:0:
224,312,132333,2,0,P|210:347|199:384,2,76.5,2|2|0,3:2|2:0|2:0,0:0:0:0:
268,288,133203,2,0,P|312:264|316:216,1,102,0|10,3:2|2:0,2:0:0:0:
244,144,134072,2,0,P|195:129|147:111,1,102,2|10,3:2|2:0,0:0:0:0:
104,136,134724,1,0,3:2:0:0:
103,136,134942,2,0,P|88:184|70:232,1,102,4|0,3:2|3:2,2:0:0:0:
120,320,135811,1,0,3:2:0:0:
220,300,136246,1,0,3:2:0:0:
312,344,136681,6,0,P|368:332|412:324,1,102,4|4,3:2|3:2,0:0:0:0:
452,228,137550,2,0,P|400:220|352:208,1,102,4|4,3:2|3:2,2:0:0:0:
276,140,138420,1,4,3:2:0:0:
224,52,138855,1,4,3:2:0:0:
124,28,139289,2,0,B|108:48|84:60|84:60|104:104|108:160,1,153,4|8,3:2|2:0,2:0:0:0:
152,188,140159,6,0,B|182:191|200:216|191:215|209:239|240:243,1,106.079999352539,4|2,3:2|3:2,2:0:0:0:
344,224,141028,2,0,P|348:246|352:276,1,53.0399996762695,2|10,3:2|2:0,0:0:0:0:
396,308,141463,1,2,3:2:0:0:
500,276,141898,2,0,P|492:232|484:172,1,106.079999352539,6|0,3:2|3:2,2:0:0:0:
440,104,142659,2,0,P|420:72|380:64,1,79.5599995144043,2|10,3:2|2:0,2:0:0:0:
332,88,143202,1,0,3:2:0:0:
232,52,143637,6,0,P|225:104|215:156,1,106.079999352539,4|2,3:2|3:2,2:0:0:0:
256,256,144506,2,0,P|259:282|264:308,2,53.0399996762695,2|8|2,2:0|2:0|3:2,0:0:0:0:
324,176,145376,1,12,2:0:0:0:
416,228,145811,1,12,2:0:0:0:
348,308,146245,1,12,2:0:0:0:
256,256,146680,2,0,P|231:246|206:236,1,53.0399996762695,12|8,2:0|2:0,0:0:0:0:
156,248,147115,6,0,B|128:264|116:284|116:284|96:273|67:271,1,106.079999352539,4|0,3:2|3:2,2:0:0:0:
8,184,147985,2,0,P|4:156|28:112,2,79.5599995144043,2|2|10,3:2|2:0|3:2,0:0:0:0:
48,220,148854,1,2,3:2:0:0:
124,148,149289,1,0,3:2:0:0:
216,200,149724,2,0,P|264:208|296:216,1,79.5599995144043,8|8,2:0|2:0,0:0:0:0:
336,248,150267,1,2,3:2:0:0:
336,248,150485,6,0,P|361:254|387:258,1,53.0399996762695,4|4,3:2|3:2,2:0:0:0:
464,228,151028,2,0,P|492:200|496:160,2,79.5599995144043,4|4|4,3:2|3:2|3:2,2:0:0:0:
388,258,152006,1,4,3:2:0:0:
320,212,152332,2,0,P|281:201|245:218,2,79.5599995144043,8|8|8,2:0|2:0|2:0,0:0:0:0:
388,258,153311,1,8,2:0:0:0:
464,228,153637,6,0,P|456:202|452:176,1,53.0399996762695,8|0,2:0|3:2,2:0:0:0:
424,136,154072,1,2,3:2:0:0:
424,136,154289,2,0,P|388:128|348:116,1,79.5599995144043,0|2,3:2|3:2,0:0:0:0:
284,164,154941,1,8,2:0:0:0:
284,164,155158,2,0,P|245:172|207:184,1,79.5599995144043,0|0,3:2|3:2,0:0:0:0:
88,136,156028,5,12,3:2:0:0:
64,88,156245,1,8,2:0:0:0:
88,40,156463,1,8,2:0:0:0:
136,20,156680,1,8,2:0:0:0:
220,84,157115,2,0,B|246:78|261:53|261:53|285:39|311:50,1,106.079999352539,2|4,2:0|3:2,2:0:0:0:
413,56,164506,6,0,P|402:104|394:156,1,102,4|4,3:2|2:3,2:0:0:0:
444,244,165376,2,0,P|484:248|512:228,2,76.5,4|8|8,2:3|2:3|2:3,2:0:0:0:
396,264,166245,1,4,3:2:0:0:
348,172,166680,1,4,2:3:0:0:
252,204,167115,2,0,P|260:252|264:308,1,102,4|4,3:2|2:3,2:0:0:0:
228,344,167767,1,8,2:3:0:0:
228,344,167984,6,0,B|198:340|181:317|190:318|173:294|144:292,1,102,4|0,3:2|3:2,0:0:0:0:
44,308,168854,1,0,3:2:0:0:
0,216,169289,1,0,3:2:0:0:
56,132,169723,2,0,P|136:120|208:104,1,153,0|8,3:2|2:0,2:0:0:0:
244,68,170593,2,0,B|308:48|316:108|376:128,1,153,0|0,3:2|3:2,0:0:0:0:
436,184,171571,2,0,P|473:175|511:170,2,76.5,12|12|12,2:0|2:0|2:0,2:0:0:0:
376,236,172550,1,0,3:2:0:0:
376,236,172767,2,0,P|348:228|324:224,1,51,8|2,2:0|2:0,2:0:0:0:
279,200,173202,6,0,B|237:230|237:230|185:211,1,106.079999352539,6|0,3:2|3:0,2:0:0:0:
144,192,173854,1,10,2:0:0:0:
144,192,174071,2,0,P|136:140|124:88,1,106.079999352539,2|0,3:2|3:0,0:0:0:0:
152,44,174723,1,10,2:0:0:0:
152,44,174941,2,0,P|178:40|204:34,1,53.0399996762695,2|10,3:2|2:0,2:0:0:0:
248,60,175375,1,2,3:2:0:0:
352,76,175810,2,0,P|356:102|362:128,1,53.0399996762695,2|10,2:0|2:0,0:0:0:0:
336,172,176244,1,2,3:2:0:0:
312,276,176680,6,0,L|388:296,1,79.5599995144043,2|0,3:2|0:0,2:0:0:0:
456,252,177332,1,10,2:0:0:0:
456,252,177549,2,0,L|469:201,1,53.0399996762695,2|10,3:2|2:0,0:0:0:0:
448,152,177984,1,2,2:0:0:0:
348,192,178419,5,4,3:2:0:0:
296,100,178854,1,2,3:2:0:0:
248,80,179071,1,10,2:0:0:0:
208,112,179288,2,0,L|131:132,1,79.5599995144043,8|2,2:0|3:2,2:0:0:0:
80,120,179832,1,2,3:2:0:0:
24,176,180158,6,0,P|12:228|12:280,1,106.079999352539,6|0,3:2|3:0,2:0:0:0:
48,324,180810,1,10,2:0:0:0:
48,324,181028,2,0,B|104:328|84:364|140:368,1,106.079999352539,2|0,3:2|3:0,0:0:0:0:
192,348,181680,1,10,2:0:0:0:
192,348,181897,2,0,P|224:344|244:340,1,53.0399996762695,2|10,3:2|2:0,2:0:0:0:
296,348,182332,1,2,3:2:0:0:
396,308,182767,5,10,2:0:0:0:
420,260,182984,1,8,2:0:0:0:
403,209,183202,1,10,2:0:0:0:
355,185,183419,1,8,2:0:0:0:
304,202,183636,6,0,L|227:181,1,79.5599995144043,4|2,3:2|3:2,2:0:0:0:
180,124,184288,1,10,2:0:0:0:
180,124,184505,2,0,L|193:73,1,53.0399996762695,2|10,3:2|2:0,2:0:0:0:
240,44,184941,1,2,3:2:0:0:
324,112,185375,5,4,3:2:0:0:
424,76,185810,1,2,3:2:0:0:
452,120,186028,1,10,2:0:0:0:
444,172,186245,2,0,B|408:188|420:204|384:224,1,79.5599995144043,8|0,2:0|3:2,2:0:0:0:
332,216,186788,1,4,3:2:0:0:
288,284,187115,6,0,P|296:322|301:362,2,79.5599995144043,4|0|8,3:2|3:2|2:0,2:0:0:0:
240,260,187984,2,0,P|212:268|188:272,1,53.0399996762695,0|8,3:0|0:0,0:0:0:0:
148,308,188419,1,0,3:0:0:0:
45,344,188854,5,12,2:0:0:0:
4,244,189288,1,12,2:0:0:0:
46,145,189723,1,8,2:0:0:0:
146,105,190158,1,8,2:0:0:0:
245,148,190593,6,0,P|264:120|272:76,2,79.5599995144043,6|2|2,3:2|3:2|3:2,2:0:0:0:
208,184,191462,2,0,L|156:196,1,53.0399996762695,10|2,2:0|3:2,2:0:0:0:
128,240,191897,2,0,L|140:292,1,53.0399996762695,10|2,2:0|3:2,2:0:0:0:
180,324,192332,1,6,3:2:0:0:
272,272,192767,1,4,3:2:0:0:
320,368,193202,1,12,3:2:0:0:
396,296,193636,6,0,P|404:268|408:244,1,53.0399996762695,8|8,2:0|2:0,2:0:0:0:
444,204,194071,2,0,P|452:164|464:124,2,79.5599995144043,2|2|10,2:0|3:2|2:0,2:0:0:0:
352,256,195158,1,10,2:0:0:0:
352,256,195375,1,2,3:2:0:0:
244,260,195810,2,0,P|255:298|263:337,2,79.5599995144043,2|2|10,3:2|3:2|2:0,2:0:0:0:
272,216,196680,2,0,P|260:177|252:138,2,79.5599995144043,2|2|10,3:2|3:2|2:0,0:0:0:0:
244,260,197549,5,2,3:2:0:0:
148,220,197984,1,0,3:0:0:0:
52,268,198419,2,0,P|28:260|0:252,2,53.0399996762695,0|10|2,3:0|2:0|3:2,0:0:0:0:
148,220,199288,2,0,P|180:208|228:196,2,79.5599995144043,2|2|10,3:2|3:2|2:0,2:0:0:0:
104,192,200158,2,0,B|92:176|76:164|76:164|72:116|104:76,1,132.599999190674,8|2,2:0|3:2,2:0:0:0:
176,40,201028,5,6,3:2:0:0:
264,100,201462,1,2,3:2:0:0:
368,72,201897,2,0,B|408:64|408:64|444:84,1,79.5599995144043,2|2,2:0|2:0,2:0:0:0:
504,144,202549,1,10,2:0:0:0:
504,144,202767,2,0,P|492:184|484:220,2,79.5599995144043,2|2|10,3:2|3:2|2:0,2:0:0:0:
472,104,203636,2,0,P|484:64|492:28,2,79.5599995144043,10|8|8,2:0|0:0|2:0,2:0:0:0:
420,124,204506,6,0,P|392:128|372:148,1,56.1000017120362,8|8,2:0|3:2,2:0:0:0:
320,160,204941,2,0,P|309:186|316:213,1,56.1000017120362,8|8,2:0|2:0,0:0:0:0:
301,264,205375,1,8,2:0:0:0:
240,360,205810,2,0,P|215:350|187:342,1,56.1000017120362,8|10,2:0|2:0,2:0:0:0:
131,348,206245,6,0,P|123:300|71:272,1,112.200003424072,10|8,2:0|2:0,2:0:0:0:
20,248,206897,1,10,2:0:0:0:
1,195,207115,2,0,P|11:170|19:142,1,56.1000017120362,10|10,2:0|2:0,2:0:0:0:
65,110,207549,1,10,2:0:0:0:
168,16,208093,6,0,P|204:24|252:32,1,84.1500025680543,12|12,2:0|2:0,2:0:0:0:
328,4,208745,1,12,2:0:0:0:
372,80,209071,1,12,2:0:0:0:
372,80,209288,2,0,P|381:105|390:132,1,56.1000017120362,0|0,3:2|3:2,2:0:0:0:
452,188,209832,2,0,P|432:220|436:264,1,84.1500025680543,12|12,2:0|2:0,2:0:0:0:
376,324,210484,1,12,2:0:0:0:
300,304,210810,1,12,3:2:0:0:
300,304,211028,2,0,P|285:276|252:261,1,56.1000017120362,0|0,3:2|3:2,2:0:0:0:
184,240,211571,5,14,2:0:0:0:
124,300,211897,1,14,2:0:0:0:
48,264,212223,1,12,2:0:0:0:
68,184,212549,2,0,P|63:156|54:129,1,56.1000017120362,12|0,2:0|3:2,2:0:0:0:
76,80,212984,1,0,3:2:0:0:
76,80,213202,2,0,P|103:75|130:66,1,56.1000017120362,12|8,2:0|2:0,2:0:0:0:
180,92,213636,2,0,P|216:80|252:72,1,74.8000022827149,8|8,2:0|0:0,0:0:0:0:
392,124,214506,5,12,2:0:0:0:
256,192,214723,12,0,221462,3:2:0:0:
