osu file format v14

[General]
AudioFilename: audio.mp3
AudioLeadIn: 0
PreviewTime:172333
Countdown: 0
SampleSet: Soft
StackLeniency: 0.5
Mode: 0
LetterboxInBreaks: 0
WidescreenStoryboard: 1

[Editor]
Bookmarks: 1030,20160,25377,27116,32334,34073,41029,47986,49725,56682,65377,67116,72443,74073,79290,81899,83638,88855,91464,93203,98420,100159,107116,108855,115811,122768,124507,129724,131463,136681,139289,140159,145376,147116,150594,151029,151463,151898,152333,154072,155811,157550,164507,167985,169724,171463,173202,180159,187116,194072,201029,204507,207985,214507,221463
DistanceSpacing: 1
BeatDivisor: 8
GridSize: 32
TimelineZoom: 2.6

[Metadata]
Title:Jinsei Easy?
TitleUnicode:人生イージー?
Artist:DIALOGUE+
ArtistUnicode:DIALOGUE+
Creator:Amateurre
Version:LV.20 Finshie's Insane
Source:弱キャラ友崎くん
Tags:anime japanese pop j-pop jpop opening jaku chara tomozaki kun bottom tier character tomozaki-kun iljaaz keqing finshie kuse KuBsNia_ZhoYL_ winnie yogurtt lecandy asagi tsukinyuni matha petal
BeatmapID:3118794
BeatmapSetID:1507979

[Difficulty]
HPDrainRate:6
CircleSize:3.5
OverallDifficulty:8
ApproachRate:9.2
SliderMultiplier:2
SliderTickRate:1

[Events]
//Background and Video events
0,0,"DoqxyrCVAAAO5X.jpg",0,0
//Break Periods
2,157550,163937
//Storyboard Layer 0 (Background)
//Storyboard Layer 1 (Fail)
//Storyboard Layer 2 (Pass)
//Storyboard Layer 3 (Foreground)
//Storyboard Layer 4 (Overlay)
//Storyboard Sound Samples

[TimingPoints]
1030,434.782608695652,4,2,1,60,1,0
1030,-166.666666666667,4,2,1,60,0,0
2769,-125,4,2,1,60,0,0
4508,-100,4,2,1,60,0,0
6247,-83.3333333333333,4,2,1,70,0,0
7986,-100,4,2,1,70,0,0
13203,-83.3333333333333,4,2,1,75,0,0
20160,-100,4,2,1,60,0,0
25377,-83.3333333333333,4,2,1,60,0,0
27116,-100,4,2,1,70,0,0
32334,-83.3333333333333,4,2,1,70,0,0
32877,-166.666666666667,4,2,1,70,0,0
34073,-125,4,2,1,70,0,0
41029,-100,4,2,1,70,0,0
45595,-83.3333333333333,4,2,1,70,0,0
45812,-71.4285714285714,4,2,1,70,0,0
46029,-62.5,4,2,1,70,0,0
46247,-100,4,2,1,70,0,0
48095,-83.3333333333333,4,2,1,70,0,0
48529,-76.9230769230769,4,2,1,70,0,0
48964,-71.4285714285714,4,2,1,70,0,0
49725,-66.6666666666667,4,2,1,80,0,1
55812,-57.1428571428571,4,2,1,80,0,1
56682,-66.6666666666667,4,2,1,80,0,1
62769,-57.1428571428571,4,2,1,80,0,1
63638,-66.6666666666667,4,2,1,80,0,1
65269,-66.6666666666667,4,2,1,80,0,0
65377,-66.6666666666667,4,2,1,80,0,1
65486,-66.6666666666667,4,2,1,80,0,0
65812,-66.6666666666667,4,2,1,80,0,1
65921,-66.6666666666667,4,2,1,80,0,0
66247,-66.6666666666667,4,2,1,80,0,1
66356,-66.6666666666667,4,2,1,80,0,0
67008,-100,4,2,1,65,0,0
72443,-83.3333333333333,4,2,1,70,0,0
74073,-100,4,2,1,70,0,0
79290,-83.3333333333333,4,2,1,70,0,0
83638,434.782608695652,4,2,1,70,1,0
83638,-100,4,2,1,70,0,0
88855,-83.3333333333333,4,2,1,70,0,0
89398,-166.666666666667,4,2,1,70,0,0
89724,-83.3333333333333,4,2,1,70,0,0
91464,-100,4,2,1,70,0,0
93203,434.782608695652,4,2,1,70,1,0
93203,-100,4,2,1,70,0,0
100159,-90.9090909090909,4,2,1,70,0,0
107116,-83.3333333333333,4,2,1,70,0,0
108855,-66.6666666666667,4,2,1,80,0,1
115050,-57.1428571428571,4,2,1,80,0,1
115811,-66.6666666666667,4,2,1,80,0,1
122007,-57.1428571428571,4,2,1,80,0,1
122768,-66.6666666666667,4,2,1,80,0,1
124507,-125,4,2,1,65,0,0
129724,-100,4,2,1,65,0,0
130159,-90.9090909090909,4,2,1,65,0,0
130594,-83.3333333333333,4,2,1,65,0,0
131029,-76.9230769230769,4,2,1,65,0,0
131463,-66.6666666666667,4,2,1,70,0,1
134942,-90.9090909090909,4,2,1,70,0,0
135376,-83.3333333333333,4,2,1,70,0,0
135811,-76.9230769230769,4,2,1,70,0,0
136246,-71.4285714285714,4,2,1,70,0,0
136681,-66.6666666666667,4,2,1,70,0,1
136789,-66.6666666666667,4,2,1,70,0,0
137116,-66.6666666666667,4,2,1,70,0,1
137224,-66.6666666666667,4,2,1,70,0,0
137442,-66.6666666666667,4,2,1,70,0,0
137550,-66.6666666666667,4,2,1,70,0,1
137659,-66.6666666666667,4,2,1,70,0,0
137876,-66.6666666666667,4,2,1,70,0,0
137985,-66.6666666666667,4,2,1,70,0,1
138094,-66.6666666666667,4,2,1,70,0,0
138311,-66.6666666666667,4,2,1,70,0,0
138420,-66.6666666666667,4,2,1,70,0,1
138529,-66.6666666666667,4,2,1,70,0,0
138746,-66.6666666666667,4,2,1,70,0,0
138855,-66.6666666666667,4,2,1,70,0,1
138963,-66.6666666666667,4,2,1,70,0,0
139181,-66.6666666666667,4,2,1,70,0,0
139289,-66.6666666666667,4,2,1,70,0,0
140159,217.391304347826,4,2,1,75,1,1
140159,-133.333333333333,4,2,1,75,0,1
141898,-114.285714285714,4,2,1,75,0,1
142333,-133.333333333333,4,2,1,75,0,1
142659,-114.285714285714,4,2,1,75,0,1
142985,-133.333333333333,4,2,1,75,0,1
145376,-133.333333333333,4,2,1,75,0,0
145485,-133.333333333333,4,2,1,75,0,0
145811,-133.333333333333,4,2,1,75,0,1
145919,-133.333333333333,4,2,1,75,0,0
146245,-133.333333333333,4,2,1,75,0,1
146354,-133.333333333333,4,2,1,75,0,0
147115,-133.333333333333,4,2,1,75,0,1
149833,-114.285714285714,4,2,1,75,0,1
149996,-114.285714285714,4,2,1,75,0,1
150050,-114.285714285714,4,2,1,75,0,1
150213,-114.285714285714,4,2,1,75,0,1
150268,-114.285714285714,4,2,1,75,0,1
150431,-114.285714285714,4,2,1,75,0,1
150485,-133.333333333333,4,2,1,75,0,1
155811,-133.333333333333,4,2,1,75,0,0
156028,-133.333333333333,4,2,1,75,0,1
156680,-133.333333333333,4,2,1,75,0,0
157550,434.782608695652,4,2,1,60,1,0
157550,-125,4,2,1,60,0,0
164507,-100,4,2,1,70,0,0
171463,-83.3333333333333,4,2,1,70,0,0
173202,217.391304347826,4,2,1,80,1,1
173202,-133.333333333333,4,2,1,80,0,1
179289,-114.285714285714,4,2,1,80,0,1
180159,-133.333333333333,4,2,1,80,0,1
186246,-114.285714285714,4,2,1,80,0,1
187116,-133.333333333333,4,2,1,80,0,1
188854,-266.666666666667,4,2,1,80,0,0
190593,-200,4,2,1,80,0,1
191897,-133.333333333333,4,2,1,80,0,1
192223,-133.333333333333,4,2,1,80,0,0
192332,-133.333333333333,4,2,1,80,0,1
192441,-133.333333333333,4,2,1,80,0,0
192767,-133.333333333333,4,2,1,80,0,1
192875,-133.333333333333,4,2,1,80,0,0
193202,-133.333333333333,4,2,1,80,0,1
193310,-166.666666666667,4,2,1,80,0,0
194072,-133.333333333333,4,2,1,70,0,0
200159,-114.285714285714,4,2,1,70,0,0
201029,-133.333333333333,4,2,1,70,0,0

[Colours]
Combo1 : 255,166,166
Combo2 : 130,219,77
Combo3 : 255,108,108
Combo4 : 164,255,164

[HitObjects]
49,35,1030,6,0,L|54:87,1,29.9999990844727,2|0,0:0|0:0,0:0:0:0:
126,41,1247,2,0,L|129:71,1,29.9999990844727,2|0,0:0|0:0,0:0:0:0:
204,48,1464,2,0,L|206:77,1,29.9999990844727,2|0,0:0|0:0,0:0:0:0:
216,154,1682,1,2,0:0:0:0:
327,75,1899,2,0,L|396:67,1,59.9999981689454,2|2,0:0|0:0,0:0:0:0:
441,118,2225,1,8,0:3:0:0:
386,170,2334,6,0,L|356:166,2,19.9999993896485,8|8|8,0:0|0:3|3:0,0:0:0:0:
301,205,2551,6,0,L|271:201,2,19.9999993896485,8|0|0,3:0|3:2|3:2,0:0:0:0:
346,265,2769,6,0,L|340:305,1,40,10|0,0:0|0:0,0:0:0:0:
425,262,2986,2,0,L|418:301,1,40,2|0,0:0|0:0,0:0:0:0:
503,258,3203,2,0,L|496:297,1,40,2|0,0:0|0:0,0:0:0:0:
484,372,3421,1,2,0:0:0:0:
340,305,3638,2,0,L|238:321,1,80,2|0,0:0|3:2,0:0:0:0:
230,323,3964,1,8,0:3:0:0:
131,378,4073,5,8,0:0:0:0:
153,306,4182,1,8,0:0:0:0:
138,248,4290,1,8,3:0:0:0:
109,214,4399,1,8,3:0:0:0:
80,196,4508,6,0,P|47:181|23:178,1,50,6|0,3:2|0:0,0:0:0:0:
131,135,4725,2,0,P|164:120|214:116,1,75,2|0,3:2|0:0,0:0:0:0:
202,115,4943,2,0,L|190:161,2,25,10|8|8,0:0|0:0|0:0,0:0:0:0:
126,49,5160,2,0,P|116:22|117:-7,1,50,8|0,0:0|0:0,0:0:0:0:
252,13,5377,2,0,P|253:37|262:60,1,50,8|8,3:2|0:3,0:0:0:0:
337,176,5595,1,0,3:2:0:0:
337,176,5703,2,0,P|335:200|326:223,1,50,8|0,3:0|3:2,0:0:0:0:
190,235,5920,2,0,P|199:211|194:137,1,100,8|0,3:0|3:2,0:0:0:0:
180,250,6247,5,8,0:0:0:0:
107,285,6356,2,0,P|52:287|34:281,1,59.9999981689454,6|2,3:2|0:0,0:0:0:0:
144,353,6573,5,10,0:0:0:0:
217,318,6682,2,0,P|272:316|290:322,1,59.9999981689454,4|2,3:2|0:0,0:0:0:0:
386,354,6899,5,8,0:0:0:0:
365,324,7008,1,4,3:2:0:0:
348,279,7116,1,2,0:0:0:0:
346,218,7225,1,8,0:0:0:0:
365,148,7334,2,0,P|394:111|420:101,1,59.9999981689454,0|0,3:2|3:2,0:0:0:0:
290,21,7551,2,0,P|367:56|470:44,1,179.999994506836,12|0,0:0|0:0,0:0:0:0:
286,108,7986,5,6,3:2:0:0:
286,108,8856,1,4,3:2:0:0:
450,167,9725,6,0,L|436:270,1,100,4|2,3:2|0:2,0:2:0:0:
370,179,10160,2,0,L|357:279,1,100,2|2,0:2|0:0,0:0:0:0:
127,279,10595,6,0,L|141:179,1,100,4|2,3:2|3:2,0:0:0:0:
204,134,10921,1,2,3:2:0:0:
204,134,11029,2,0,L|218:32,1,100,2|0,3:2|0:0,0:0:0:0:
256,192,11464,5,14,0:0:0:0:
256,192,11790,1,14,0:0:0:0:
203,250,12116,6,0,P|182:283|154:296,1,50,14|0,3:2|0:0,0:0:0:0:
232,117,12334,2,0,P|213:82|216:51,1,50,14|0,3:2|0:0,0:0:0:0:
332,208,12551,2,0,P|372:210|397:228,1,50,2|8,0:0|0:3,0:0:0:0:
442,264,12769,1,8,0:0:0:0:
443,273,12877,1,8,0:0:0:0:
444,282,12986,1,8,0:0:0:0:
445,291,13095,1,8,0:0:0:0:
451,366,13203,6,0,L|472:234,1,119.999996337891,6|2,3:2|0:0,0:0:0:0:
365,134,13529,1,0,0:0:0:0:
365,134,13638,2,0,L|344:2,1,119.999996337891,8|2,0:0|0:0,0:0:0:0:
456,43,13964,2,0,L|438:112,1,59.9999981689454,2|0,0:0|3:2,0:0:0:0:
289,166,14182,1,8,0:0:0:0:
289,166,14290,2,0,L|271:235,1,59.9999981689454,2|2,0:0|0:0,0:0:0:0:
235,369,14508,2,0,P|204:304|136:290,1,119.999996337891,10|2,0:0|0:0,0:0:0:0:
84,322,14834,1,2,0:0:0:0:
84,322,14943,6,0,P|70:362|80:395,1,59.9999981689454,4|0,3:2|0:0,0:0:0:0:
0,217,15160,2,0,P|16:264|8:296,1,59.9999981689454,2|0,0:0|0:0,0:0:0:0:
99,58,15377,2,0,P|74:106|76:175,1,119.999996337891,8|2,0:0|0:0,0:0:0:0:
153,206,15703,2,0,P|198:187|213:172,1,59.9999981689454,2|0,0:0|3:2,0:0:0:0:
358,230,15921,1,8,0:0:0:0:
358,230,16029,2,0,P|334:212|306:204,1,59.9999981689454,2|0,0:0|0:0,0:0:0:0:
235,315,16247,6,0,L|224:374,1,59.9999981689454,10|0,0:0|0:2,0:0:0:0:
305,203,16464,2,0,L|292:274,1,59.9999981689454,2|0,0:0|0:2,0:0:0:0:
283,72,16682,2,0,L|272:131,1,59.9999981689454,4|0,3:2|0:0,0:2:0:0:
342,16,16899,5,2,0:2:0:0:
342,16,17008,2,0,P|377:50|411:57,1,59.9999981689454,2|8,0:0|0:0,0:0:0:0:
512,104,17225,2,0,P|466:121|442:144,1,59.9999981689454
305,203,17443,2,0,P|340:237|374:244,1,59.9999981689454,2|0,0:0|3:2,0:0:0:0:
475,291,17660,1,8,0:0:0:0:
475,291,17769,2,0,P|429:308|405:331,1,59.9999981689454,2|0,0:0|0:0,0:0:0:0:
335,389,17986,5,8,3:2:0:0:
339,339,18095,1,8,0:0:0:0:
344,289,18204,1,2,0:0:0:0:
349,240,18312,1,2,3:2:0:0:
248,82,18529,6,0,L|260:145,1,59.9999981689454,4|0,3:2|0:0,0:0:0:0:
192,175,18747,1,2,0:0:0:0:
124,140,18856,2,0,L|135:81,1,59.9999981689454,4|0,3:2|0:0,0:0:0:0:
68,47,19073,1,8,0:0:0:0:
0,81,19182,2,0,L|11:139,1,59.9999981689454,4|0,3:2|0:0,0:0:0:0:
67,193,19399,1,2,0:0:0:0:
123,247,19508,2,0,L|134:305,1,59.9999981689454,4|0,3:2|3:2,0:0:0:0:
259,140,19725,2,0,L|292:316,1,179.999994506836,12|0,0:0|0:0,0:0:0:0:
292,316,20160,6,0,P|336:271|392:264,1,100,6|0,3:2|0:2,0:2:0:0:
370,263,20486,1,2,0:2:0:0:
370,263,20595,1,0,3:2:0:0:
477,298,20812,1,2,0:2:0:0:
457,195,21029,2,0,L|440:84,1,100,2|0,3:2|0:2,0:2:0:0:
350,159,21464,2,0,L|333:48,1,100,2|0,3:2|0:0,0:2:0:0:
154,38,21899,6,0,P|220:51|250:93,1,100,2|0,3:2|0:2,0:0:0:0:
240,73,22225,1,2,0:2:0:0:
240,73,22334,1,0,3:0:0:0:
266,183,22551,1,2,0:2:0:0:
121,205,22769,2,0,P|140:152|188:150,1,100,2|2,3:2|0:2,0:2:0:0:
161,285,23203,2,0,B|73:326|86:239|-28:296,1,150,2|0,3:2|0:0,0:2:0:0:
16,279,23638,6,0,L|40:386,1,100,2|0,3:2|0:2,0:0:0:0:
38,377,23964,1,2,0:2:0:0:
38,377,24073,1,0,3:0:0:0:
183,383,24290,1,2,0:2:0:0:
161,285,24508,1,2,3:2:0:0:
139,187,24725,1,2,0:2:0:0:
291,200,24943,1,10,0:2:0:0:
291,200,25051,1,8,0:2:0:0:
291,200,25160,2,0,L|349:204,1,50,0|0,3:2|0:2,0:2:0:0:
475,181,25377,6,0,P|488:113|481:84,1,59.9999981689454,12|0,0:2|0:0,0:2:0:0:
416,239,25595,5,0,3:2:0:0:
357,297,25703,2,0,P|360:326|370:354,1,59.9999981689454,12|0,0:2|0:0,0:2:0:0:
411,245,25921,5,0,3:2:0:0:
352,303,26029,2,0,P|355:332|365:360,1,59.9999981689454,12|0,0:2|0:0,0:2:0:0:
406,251,26248,5,0,3:2:0:0:
347,309,26356,2,0,P|350:338|360:366,1,59.9999981689454,12|0,0:2|0:0,0:2:0:0:
234,351,26573,5,0,3:2:0:0:
269,283,26682,2,0,P|281:221|276:198,1,59.9999981689454,12|0,0:2|0:0,0:2:0:0:
185,383,26899,2,0,P|212:371|234:351,1,59.9999981689454,8|0,0:2|0:2,0:2:0:0:
20,338,27116,6,0,P|74:351|124:338,1,100,6|0,3:2|0:2,0:2:0:0:
163,277,27443,1,2,3:2:0:0:
163,277,27551,2,0,P|121:227|99:220,1,50,8|0,0:2|0:2,0:2:0:0:
112,159,27769,2,0,P|162:143|176:130,1,50,2|0,3:2|0:2,0:2:0:0:
247,4,27986,1,2,3:2:0:0:
247,4,28095,2,0,L|227:102,1,100,8|0,0:2|0:2,0:2:0:0:
41,110,28421,2,0,L|21:208,1,100,10|0,0:2|0:2,0:2:0:0:
135,236,28747,1,0,0:0:0:0:
135,236,28856,6,0,P|201:215|254:235,1,100,2|0,3:2|0:2,0:2:0:0:
265,350,29182,1,2,3:2:0:0:
265,350,29290,2,0,P|236:375|210:384,1,50,10|0,0:2|0:2,0:2:0:0:
156,345,29508,2,0,P|109:314|86:312,1,50,2|0,3:2|0:2,0:2:0:0:
293,277,29725,1,2,3:2:0:0:
293,277,29834,2,0,L|430:295,1,100,8|0,0:2|0:2,0:2:0:0:
364,129,30160,2,0,L|501:147,1,100,10|0,0:2|0:2,0:2:0:0:
307,66,30486,1,0,0:0:0:0:
307,66,30595,6,0,P|270:16|207:-6,1,100,2|0,3:2|0:2,0:2:0:0:
160,80,30921,1,2,3:2:0:0:
160,80,31029,2,0,P|149:132|133:157,1,50,8|0,0:2|0:2,0:2:0:0:
71,132,31247,2,0,P|63:108|61:83,1,50,2|0,3:2|0:2,0:2:0:0:
1,173,31464,1,2,3:2:0:0:
1,173,31573,2,0,P|4:222|19:270,1,100,8|0,0:2|3:2,0:2:0:0:
169,225,31899,2,0,P|153:177|150:127,1,100,10|2,0:2|3:2,0:2:0:0:
217,92,32225,1,0,0:2:0:0:
290,120,32334,6,0,P|274:142|267:174,1,59.9999981689454,12|0,0:2|0:2,0:2:0:0:
364,232,32551,2,0,P|349:205|343:176,1,59.9999981689454,12|0,3:2|0:0,0:2:0:0:
485,61,32769,5,0,3:2:0:0:
442,123,32877,2,0,P|427:149|421:178,1,59.9999981689454,12|0,0:2|0:0,0:2:0:0:
461,302,33203,1,4,3:2:0:0:
461,302,33638,2,0,P|482:266|519:247,1,59.9999981689454,2|0,0:2|0:0,0:2:0:0:
372,267,34073,6,0,L|270:285,1,80,4|0,3:2|0:2,0:2:0:0:
246,343,34399,2,0,L|144:361,1,80,0|0,3:2|0:2,0:2:0:0:
93,374,34725,1,0,3:2:0:0:
259,209,34943,2,0,L|160:227,1,80,8|4,0:2|0:3,0:0:0:0:
180,223,35269,1,4,0:3:0:0:
180,223,35377,1,4,0:3:0:0:
180,223,35812,6,0,L|259:209,1,80,4|0,3:2|0:2,0:2:0:0:
312,153,36138,2,0,L|418:134,1,80,0|0,3:2|0:2,0:2:0:0:
465,123,36464,1,0,3:2:0:0:
298,34,36682,2,0,L|377:20,1,80,8|4,0:2|0:3,0:0:0:0:
376,20,37008,1,4,0:3:0:0:
376,20,37116,1,4,0:3:0:0:
384,28,37551,6,0,L|374:125,1,80,4|0,3:2|0:2,0:2:0:0:
339,175,37877,2,0,L|329:272,1,80,0|0,3:2|0:2,0:2:0:0:
324,331,38203,1,0,3:2:0:0:
187,330,38421,2,0,L|179:251,1,80,8|4,0:2|0:3,0:0:0:0:
229,191,38747,1,8,0:2:0:0:
229,191,38856,1,8,0:2:0:0:
229,191,38964,2,0,L|235:143,2,40,8|8|0,0:2|0:2|3:2,0:2:0:0:
147,22,39399,6,0,L|157:102,1,80,4|8,3:2|0:2,0:2:0:0:
44,157,39725,2,0,P|63:155|83:159,1,40,4|0,3:2|0:2,0:2:0:0:
103,283,39943,2,0,P|108:263|117:246,1,40,4|0,3:2|0:2,0:2:0:0:
240,266,40160,2,0,P|223:255|209:240,1,40,4|0,3:2|0:2,0:2:0:0:
234,152,40377,1,6,3:2:0:0:
275,175,40486,1,8,0:2:0:0:
323,174,40595,1,8,0:2:0:0:
323,174,40703,2,0,L|346:112,1,40,6|0,3:2|0:0,0:2:0:0:
482,188,40921,1,8,0:2:0:0:
482,188,41029,6,0,L|500:329,1,100,6|0,3:2|0:2,0:2:0:0:
321,258,41356,1,0,3:2:0:0:
321,258,41464,2,0,L|327:307,1,50,8|0,0:2|0:2,0:2:0:0:
410,335,41682,2,0,L|416:384,1,50,2|0,3:2|0:0,0:2:0:0:
222,278,41899,1,2,3:2:0:0:
222,278,42008,2,0,L|235:386,1,100,8|2,0:2|3:2,0:2:0:0:
105,246,42334,2,0,L|123:387,1,100,8|0,0:2|3:2,0:2:0:0:
238,381,42660,1,0,0:2:0:0:
238,381,42769,6,0,P|274:332|343:324,1,100,2|0,3:2|0:2,0:2:0:0:
371,225,43095,1,0,3:2:0:0:
371,225,43203,2,0,P|310:218|262:148,1,150,10|8,0:2|3:2,0:2:0:0:
272,49,43638,1,2,3:2:0:0:
272,49,43747,2,0,P|302:10|357:-2,1,100,8|2,0:2|3:2,0:2:0:0:
423,35,44073,5,8,0:2:0:0:
417,72,44182,1,4,0:3:0:0:
411,109,44290,1,8,0:3:0:0:
405,146,44399,1,0,3:2:0:0:
452,215,44508,6,0,P|495:177|511:168,1,50,6|0,3:2|0:0,0:2:0:0:
405,146,44725,2,2,P|362:184|346:193,1,50,2|0,3:2|0:0,0:2:0:0:
346,298,44943,2,0,P|389:260|405:251,1,50,2|0,3:2|0:0,0:2:0:0:
299,229,45160,2,0,P|256:267|240:276,1,50,2|0,3:2|0:0,0:2:0:0:
139,269,45377,6,0,L|127:318,2,33.3333333333333,2|2|2,3:2|0:2|0:2,0:0:0:0:
68,227,45595,6,0,L|24:253,2,39.9999987792969,2|2|2,3:2|0:2|0:2,0:0:0:0:
47,147,45812,6,0,L|-2:135,2,46.6666652425131,2|2|2,3:2|0:2|0:2,0:0:0:0:
88,75,46029,6,0,L|53:18,2,53.3333333333333,2|2|2,3:2|0:2|0:2,0:0:0:0:
167,53,46247,6,0,P|202:66|243:64,1,50,2|0,3:2|0:0,0:2:0:0:
345,53,46464,2,0,P|310:66|269:64,1,50,2|0,3:2|0:0,0:2:0:0:
160,165,46682,6,0,P|198:150|243:152,1,50,2|0,3:2|0:0,0:2:0:0:
355,165,46899,2,0,P|316:150|271:152,1,50,2|0,3:2|0:0,0:2:0:0:
148,251,47116,6,0,P|190:267|240:264,1,50,2|0,3:2|0:0,0:0:0:0:
362,251,47334,2,0,P|320:267|270:264,1,50,2|0,3:2|0:0,0:0:0:0:
148,251,47551,5,8,0:0:0:0:
194,267,47660,1,8,0:0:0:0:
200,316,47769,1,8,0:0:0:0:
162,348,47877,1,8,0:0:0:0:
116,327,47986,5,4,3:2:0:0:
116,327,48095,2,0,L|257:353,1,119.999996337891,2|0,0:0|0:0,0:0:0:0:
198,191,48421,5,4,3:2:0:0:
198,191,48530,2,0,L|339:217,1,129.999994049073,2|0,0:0|0:0,0:0:0:0:
280,55,48856,5,8,0:0:0:0:
280,55,48964,2,0,L|421:81,1,139.999995727539,2|2,0:0|0:0,0:0:0:0:
192,38,49290,1,8,0:0:0:0:
505,97,49725,6,0,P|444:215|445:275,1,150.000005722046,4|2,3:2|0:0,0:2:0:0:
458,318,50051,1,2,0:0:0:0:
372,292,50160,2,0,P|282:309|254:348,1,75.0000028610231,8|2,0:2|0:0,0:0:0:0:
303,179,50377,2,0,P|236:242|234:290,1,75.0000028610231,2|0,0:0|0:0,0:0:0:0:
170,367,50595,2,0,P|166:249|111:176,1,150.000005722046,2|2,3:2|0:0,0:0:0:0:
82,166,50921,1,0,0:0:0:0:
155,116,51029,2,0,P|178:86|188:50,1,75.0000028610231,8|2,0:0|0:0,0:0:0:0:
74,76,51247,2,0,P|58:14|38:-12,1,75.0000028610231,2|0,0:2|0:0,0:0:0:0:
280,1,51464,6,0,P|297:79|309:100,1,75.0000028610231,2|0,3:2|0:0,0:0:0:0:
323,213,51682,2,0,P|350:135|346:93,1,75.0000028610231,2|0,0:0|0:0,0:0:0:0:
392,0,51899,2,0,P|409:78|421:99,1,75.0000028610231,10|0,0:2|0:0,0:0:0:0:
435,212,52116,1,2,0:0:0:0:
435,212,52225,1,0,0:0:0:0:
435,212,52334,2,0,P|462:134|458:92,1,75.0000028610231,2|2,3:2|0:0,0:0:0:0:
259,150,52551,2,0,P|232:228|236:270,1,75.0000028610231,2|2,0:0|0:0,0:0:0:0:
410,343,52769,2,0,P|355:300|261:326,1,150.000005722046,8|0,0:0|0:0,0:0:0:0:
202,344,53095,1,2,0:0:0:0:
114,382,53203,6,0,L|144:186,1,150.000005722046,2|2,3:2|0:0,0:0:0:0:
0,129,53529,1,2,0:0:0:0:
0,129,53638,2,0,L|22:277,1,150.000005722046,8|2,0:0|0:0,0:0:0:0:
136,233,53964,1,8,0:0:0:0:
154,151,54073,1,2,3:2:0:0:
154,151,54182,2,0,L|165:76,1,75.0000028610231,8|2,0:0|0:0,0:0:0:0:
276,23,54399,1,0,0:0:0:0:
276,23,54508,2,0,L|305:136,1,75.0000028610231,10|0,0:2|0:2,0:2:0:0:
339,262,54725,2,0,L|320:189,1,75.0000028610231,2|0,0:0|0:0,0:0:0:0:
446,59,54943,1,4,3:2:0:0:
446,59,55160,6,0,L|516:25,1,75.0000028610231,2|0,0:0|0:0,0:0:0:0:
438,175,55377,2,0,L|507:142,1,75.0000028610231,10|0,0:0|0:0,0:0:0:0:
429,291,55595,2,0,L|498:258,1,75.0000028610231,2|8,0:0|0:0,0:0:0:0:
269,152,55812,5,8,0:0:0:0:
330,216,55921,2,0,P|341:299|328:344,1,87.500000834465,10|0,0:0|0:0,0:0:0:0:
219,384,56138,2,0,P|252:318|253:268,1,87.500000834465,2|0,3:2|0:0,0:0:0:0:
93,140,56356,2,0,P|154:201|172:285,1,175.00000166893,2|8,3:2|0:0,0:0:0:0:
42,234,56682,6,0,P|124:241|174:290,1,150.000005722046,4|2,3:2|0:0,0:0:0:0:
146,372,57008,1,2,0:2:0:0:
56,372,57116,2,0,P|16:320|11:285,1,75.0000028610231,8|2,0:0|0:0,0:0:0:0:
183,211,57334,2,0,P|171:281|180:338,1,75.0000028610231,2|0,0:2|0:0,0:0:0:0:
328,375,57551,1,2,3:2:0:0:
328,375,57660,2,0,P|330:337|339:301,1,75.0000028610231,8|2,0:0|0:0,0:0:0:0:
301,108,57877,1,2,0:0:0:0:
301,108,57986,2,0,P|269:214|263:304,1,150.000005722046,8|2,0:0|0:0,0:0:0:0:
338,301,58312,1,0,0:0:0:0:
415,257,58421,6,0,P|399:178|388:153,1,75.0000028610231,4|0,3:2|0:0,0:0:0:0:
301,108,58638,2,0,P|225:82|197:79,1,75.0000028610231,2|0,0:2|0:0,0:0:0:0:
419,247,58856,2,0,P|448:172|452:145,1,75.0000028610231,10|0,0:2|0:0,0:0:0:0:
404,59,59073,2,0,P|354:-4|332:-21,1,75.0000028610231,2|0,0:2|0:0,0:0:0:0:
156,93,59290,1,0,3:2:0:0:
156,93,59399,2,0,L|329:69,1,150.000005722046,8|2,0:0|0:0,0:0:0:0:
507,19,59725,2,0,L|358:0,1,150.000005722046,8|0,0:0|0:0,0:0:0:0:
161,96,60051,1,2,0:0:0:0:
161,96,60160,6,0,P|155:190|137:242,1,150.000005722046,4|2,3:2|0:0,0:0:0:0:
55,278,60486,1,2,0:0:0:0:
9,200,60595,2,0,P|25:133|23:102,1,75.0000028610231,8|2,0:0|0:0,0:0:0:0:
136,242,60812,2,0,P|139:279|152:314,1,75.0000028610231,2|0,0:0|0:0,0:0:0:0:
313,351,61029,1,0,3:2:0:0:
313,351,61138,6,0,L|422:362,1,75.0000028610231,8|2,0:0|0:0,0:0:0:0:
233,253,61356,1,0,0:0:0:0:
233,253,61464,2,0,L|342:264,1,75.0000028610231,8|0,0:0|0:0,0:0:0:0:
478,279,61682,2,0,L|403:271,1,75.0000028610231,2|0,0:0|0:0,0:0:0:0:
222,178,61899,1,4,3:2:0:0:
222,178,62116,6,0,L|237:285,1,75.0000028610231,2|0,0:0|0:0,0:0:0:0:
126,105,62334,2,0,L|141:212,1,75.0000028610231,10|0,0:0|0:0,0:0:0:0:
30,39,62552,2,0,L|45:146,1,75.0000028610231,2|8,0:0|0:0,0:0:0:0:
222,178,62769,5,8,0:0:0:0:
136,179,62877,2,0,P|60:218|34:241,1,87.500000834465,0|0,3:2|0:0,0:0:0:0:
123,384,63095,2,0,P|207:329|300:292,1,175.00000166893,0|2,3:2|3:2,0:0:0:0:
357,303,63421,2,0,P|433:264|459:241,1,87.500000834465,2|8,0:0|0:0,0:0:0:0:
407,86,63638,6,0,P|274:68|205:37,1,150.000005722046,4|0,3:2|0:0,0:0:0:0:
180,20,63964,1,2,0:0:0:0:
260,63,64073,2,0,P|293:45|328:34,1,75.0000028610231,8|0,0:0|0:0,0:0:0:0:
475,57,64290,2,0,P|439:68|407:86,1,75.0000028610231,2|0,0:0|0:0,0:0:0:0:
386,176,64508,5,8,0:0:0:0:
381,205,64616,1,8,0:0:0:0:
371,249,64725,1,0,3:2:0:0:
361,308,64834,1,0,3:2:0:0:
348,382,64943,2,0,P|423:344|468:357,1,75.0000028610231,2|0,3:2|0:0,0:0:0:0:
216,294,65160,2,0,P|281:320|318:310,1,75.0000028610231,2|0,3:2|3:2,0:0:0:0:
107,384,65377,6,0,P|151:366|186:368,1,75.0000028610231,8|0,0:0|0:0,0:0:0:0:
106,378,65812,6,0,P|140:364|178:366,1,75.0000028610231,4|0,3:2|0:0,0:0:0:0:
105,371,66247,6,0,P|141:361|178:366,1,75.0000028610231,12|0,0:0|0:0,0:0:0:0:
105,371,67008,6,0,L|134:186,1,150,2|0,0:0|0:0,0:0:0:0:
93,156,67443,1,0,0:0:0:0:
93,156,67551,2,0,L|78:63,2,50
157,84,67877,6,0,P|244:124|325:115,1,150,2|0,0:0|0:0,0:0:0:0:
341,191,68312,1,0,0:0:0:0:
341,191,68421,2,0,P|393:182|428:193,2,50
469,188,68747,6,0,L|488:40,1,150,2|0,0:0|0:0,0:0:0:0:
369,57,69182,1,0,0:0:0:0:
369,57,69290,2,0,L|378:131,2,50
248,38,69616,6,0,L|229:186,1,150,2|0,0:0|0:0,0:0:0:0:
109,169,70052,1,0,0:0:0:0:
109,169,70160,2,0,L|99:95,2,50,0|0|8,0:0|0:0|0:0,0:0:0:0:
161,231,70486,6,0,P|232:205|289:223,1,100,4|8,3:2|0:0,0:0:0:0:
324,265,70812,5,8,0:0:0:0:
324,265,70921,1,8,0:0:0:0:
324,265,71029,2,0,L|312:358,1,50,0|0,3:2|0:0,0:0:0:0:
411,249,71247,5,8,3:0:0:0:
411,249,71356,1,0,3:2:0:0:
411,249,71464,2,0,L|399:342,1,50,8|0,0:0|3:2,0:0:0:0:
498,233,71682,5,8,0:0:0:0:
498,233,71791,1,8,0:0:0:0:
498,233,71899,2,0,L|486:326,1,50,0|0,3:2|3:2,0:0:0:0:
483,359,72116,1,0,3:2:0:0:
231,94,72443,6,0,L|212:181,1,59.9999981689454,4|0,3:2|0:0,0:0:0:0:
281,195,72660,1,2,0:0:0:0:
343,152,72769,2,0,L|331:94,1,59.9999981689454,4|0,3:2|0:0,0:0:0:0:
393,51,72986,1,2,0:0:0:0:
455,93,73095,2,0,L|442:151,1,59.9999981689454,4|0,3:2|0:0,0:0:0:0:
466,222,73312,1,8,0:0:0:0:
490,293,73421,2,0,L|477:351,1,59.9999981689454,4|0,3:2|3:2,0:0:0:0:
281,195,73638,2,0,L|239:385,1,179.999994506836,12|0,0:0|0:0,0:0:0:0:
242,370,74073,6,0,P|200:307|152:298,1,100,0|0,3:2|0:0,0:0:0:0:
37,381,74399,2,0,P|55:336|95:306,1,100,0|0,3:2|0:0,0:0:0:0:
242,370,74725,1,8,0:0:0:0:
136,230,74943,1,2,0:0:0:0:
136,230,75377,1,2,0:0:0:0:
291,22,75812,6,0,P|300:70|337:102,1,100,10|0,3:2|0:0,0:0:0:0:
495,68,76138,2,0,P|466:108|420:125,1,100,10|0,3:2|0:0,0:0:0:0:
290,22,76464,1,8,3:2:0:0:
358,183,76682,1,2,0:0:0:0:
315,276,76899,1,8,3:0:0:0:
315,276,77008,1,0,3:2:0:0:
315,276,77116,2,0,L|338:402,1,100,0|0,3:2|3:2,0:0:0:0:
425,253,77443,1,0,3:2:0:0:
425,253,77551,6,0,P|385:224|358:183,1,100,8|8,0:0|0:0,0:0:0:0:
234,214,77877,2,0,P|226:286|207:323,1,100,4|8,3:2|0:0,0:0:0:0:
88,301,78203,2,0,P|75:256|78:217,1,50,4|0,3:2|0:2,0:2:0:0:
142,185,78421,2,0,P|154:140|151:100,1,50,8|0,3:2|0:0,0:0:0:0:
88,69,78638,2,0,P|76:24|79:-16,1,50,0|0,3:0|0:0,0:0:0:0:
193,8,78856,5,8,0:0:0:0:
204,56,78964,1,8,0:0:0:0:
237,90,79073,1,2,0:0:0:0:
282,110,79182,1,8,0:0:0:0:
358,121,79290,6,0,P|423:105|473:60,1,119.999996337891,4|8,3:2|0:0,0:0:0:0:
510,178,79616,2,0,P|452:190|405:226,1,119.999996337891,4|8,3:2|0:0,0:0:0:0:
364,291,79943,1,4,3:2:0:0:
190,195,80160,5,8,0:0:0:0:
139,255,80269,2,0,P|68:269|57:266,1,59.9999981689454,4|0,3:2|0:0,0:0:0:0:
188,202,80486,5,8,0:0:0:0:
137,262,80595,2,0,P|66:276|55:273,1,59.9999981689454,4|0,3:2|0:0,0:0:0:0:
186,209,80812,5,8,0:0:0:0:
135,269,80921,2,0,P|64:283|53:280,1,59.9999981689454,4|0,3:2|0:0,0:0:0:0:
184,216,81138,5,8,0:0:0:0:
133,276,81247,2,0,P|62:290|51:287,1,59.9999981689454,4|0,3:2|0:0,0:0:0:0:
182,223,81464,5,8,0:0:0:0:
131,283,81573,2,0,P|60:297|49:294,1,59.9999981689454,4|0,3:2|0:0,0:0:0:0:
180,230,81790,5,8,0:0:0:0:
129,290,81899,2,0,P|58:304|47:301,1,59.9999981689454,4|0,3:2|0:0,0:0:0:0:
62,51,83638,6,0,P|81:106|149:140,1,100,4|0,3:2|0:2,0:2:0:0:
242,74,83964,1,2,3:2:0:0:
242,74,84072,2,0,P|231:29|225:21,1,50,8|0,0:2|0:2,0:2:0:0:
338,39,84290,2,0,P|319:77|319:102,1,50,2|0,0:2|0:2,0:2:0:0:
354,224,84507,1,2,3:2:0:0:
354,224,84616,2,0,L|475:210,1,100,8|0,0:2|0:2,0:2:0:0:
405,90,84942,2,0,L|526:76,1,100,10|2,0:2|0:2,0:2:0:0:
356,148,85268,1,0,0:2:0:0:
356,148,85377,6,0,P|308:127|261:127,1,100,2|2,3:2|0:2,0:2:0:0:
249,226,85703,1,2,3:2:0:0:
249,226,85811,2,0,P|277:256|281:277,1,50,8|2,0:2|0:2,0:0:0:0:
239,329,86029,2,0,P|205:330|173:313,1,50,2|0,3:2|0:2,0:2:0:0:
22,261,86246,1,2,3:2:0:0:
22,261,86355,2,0,L|40:377,1,100,8|0,0:2|0:2,0:2:0:0:
99,200,86681,2,0,L|117:316,1,100,10|0,0:2|0:2,0:2:0:0:
18,178,87007,1,0,0:0:0:0:
18,178,87116,6,0,P|72:152|96:113,1,100,2|0,3:2|0:2,0:2:0:0:
42,34,87442,1,2,3:2:0:0:
41,33,87551,2,0,P|6:28|-12:20,1,50,8|0,0:2|0:2,0:2:0:0:
123,39,87768,2,0,P|162:16|178:14,1,50,2|0,3:2|0:2,0:2:0:0:
333,66,87985,1,2,3:2:0:0:
333,66,88094,2,0,P|336:116|353:178,1,100,8|0,0:2|3:2,0:2:0:0:
180,113,88420,2,0,P|168:64|165:14,1,100,10|2,0:2|3:2,0:2:0:0:
250,43,88746,1,0,0:2:0:0:
180,113,88855,6,0,P|164:151|166:194,1,59.9999981689454,12|0,0:2|0:2,0:2:0:0:
264,226,89072,2,0,P|247:176|247:153,1,59.9999981689454,12|0,0:2|0:0,0:2:0:0:
393,53,89290,5,0,3:2:0:0:
349,118,89398,2,0,P|335:145|331:175,1,59.9999981689454,12|0,0:2|0:2,0:2:0:0:
358,313,89724,6,0,P|344:286|340:256,1,59.9999981689454,4|0,3:2|0:2,0:2:0:0:
408,375,89942,5,8,0:2:0:0:
364,310,90051,2,0,P|350:283|346:253,1,59.9999981689454,4|0,3:2|0:2,0:2:0:0:
415,168,90268,5,8,0:2:0:0:
424,162,90377,1,4,3:2:0:0:
434,157,90485,1,0,3:2:0:0:
444,152,90594,1,8,0:2:0:0:
453,146,90703,6,0,P|467:173|471:203,1,59.9999981689454,4|0,3:2|0:2,0:2:0:0:
415,78,90920,5,8,0:2:0:0:
459,143,91029,2,0,P|473:170|477:200,1,59.9999981689454,4|0,3:2|0:2,0:2:0:0:
421,75,91246,5,0,3:2:0:0:
465,140,91355,2,0,P|479:167|483:197,1,59.9999981689454,4|0,3:2|0:0,0:0:0:0:
52,341,93203,6,0,L|159:328,1,100,4|0,3:2|0:2,0:2:0:0:
215,279,93529,1,0,0:2:0:0:
215,279,93637,2,0,L|322:266,1,100,0|2,3:0|0:2,0:0:0:0:
393,257,93963,1,0,0:2:0:0:
393,257,94072,2,0,P|344:286|326:345,1,100,2|2,3:2|0:2,0:2:0:0:
401,366,94398,1,2,0:2:0:0:
401,366,94507,2,0,P|425:353|434:315,1,50,0|2,3:2|0:2,0:2:0:0:
427,176,94724,2,0,L|414:116,1,50,2|2,0:2|0:2,0:0:0:0:
317,92,94942,6,0,L|299:213,1,100,2|0,3:2|0:2,0:2:0:0:
202,154,95268,1,2,0:2:0:0:
202,154,95376,2,0,L|192:106,1,50,0|0,3:0|0:2,0:0:0:0:
302,190,95594,2,0,L|291:141,1,50,2|0,0:2|0:2,0:2:0:0:
213,7,95811,1,2,3:2:0:0:
213,7,95920,2,0,L|191:105,1,100,0|0,0:2|0:2,0:0:0:0:
99,65,96246,2,0,L|88:16,1,50,2|0,3:2|0:2,0:2:0:0:
118,149,96463,2,0,L|129:198,1,50,2|0,0:2|0:2,0:2:0:0:
111,311,96681,6,0,P|188:285|213:302,1,100,2|0,3:2|0:2,0:2:0:0:
202,373,97007,1,2,0:2:0:0:
202,373,97116,2,0,P|155:385|136:381,1,50,0|0,3:0|0:2,0:0:0:0:
266,328,97333,2,0,P|304:342|332:345,1,50,2|0,0:2|0:2,0:2:0:0:
477,287,97550,2,0,P|436:315|388:330,1,100,2|2,3:2|0:2,0:2:0:0:
351,259,97876,1,0,0:2:0:0:
351,259,97985,2,0,P|383:226|393:207,1,50,10|0,0:2|0:2,0:2:0:0:
405,91,98203,2,0,P|408:115|406:140,1,50,2|0,3:2|0:2,0:2:0:0:
318,82,98420,1,2,3:2:0:0:
318,82,98529,6,0,L|216:58,1,100,12|0,0:2|0:2,0:2:0:0:
216,161,98855,2,0,L|275:150,1,50,6|0,3:2|0:2,0:2:0:0:
267,249,99072,2,0,L|208:238,1,50,4|0,3:2|0:2,0:2:0:0:
216,337,99289,2,0,L|275:326,1,50,4|0,3:2|0:2,0:2:0:0:
146,293,99507,1,6,3:2:0:0:
136,290,99616,1,8,0:2:0:0:
126,287,99724,1,8,0:2:0:0:
51,336,99833,2,0,L|-8:347,1,50,6|0,3:2|0:2,0:2:0:0:
0,231,100050,1,8,0:2:0:0:
0,231,100159,6,0,L|13:158,1,55.0000016784668,4|0,3:2|0:0,0:0:0:0:
82,130,100376,1,8,0:0:0:0:
82,130,100485,1,0,3:2:0:0:
82,130,100594,2,0,L|104:0,1,110.000003356934,8|2,3:0|0:0,0:0:0:0:
220,110,100920,1,8,3:2:0:0:
220,110,101029,1,0,3:2:0:0:
220,110,101137,2,0,L|201:220,1,110.000003356934,8|0,0:0|3:2,0:0:0:0:
299,158,101463,2,0,L|280:268,1,110.000003356934,8|0,3:0|3:2,0:0:0:0:
378,209,101789,1,8,0:0:0:0:
378,209,101898,6,0,P|431:197|484:210,1,110.000003356934,8|0,3:2|0:0,0:0:0:0:
485,297,102224,1,8,0:0:0:0:
485,297,102333,2,0,P|431:308|378:295,1,110.000003356934,0|0,3:2|0:0,0:0:0:0:
378,105,102659,1,2,0:0:0:0:
378,105,102768,2,0,P|449:114|501:93,1,110.000003356934,8|0,0:0|0:0,0:0:0:0:
348,16,103094,1,8,0:0:0:0:
348,16,103203,2,0,P|317:43|288:49,1,55.0000016784668,8|0,0:0|0:0,0:0:0:0:
423,133,103420,2,0,P|379:105|360:103,1,55.0000016784668,8|0,0:0|0:0,0:0:0:0:
224,84,103637,6,0,L|169:94,3,55.0000016784668,8|0|0|0,3:2|3:2|3:2|3:2,0:0:0:0:
91,111,104072,2,0,L|36:121,3,55.0000016784668,8|0|0|0,0:0|3:2|3:2|3:2,0:0:0:0:
29,35,104507,5,8,0:0:0:0:
50,31,104615,1,0,3:2:0:0:
72,27,104724,1,0,3:2:0:0:
93,23,104833,1,0,3:2:0:0:
160,73,104942,5,8,0:0:0:0:
181,76,105051,1,0,3:2:0:0:
203,80,105160,1,0,3:2:0:0:
224,84,105268,1,0,3:2:0:0:
290,34,105376,6,0,L|349:22,1,36.6666677856446,12|0,0:2|0:0,0:0:0:0:
350,35,105521,6,0,L|409:23,1,36.6666677856446,2|0,0:0|0:0,0:0:0:0:
410,35,105666,6,0,L|469:23,1,36.6666677856446,2|0,0:0|0:0,0:0:0:0:
470,35,105811,6,0,L|541:20,3,55.0000016784668,8|0|0|0,0:0|3:2|3:2|3:2,0:0:0:0:
419,125,106246,2,0,L|348:110,3,55.0000016784668,8|0|0|0,0:0|3:2|3:2|3:2,0:0:0:0:
470,215,106681,2,0,L|526:203,3,55.0000016784668,12|0|2|0,0:0|0:0|0:0|3:2,0:0:0:0:
301,279,107116,6,0,L|419:305,1,119.999996337891,12|0,0:0|0:0,0:0:0:0:
418,304,107442,1,0,0:0:0:0:
269,188,107550,6,0,L|386:213,1,119.999996337891,12|2,0:0|0:0,0:0:0:0:
386,213,107876,1,0,0:0:0:0:
236,96,107985,6,0,L|353:121,1,119.999996337891,12|0,0:0|0:0,0:0:0:0:
353,121,108311,1,0,0:0:0:0:
269,188,108420,5,8,0:0:0:0:
241,148,108529,1,8,0:0:0:0:
183,130,108637,1,8,0:0:0:0:
112,145,108746,1,8,0:0:0:0:
68,216,108855,6,0,P|67:294|98:375,1,150.000005722046,4|2,3:2|0:0,3:2:0:0:
180,368,109181,1,2,0:0:0:0:
251,314,109289,2,0,P|294:267|331:263,1,75.0000028610231,8|2,0:2|0:0,0:0:0:0:
196,188,109507,2,0,P|260:184|299:216,1,75.0000028610231,2|0,0:0|0:0,0:0:0:0:
436,319,109724,1,2,3:2:0:0:
436,319,109833,2,0,P|481:227|500:143,1,150.000005722046,8|0,0:0|0:0,0:0:0:0:
350,184,110159,2,0,P|382:117|402:45,1,150.000005722046,8|2,0:0|0:2,0:0:0:0:
327,0,110485,1,0,0:0:0:0:
247,38,110594,6,0,P|235:73|219:107,1,75.0000028610231,2|0,3:2|0:0,0:0:0:0:
197,248,110811,2,0,P|180:214|168:178,1,75.0000028610231,2|0,0:0|0:0,0:0:0:0:
147,37,111029,2,0,P|135:72|119:106,1,75.0000028610231,10|0,0:2|0:0,0:0:0:0:
97,248,111246,1,2,0:0:0:0:
97,248,111355,1,0,0:0:0:0:
97,248,111463,2,0,P|80:214|68:178,1,75.0000028610231,2|2,3:2|0:0,0:0:0:0:
235,118,111681,2,0,P|251:151|263:187,1,75.0000028610231,2|2,0:0|0:0,0:0:0:0:
149,325,111898,2,0,P|215:282|311:279,1,150.000005722046,8|0,0:0|0:0,0:0:0:0:
368,306,112224,1,2,0:0:0:0:
452,336,112333,6,0,L|480:160,1,150.000005722046,2|2,3:2|0:0,0:0:0:0:
348,71,112659,1,2,0:0:0:0:
348,71,112768,2,0,L|385:228,1,150.000005722046,10|2,3:2|0:0,0:0:0:0:
206,272,113094,1,8,0:0:0:0:
224,192,113202,1,2,3:2:0:0:
224,192,113311,2,0,L|235:111,1,75.0000028610231,8|2,0:0|0:0,0:0:0:0:
56,34,113529,1,0,0:0:0:0:
56,34,113638,2,0,L|67:115,1,75.0000028610231,10|0,0:2|0:2,0:2:0:0:
91,262,113855,2,0,L|80:187,1,75.0000028610231,2|0,0:0|0:0,0:0:0:0:
105,351,114072,1,4,3:2:0:0:
105,351,114289,6,0,P|43:341|9:342,1,75.0000028610231,2|0,0:0|0:0,0:0:0:0:
237,291,114507,2,0,P|149:269|35:260,1,150.000005722046,10|2,0:0|0:0,0:0:0:0:
317,251,114833,1,8,0:0:0:0:
391,197,114942,1,8,0:0:0:0:
391,197,115050,6,0,P|411:128|402:91,1,87.500000834465,10|0,0:0|0:0,0:0:0:0:
285,46,115268,2,0,P|311:80|326:121,1,87.500000834465,2|0,3:2|0:0,0:0:0:0:
202,292,115485,2,0,P|235:211|243:124,1,175.00000166893,2|8,3:2|0:0,0:0:0:0:
124,204,115811,6,0,P|194:180|243:124,1,150.000005722046,4|2,3:2|0:0,0:0:0:0:
285,46,116137,1,2,0:2:0:0:
186,49,116246,2,0,P|117:49|78:22,1,75.0000028610231,8|2,0:0|0:0,0:0:0:0:
5,100,116463,2,0,P|83:132|113:129,1,75.0000028610231,2|0,0:2|0:0,0:0:0:0:
247,128,116681,1,2,3:2:0:0:
247,128,116789,2,0,P|331:85|398:66,1,150.000005722046,8|2,0:0|0:0,0:0:0:0:
407,236,117116,2,0,P|335:259|269:295,1,150.000005722046,10|2,0:0|0:0,0:0:0:0:
210,362,117442,1,0,0:0:0:0:
143,305,117550,6,0,P|68:280|54:267,1,75.0000028610231,4|0,3:2|0:0,0:0:0:0:
50,190,117768,2,0,P|29:134|33:88,1,75.0000028610231,2|0,0:2|0:0,0:0:0:0:
155,305,117985,2,0,P|119:234|118:215,1,75.0000028610231,10|0,0:2|0:0,0:0:0:0:
170,157,118203,2,0,P|194:102|230:72,1,75.0000028610231,2|0,0:2|0:0,0:0:0:0:
416,124,118420,1,0,3:2:0:0:
416,124,118529,2,0,L|245:148,1,150.000005722046,8|2,0:0|0:0,0:0:0:0:
54,70,118855,2,0,L|203:91,1,150.000005722046,8|0,0:0|0:0,0:0:0:0:
416,124,119181,1,2,0:0:0:0:
416,124,119289,6,0,P|381:216|382:299,1,150.000005722046,4|2,3:2|0:0,0:0:0:0:
449,323,119616,1,2,0:0:0:0:
499,249,119724,2,0,P|514:172|522:156,1,75.0000028610231,8|2,0:0|0:0,0:0:0:0:
378,266,119942,2,0,P|345:189|329:170,1,75.0000028610231,2|0,0:0|0:0,0:0:0:0:
198,175,120159,5,0,3:2:0:0:
198,175,120268,2,0,L|19:147,1,150.000005722046,8|0,0:0|0:0,0:0:0:0:
276,185,120594,2,0,L|350:196,1,75.0000028610231,8|0,0:0|0:0,0:0:0:0:
49,151,120811,1,2,0:0:0:0:
280,189,121029,1,4,3:2:0:0:
280,189,121246,6,0,P|308:110|310:84,1,75.0000028610231,2|0,0:0|0:0,0:0:0:0:
147,234,121463,2,0,P|205:121|216:81,1,150.000005722046,10|2,0:0|0:0,0:0:0:0:
57,236,121789,1,8,0:0:0:0:
101,316,121898,1,8,0:0:0:0:
101,316,122007,6,0,P|197:376|224:370,1,87.500000834465,0|0,3:2|0:0,0:0:0:0:
303,303,122224,2,0,P|260:311|217:307,1,87.500000834465,0|0,3:2|0:0,0:2:0:0:
185,171,122442,2,0,P|215:208|253:227,1,87.500000834465,4|0,3:2|0:0,0:0:0:0:
506,277,122659,1,10,0:0:0:0:
442,339,122768,5,4,3:2:0:0:
442,339,122876,2,0,P|396:232|406:143,1,150.000005722046,8|2,0:0|0:0,0:0:0:0:
506,19,123202,2,0,P|468:134|486:216,1,150.000005722046,8|2,0:0|0:0,0:0:0:0:
394,200,123528,1,0,0:0:0:0:
347,135,123637,1,8,0:0:0:0:
347,135,123746,2,0,P|318:61|320:13,2,75.0000028610231,8|0|0,0:0|3:2|3:2,0:0:0:0:
230,72,124072,2,0,P|248:-4|245:-36,1,75.0000028610231,2|0,3:2|0:0,0:0:0:0:
128,193,124289,2,0,P|184:139|199:110,1,75.0000028610231,2|0,3:2|0:0,0:0:0:0:
49,224,124507,6,0,P|195:208|306:268,1,240,4|0,3:2|3:2,0:2:0:0:
504,164,125376,2,0,P|425:192|344:178,1,160,8|4,0:2|0:3,0:2:0:0:
191,42,126246,6,0,L|201:121,1,80,4|0,3:2|0:2,0:2:0:0:
274,155,126572,2,0,L|289:266,1,80,0|0,3:2|0:2,0:2:0:0:
349,292,126898,1,0,3:2:0:0:
137,342,127116,1,8,0:2:0:0:
248,311,127333,2,0,P|208:336|195:337,1,40,4|0,0:3|0:0,0:0:0:0:
137,342,127550,2,0,P|84:306|5:300,1,120,4|0,0:3|0:2,0:2:0:0:
114,233,127985,6,0,L|212:205,1,80,4|0,3:2|0:0,0:2:0:0:
140,143,128311,2,0,L|58:130,1,80,0|0,3:2|0:0,0:0:0:0:
28,61,128637,1,0,3:2:0:0:
204,84,128855,6,0,P|257:140|319:154,1,120,8|8,0:2|0:2,0:2:0:0:
359,106,129289,2,0,P|355:54|344:36,2,40,8|0|0,0:2|3:2|3:2,0:0:0:0:
469,0,129724,6,0,P|442:124|455:189,1,150,4|0,3:2|0:2,0:2:0:0:
507,295,130159,6,0,P|445:162|443:130,1,165.000005035401,0|0,3:2|0:2,0:2:0:0:
477,7,130594,5,8,0:2:0:0:
477,7,130702,1,0,3:2:0:0:
477,7,130811,2,0,P|469:73|452:90,1,59.9999981689454,0|0,3:2|3:2,0:0:0:0:
360,144,131029,6,0,P|306:131|279:90,1,64.9999970245363,8|8,0:2|0:2,0:0:0:0:
191,21,131246,1,8,0:2:0:0:
191,21,131355,1,8,0:2:0:0:
191,21,131463,6,0,P|221:93|149:196,1,150.000005722046,4|2,3:2|0:2,0:2:0:0:
118,197,131789,1,2,0:2:0:0:
34,162,131898,2,0,P|20:104|29:56,1,75.0000028610231,10|0,0:2|0:2,0:2:0:0:
200,158,132116,2,0,P|200:195|213:230,1,75.0000028610231,2|0,0:2|0:2,0:2:0:0:
84,336,132333,1,2,3:2:0:0:
83,336,132442,2,0,P|66:291|62:245,1,75.0000028610231,10|0,0:2|0:2,0:2:0:0:
197,378,132659,1,2,0:2:0:0:
197,378,132768,2,0,P|200:284|226:193,1,150.000005722046,8|0,0:2|0:2,0:2:0:0:
294,192,133094,1,8,0:2:0:0:
362,265,133203,5,0,3:2:0:0:
362,265,133311,1,0,0:2:0:0:
362,265,133420,2,0,P|354:325|357:370,1,75.0000028610231,2|0,0:2|0:2,0:2:0:0:
495,340,133637,2,0,P|493:302|487:265,1,75.0000028610231,10|0,0:2|0:2,0:2:0:0:
382,175,133855,2,0,P|459:157|485:142,1,75.0000028610231,2|0,0:2|0:2,0:2:0:0:
461,0,134072,1,2,3:2:0:0:
461,0,134181,2,0,P|356:28|276:28,1,150.000005722046,10|2,0:2|3:2,0:2:0:0:
161,33,134507,2,0,P|198:38|234:50,1,75.0000028610231,10|0,0:2|0:2,0:2:0:0:
80,59,134724,1,0,3:2:0:0:
80,59,134833,1,0,3:2:0:0:
80,59,134942,6,0,L|62:135,1,55.0000016784668,4|0,3:2|0:2,0:2:0:0:
152,133,135159,2,0,L|170:209,1,55.0000016784668,0|0,3:2|0:2,0:2:0:0:
77,221,135376,6,0,L|62:306,1,59.9999981689454,0|0,3:2|0:2,0:2:0:0:
160,294,135594,2,0,L|175:379,1,59.9999981689454,0|0,3:2|0:2,0:2:0:0:
328,350,135811,6,0,L|312:263,1,64.9999970245363,0|0,3:2|0:2,0:2:0:0:
425,285,136029,2,0,L|440:198,1,64.9999970245363,0|0,3:2|0:2,0:2:0:0:
333,174,136246,6,0,L|317:87,1,69.9999978637696,0|0,3:2|0:2,0:2:0:0:
433,124,136463,2,0,L|448:37,1,69.9999978637696,0|0,3:2|0:2,0:2:0:0:
425,285,136681,6,0,P|467:308|504:310,1,75.0000028610231,4|0,3:2|0:0,0:0:0:0:
87,285,137116,2,0,P|45:308|8:310,1,75.0000028610231,4|0,3:2|0:0,0:2:0:0:
425,205,137550,6,0,P|467:182|504:180,1,75.0000028610231,4|0,3:2|0:0,0:2:0:0:
86,204,137985,2,0,P|55:185|18:179,1,75.0000028610231,4|0,3:2|0:0,0:2:0:0:
425,73,138420,6,0,P|456:92|493:98,1,75.0000028610231,4|0,3:2|0:0,0:2:0:0:
86,73,138855,2,0,P|55:92|18:98,1,75.0000028610231,4|0,3:2|0:0,0:2:0:0:
256,0,139289,5,4,3:2:0:0:
248,107,139507,1,8,0:2:0:0:
240,214,139724,1,8,0:2:0:0:
250,257,139833,1,2,0:2:0:0:
260,300,139942,1,8,0:2:0:0:
270,343,140050,1,2,0:2:0:0:
284,384,140159,6,0,P|344:335|357:331,1,75.0000028610231,4|0,3:2|0:2,0:2:0:0:
486,275,140376,2,0,P|426:324|413:328,1,75.0000028610231,10|2,0:2|0:2,0:0:0:0:
240,214,140594,1,2,3:2:0:0:
314,204,140703,1,0,3:2:0:0:
377,165,140811,2,0,P|412:105|416:82,1,75.0000028610231,8|0,0:0|3:2,0:0:0:0:
248,121,141029,2,0,P|214:138|178:145,1,75.0000028610231,2|0,3:2|3:2,0:0:0:0:
14,112,141246,5,10,0:0:0:0:
14,112,141355,1,0,0:0:0:0:
14,112,141463,2,0,L|34:194,1,75.0000028610231,2|2,3:2|3:2,0:0:0:0:
113,199,141681,1,10,0:0:0:0:
178,145,141789,1,2,0:0:0:0:
264,161,141898,6,0,B|326:172|326:172|336:144|333:174|333:174|400:187|400:187|398:222|407:188|407:188|476:200,1,262.500002503395,6|2,3:2|0:0,0:0:0:0:
297,254,142333,6,0,B|302:294|302:294|287:326,1,75.0000028610231,0|0,3:2|3:2,0:0:0:0:
214,280,142550,1,8,0:0:0:0:
385,308,142659,6,0,L|429:314,2,43.7500004172325,2|2|2,3:2|0:0|0:2,0:0:0:0:
512,325,142876,1,0,3:2:0:0:
474,241,142985,6,0,L|446:162,1,75.0000028610231,10|2,0:0|0:0,0:0:0:0:
437,11,143203,2,0,L|462:81,1,75.0000028610231,0|0,3:2|3:2,0:0:0:0:
481,248,143420,5,8,0:0:0:0:
481,248,143529,1,2,0:0:0:0:
481,248,143637,2,0,B|432:236|432:236|388:190|388:190|325:180,1,150.000005722046,4|8,3:2|0:0,0:0:0:0:
343,190,143927,1,2,0:0:0:0:
334,196,144000,1,2,0:0:0:0:
325,200,144072,2,0,L|249:215,1,75.0000028610231,2|0,3:2|3:2,0:0:0:0:
93,165,144289,1,8,0:0:0:0:
161,102,144398,2,0,B|183:169|183:169|151:250,1,150.000005722046,0|2,3:2|3:2,0:0:0:0:
19,203,144724,6,0,B|7:168|7:168|15:132,1,75.0000028610231,8|2,0:0|0:0,0:0:0:0:
156,30,144942,2,0,B|169:66|169:66|161:102,1,75.0000028610231,2|2,3:2|0:0,0:0:0:0:
302,203,145159,2,0,B|294:167|294:167|307:132,1,75.0000028610231,10|2,0:0|0:0,0:0:0:0:
342,384,145376,5,12,0:0:0:0:
342,384,145811,1,12,0:0:0:0:
342,384,146246,1,12,0:0:0:0:
342,384,146572,1,8,0:0:0:0:
356,307,146681,2,0,L|373:208,1,75.0000028610231,12|8,0:0|0:0,0:0:0:0:
386,109,146898,1,8,0:0:0:0:
386,109,147007,1,8,0:0:0:0:
386,109,147116,6,0,B|419:131|419:131|471:119,1,75.0000028610231,4|0,3:2|0:0,0:0:0:0:
264,23,147333,2,0,B|229:11|229:11|195:31,1,75.0000028610231,8|0,0:0|0:0,0:0:0:0:
15,96,147550,2,0,L|-1:22,1,75.0000028610231,0|0,3:2|3:2,0:0:0:0:
90,157,147768,2,0,L|68:260,1,75.0000028610231,8|0,0:0|3:2,0:0:0:0:
153,100,147985,2,0,B|101:70|101:70|-1:100,1,150.000005722046,2|8,0:0|0:0,0:0:0:0:
224,147,148311,1,0,0:0:0:0:
224,147,148420,2,0,L|315:114,1,75.0000028610231,0|0,3:2|0:0,0:0:0:0:
448,163,148637,2,0,L|375:149,1,75.0000028610231,8|0,0:2|0:0,0:0:0:0:
198,224,148855,6,0,B|187:266|187:266|209:316,1,75.0000028610231,2|0,3:2|3:2,0:0:0:0:
383,384,149072,2,0,B|395:355|395:355|384:313,1,75.0000028610231,8|0,0:0|0:0,0:0:0:0:
189,129,149289,2,0,B|177:101|177:101|188:59,1,75.0000028610231,0|0,3:2|3:2,0:0:0:0:
374,148,149507,2,0,B|385:190|385:190|373:219,1,75.0000028610231,8|0,0:0|0:0,0:0:0:0:
184,373,149724,1,8,0:0:0:0:
184,373,149833,6,0,L|342:343,1,131.250001251698,8|0,0:0|0:0,0:0:0:0:
373,219,150050,6,0,L|244:243,1,131.250001251698,8|0,0:0|0:0,0:0:0:0:
183,364,150268,6,0,L|341:334,1,131.250001251698,2|0,3:2|0:0,0:0:0:0:
372,210,150485,6,0,L|278:227,1,75.0000028610231,4|0,3:2|0:0,0:0:0:0:
323,72,150702,2,0,L|408:55,1,75.0000028610231,4|2,3:2|0:0,0:0:0:0:
303,145,150920,5,2,0:0:0:0:
224,140,151029,2,0,L|127:126,1,75.0000028610231,4|0,3:2|0:0,0:0:0:0:
147,238,151246,5,8,0:0:0:0:
224,233,151355,2,0,L|299:223,1,75.0000028610231,4|0,3:2|0:0,0:0:0:0:
141,246,151572,5,0,3:2:0:0:
220,241,151681,2,0,L|317:227,1,75.0000028610231,4|0,3:2|0:0,0:0:0:0:
305,336,151898,5,0,3:2:0:0:
228,331,152007,2,0,L|153:321,1,75.0000028610231,4|0,3:2|0:0,0:0:0:0:
291,238,152224,5,0,3:2:0:0:
383,226,152333,2,0,L|406:67,1,150.000005722046,8|0,0:0|3:2,0:0:0:0:
173,83,152659,2,0,L|151:231,1,150.000005722046,8|0,0:0|3:2,0:0:0:0:
390,235,152985,6,0,L|413:76,1,150.000005722046,8|0,0:0|3:2,0:0:0:0:
167,75,153311,2,0,L|145:223,1,150.000005722046,8|0,0:0|3:2,0:0:0:0:
8,384,153637,1,8,0:0:0:0:
41,269,153855,5,0,3:2:0:0:
41,269,153963,1,0,3:2:0:0:
41,269,154072,2,0,L|28:171,1,75.0000028610231,2|8,3:2|0:0,0:0:0:0:
6,8,154289,2,0,L|18:101,1,75.0000028610231,0|0,3:2|0:0,0:0:0:0:
220,100,154507,5,8,0:0:0:0:
205,9,154616,2,0,B|172:14|172:14|145:46,2,75.0000028610231,2|0|0,3:2|3:2|3:2,0:0:0:0:
210,191,154942,2,0,B|169:183|169:183|148:156,1,75.0000028610231,8|0,0:0|0:0,0:0:0:0:
303,62,155159,2,0,B|316:100|316:100|305:132,1,75.0000028610231,0|0,3:2|3:2,0:0:0:0:
220,100,155376,5,8,0:0:0:0:
390,25,155485,2,0,B|410:97|410:97|387:189,1,150.000005722046,0|0,3:2|3:2,0:0:0:0:
352,262,155811,1,8,0:0:0:0:
352,262,156029,6,0,P|390:264|422:283,1,75.0000028610231,12|0,3:2|0:0,0:0:0:0:
146,240,156246,2,0,P|124:271|92:289,1,75.0000028610231,8|0,0:0|0:0,0:0:0:0:
268,72,156463,2,0,P|251:38|252:1,1,75.0000028610231,8|0,0:0|0:0,0:0:0:0:
256,192,156681,5,8,0:0:0:0:
10,233,164507,6,0,L|181:212,1,150,4|4,3:2|0:3,0:2:0:0:
237,208,164942,2,0,P|259:264|298:290,1,100,4|8,0:3|0:3,0:2:0:0:
372,300,165268,1,8,0:3:0:0:
372,300,165376,2,0,L|477:316,1,100,4|8,0:3|0:3,0:2:0:0:
512,239,165702,1,8,0:3:0:0:
512,239,165811,2,0,L|414:224,1,100,4|8,0:3|0:3,0:2:0:0:
503,41,166246,6,0,P|457:102|459:146,1,100,4|4,3:2|0:3,0:2:0:0:
379,71,166572,1,8,0:3:0:0:
379,71,166681,2,0,L|315:61,1,50,4|0,0:3|0:2,0:2:0:0:
285,129,166898,2,0,L|221:138,1,50,8|8,0:3|0:3,0:0:0:0:
191,71,167116,2,0,L|127:61,1,50,4|0,3:2|0:2,0:2:0:0:
97,129,167333,2,0,L|33:138,1,50,8|8,0:3|0:3,0:2:0:0:
38,262,167550,2,0,L|137:245,1,100,4|8,0:3|0:3,0:0:0:0:
211,215,167876,1,8,0:3:0:0:
211,215,167985,6,0,P|239:265|248:316,1,100,4|8,3:2|0:2,0:0:0:0:
310,384,168311,1,8,0:2:0:0:
310,384,168420,2,0,P|321:335|346:292,1,100,0|8,3:2|0:2,0:0:0:0:
394,218,168746,1,8,0:2:0:0:
394,218,168855,2,0,P|421:269|431:320,1,100,0|8,3:2|0:2,0:0:0:0:
330,163,169181,1,8,0:2:0:0:
330,163,169289,2,0,P|322:139|309:118,1,50,0|0,3:2|0:2,0:0:0:0:
243,70,169507,2,0,P|220:58|196:52,1,50,8|8,0:2|0:2,0:0:0:0:
33,118,169724,6,0,L|132:102,1,100,0|8,3:2|0:2,0:2:0:0:
201,56,170050,1,8,0:2:0:0:
201,56,170159,2,0,L|299:39,1,100,0|8,3:2|0:2,0:0:0:0:
358,171,170485,1,8,0:2:0:0:
358,171,170594,2,0,L|259:187,1,100,0|8,3:2|0:2,0:0:0:0:
189,233,170920,1,8,0:2:0:0:
189,233,171029,2,0,L|120:244,1,50,0|0,3:2|0:2,0:2:0:0:
10,264,171246,2,0,L|59:256,1,50,0|0,3:2|3:2,0:0:0:0:
280,266,171463,5,0,0:0:0:0:
372,269,171572,2,0,P|402:296|422:336,1,59.9999981689454,12|0,0:0|0:0,0:0:0:0:
278,251,171789,5,0,3:2:0:0:
370,256,171898,2,0,P|400:284|419:324,1,59.9999981689454,12|0,0:0|0:0,0:0:0:0:
276,238,172115,5,0,3:2:0:0:
368,243,172224,2,0,P|398:269|428:358,1,119.999996337891,12|0,0:0|0:0,0:0:0:0:
511,159,172550,6,0,P|491:182|478:209,1,59.9999981689454,0|0,3:2|3:2,0:0:0:0:
327,157,172768,2,0,P|318:129|301:105,1,59.9999981689454,8|0,0:0|0:0,0:0:0:0:
420,0,172985,2,0,P|450:5|480:2,1,59.9999981689454,2|0,0:0|0:0,0:0:0:0:
301,105,173202,6,0,P|176:129|100:89,1,150.000005722046,6|10,3:2|0:2,0:2:0:0:
68,103,173529,1,2,3:2:0:0:
60,192,173637,2,0,P|34:271|13:300,1,75.0000028610231,0|2,0:2|3:2,0:0:0:0:
154,218,173855,2,0,P|179:289|179:321,1,75.0000028610231,10|2,0:2|3:2,0:0:0:0:
352,377,174072,2,0,P|385:267|445:212,1,150.000005722046,2|10,3:2|0:2,0:0:0:0:
483,195,174398,1,2,3:2:0:0:
416,134,174507,2,0,P|382:75|377:36,1,75.0000028610231,0|2,0:2|3:2,0:2:0:0:
334,181,174724,2,0,P|270:183|237:170,1,75.0000028610231,10|0,0:2|0:2,0:2:0:0:
462,41,174942,6,0,P|425:44|388:44,1,75.0000028610231,2|0,3:2|0:2,0:2:0:0:
218,15,175159,2,0,P|291:53|327:58,1,75.0000028610231,10|0,0:2|0:2,0:2:0:0:
435,217,175376,2,0,P|398:210|362:200,1,75.0000028610231,2|0,3:2|3:2,0:2:0:0:
206,128,175594,1,10,0:2:0:0:
206,128,175702,1,0,3:2:0:0:
206,128,175811,2,0,P|266:183|300:197,1,75.0000028610231,2|0,0:2|3:2,0:0:0:0:
379,370,176029,2,0,P|345:353|311:331,1,75.0000028610231,10|0,0:2|0:2,0:2:0:0:
111,373,176246,2,0,P|197:331|246:284,1,150.000005722046,2|8,3:2|0:2,0:2:0:0:
107,256,176572,5,0,0:2:0:0:
107,256,176681,2,0,P|53:244|30:226,1,75.0000028610231,2|0,3:2|0:0,0:2:0:0:
102,131,176898,1,10,0:2:0:0:
102,131,177007,2,0,P|69:149|33:154,1,75.0000028610231,0|2,0:0|3:2,0:0:0:0:
0,83,177224,1,2,3:2:0:0:
38,14,177333,2,0,P|69:34|105:42,1,75.0000028610231,10|0,0:2|3:2,0:0:0:0:
238,21,177550,6,0,L|229:95,1,75.0000028610231,2|0,0:0|0:0,0:0:0:0:
313,214,177768,2,0,L|303:139,1,75.0000028610231,10|0,0:2|3:2,0:2:0:0:
401,81,177985,2,0,L|392:155,1,75.0000028610231,2|0,0:2|3:2,0:2:0:0:
476,274,178203,2,0,L|466:199,1,75.0000028610231,10|0,0:2|0:2,0:2:0:0:
357,336,178420,1,4,3:2:0:0:
357,336,178637,6,0,P|399:267|451:256,1,75.0000028610231,10|0,0:2|0:2,0:2:0:0:
506,342,178855,2,0,P|483:282|456:257,1,75.0000028610231,2|0,3:2|0:2,0:2:0:0:
276,374,179072,2,0,P|253:314|226:289,1,75.0000028610231,10|0,0:2|3:2,0:0:0:0:
11,242,179289,5,8,0:2:0:0:
72,298,179398,2,0,P|139:330|181:324,1,87.500000834465,10|0,0:2|0:2,0:2:0:0:
223,209,179616,2,0,P|150:243|119:239,1,87.500000834465,2|0,3:2|0:0,0:2:0:0:
21,51,179833,2,0,P|123:149|190:154,1,175.00000166893,2|0,3:2|3:2,0:2:0:0:
168,22,180159,6,0,P|129:95|157:162,1,150.000005722046,6|10,3:2|0:2,0:2:0:0:
223,209,180485,1,2,3:2:0:0:
300,162,180594,2,0,P|314:86|295:55,1,75.0000028610231,0|2,0:2|3:2,0:0:0:0:
168,22,180810,1,10,0:2:0:0:
85,36,180920,1,0,3:2:0:0:
85,36,181029,2,0,L|-25:50,1,75.0000028610231,2|2,3:2|0:2,0:0:0:0:
241,82,181246,2,0,L|315:91,1,75.0000028610231,10|2,0:2|3:2,0:2:0:0:
404,106,181463,2,0,L|478:115,1,75.0000028610231,0|2,0:2|3:2,0:2:0:0:
299,199,181681,2,0,L|189:213,1,75.0000028610231,10|0,0:2|0:2,0:2:0:0:
19,238,181898,6,0,P|84:271|114:317,1,75.0000028610231,2|0,3:2|0:2,0:2:0:0:
184,287,182116,2,0,P|206:356|195:410,1,75.0000028610231,10|0,0:2|0:2,0:2:0:0:
0,241,182332,2,0,P|69:218|123:229,1,75.0000028610231,2|0,3:2|0:2,0:2:0:0:
151,158,182549,2,0,P|216:190|245:237,1,75.0000028610231,10|0,0:2|0:2,0:2:0:0:
298,373,182768,6,0,L|316:265,1,75.0000028610231,10|0,0:2|0:0,0:2:0:0:
343,99,182985,2,0,L|331:172,1,75.0000028610231,8|0,0:2|0:0,0:2:0:0:
288,382,183202,6,0,L|306:274,1,75.0000028610231,10|0,0:2|0:0,0:2:0:0:
336,91,183420,2,0,L|324:164,1,75.0000028610231,8|0,0:2|0:0,0:2:0:0:
507,236,183637,6,0,P|439:220|358:257,1,150.000005722046,4|10,3:2|0:2,0:2:0:0:
300,308,183963,1,2,3:2:0:0:
253,230,184072,2,0,P|174:225|137:194,1,75.0000028610231,0|2,0:2|3:2,0:0:0:0:
81,198,184289,1,10,0:2:0:0:
81,198,184398,1,0,0:2:0:0:
81,198,184507,2,0,L|110:315,1,75.0000028610231,2|0,3:2|0:2,0:2:0:0:
136,73,184724,2,0,L|165:190,1,75.0000028610231,10|0,0:2|0:2,0:2:0:0:
264,252,184942,2,0,L|282:324,1,75.0000028610231,2|0,3:2|3:2,0:2:0:0:
319,127,185159,2,0,L|337:199,1,75.0000028610231,10|0,0:2|0:2,0:2:0:0:
147,84,185376,1,4,3:2:0:0:
147,84,185594,5,10,0:2:0:0:
147,84,185702,1,0,0:2:0:0:
147,84,185811,2,0,P|81:145|70:149,1,75.0000028610231,2|0,3:2|0:2,0:2:0:0:
233,102,186029,2,0,P|299:41|310:37,1,75.0000028610231,10|0,0:2|3:2,0:0:0:0:
479,175,186246,5,8,0:2:0:0:
404,139,186355,2,0,P|371:127|317:128,1,87.500000834465,0|0,3:2|0:0,0:2:0:0:
277,259,186572,2,0,P|347:212|383:211,1,87.500000834465,0|0,3:2|0:0,0:2:0:0:
512,358,186789,2,0,P|406:300|342:301,1,175.00000166893,4|2,3:2|3:2,0:2:0:0:
240,361,187116,6,0,P|140:326|79:331,1,150.000005722046,6|8,3:2|0:2,0:2:0:0:
7,343,187442,1,2,3:2:0:0:
97,327,187550,2,0,P|183:297|217:261,1,75.0000028610231,0|2,0:2|3:2,0:0:0:0:
0,200,187768,2,0,P|34:215|71:221,1,75.0000028610231,10|0,0:2|0:2,0:2:0:0:
113,138,187985,2,0,P|85:113|51:96,1,75.0000028610231,2|0,3:2|3:2,0:0:0:0:
269,152,188202,2,0,P|236:135|208:111,1,75.0000028610231,10|0,0:2|0:2,0:2:0:0:
157,213,188420,2,0,P|194:219|228:235,1,75.0000028610231,2|0,3:2|0:0,0:2:0:0:
384,152,188637,1,10,0:2:0:0:
384,152,188855,6,0,L|365:41,1,112.500004291535,12|0,0:2|0:2,0:2:0:0:
469,65,189289,2,0,L|487:176,1,112.500004291535,12|0,0:2|0:2,0:2:0:0:
402,314,189724,6,0,P|415:293|422:269,1,50.0000019073487,8|0,0:2|3:2,0:2:0:0:
349,219,190014,5,0,3:2:0:0:
276,270,190159,6,0,P|282:294|296:314,1,50.0000019073487,8|8,0:2|0:2,0:0:0:0:
223,365,190449,5,8,0:2:0:0:
150,314,190594,6,0,P|170:277|167:186,1,100,6|0,3:2|0:2,0:2:0:0:
44,222,190920,1,2,3:2:0:0:
44,222,191029,2,0,P|48:272|69:317,1,100,8|2,0:2|3:2,0:0:0:0:
180,223,191355,1,2,3:2:0:0:
180,223,191462,5,10,0:2:0:0:
225,227,191571,1,0,3:2:0:0:
286,230,191680,1,2,3:2:0:0:
361,235,191788,1,0,3:2:0:0:
452,241,191897,6,0,P|462:205|463:168,1,75.0000028610231,10|0,0:2|0:2,0:0:0:0:
340,61,192115,2,0,P|339:98|328:134,1,75.0000028610231,2|2,3:2|3:2,0:0:0:0:
167,136,192332,6,0,P|177:100|178:63,1,75.0000028610231,6|0,3:2|0:0,0:0:0:0:
160,135,192768,6,0,P|174:101|178:64,1,75.0000028610231,4|0,3:2|0:0,0:0:0:0:
153,133,193202,6,0,P|171:100|178:64,1,75.0000028610231,12|0,3:2|0:0,0:0:0:0:
6,162,193529,5,0,3:2:0:0:
6,162,193637,2,0,P|67:178|104:225,1,119.999996337891,8|8,0:2|0:2,0:2:0:0:
155,304,193963,1,8,0:2:0:0:
155,304,194072,6,0,L|135:385,1,75.0000028610231,2|0,0:2|0:2,0:2:0:0:
252,210,194289,1,10,0:2:0:0:
252,210,194398,2,0,L|272:371,1,150.000005722046,2|2,3:2|3:2,0:2:0:0:
359,192,194724,1,10,0:2:0:0:
359,192,194833,1,2,3:2:0:0:
359,192,194942,2,0,L|372:87,1,75.0000028610231,2|0,0:2|3:2,0:0:0:0:
452,275,195159,6,0,P|374:297|347:332,1,75.0000028610231,10|0,0:2|0:2,0:2:0:0:
252,210,195376,2,0,P|217:225|180:226,1,75.0000028610231,2|0,3:2|3:2,0:0:0:0:
16,198,195593,1,10,0:2:0:0:
16,198,195702,1,2,0:2:0:0:
16,198,195811,6,0,L|-11:44,1,150.000005722046,2|8,3:2|0:2,0:2:0:0:
100,13,196137,1,2,3:2:0:0:
100,12,196246,2,0,L|81:115,1,75.0000028610231,0|2,0:2|3:2,0:0:0:0:
183,197,196463,2,0,L|164:93,1,75.0000028610231,10|0,0:2|0:2,0:2:0:0:
323,195,196681,6,0,L|296:41,1,150.000005722046,2|8,3:2|0:2,0:0:0:0:
407,10,197007,1,2,3:2:0:0:
407,9,197116,2,0,L|388:112,1,75.0000028610231,0|2,0:2|3:2,0:0:0:0:
490,194,197333,2,0,L|471:90,1,75.0000028610231,10|0,0:2|0:0,0:2:0:0:
323,195,197550,6,0,P|388:220|425:266,1,75.0000028610231,2|2,3:2|0:2,0:0:0:0:
372,377,197767,1,10,0:2:0:0:
372,377,197876,1,2,3:2:0:0:
372,377,197985,2,0,P|293:335|215:320,1,150.000005722046,0|10,0:2|0:2,0:0:0:0:
142,332,198310,1,2,3:2:0:0:
142,332,198420,2,0,P|56:364|28:361,1,75.0000028610231,2|0,0:2|3:2,0:0:0:0:
44,210,198637,1,10,0:2:0:0:
44,210,198746,1,0,0:2:0:0:
44,210,198855,2,0,P|130:228|140:228,1,75.0000028610231,2|2,3:2|3:2,0:0:0:0:
300,173,199071,2,0,P|270:195|237:213,1,75.0000028610231,10|2,0:2|3:2,0:0:0:0:
44,210,199289,6,0,L|18:42,1,150.000005722046,2|8,3:2|0:2,0:2:0:0:
159,89,199616,1,2,3:2:0:0:
159,89,199724,2,0,L|182:220,1,75.0000028610231,0|0,0:2|3:2,0:2:0:0:
199,347,199942,1,10,0:2:0:0:
251,188,200159,5,8,0:2:0:0:
271,308,200268,2,0,P|291:269|326:242,1,87.500000834465,10|0,0:2|0:2,0:2:0:0:
487,246,200485,2,0,P|427:221|377:223,1,87.500000834465,2|0,3:2|0:0,0:2:0:0:
319,374,200702,2,0,P|400:341|487:329,1,175.00000166893,2|0,3:2|3:2,0:2:0:0:
433,139,201029,6,0,P|440:87|463:40,1,75.0000028610231,6|0,3:2|0:2,0:2:0:0:
340,13,201246,1,8,0:2:0:0:
340,13,201355,1,0,0:2:0:0:
340,12,201463,2,0,P|324:46|316:83,1,75.0000028610231,2|0,3:2|3:2,0:0:0:0:
261,248,201681,1,8,0:2:0:0:
261,248,201789,1,0,3:2:0:0:
261,248,201898,2,0,L|102:280,1,150.000005722046,2|10,0:2|0:2,0:2:0:0:
95,186,202224,1,2,0:2:0:0:
95,186,202333,2,0,L|-3:162,1,75.0000028610231,0|0,3:2|3:2,0:0:0:0:
0,34,202550,2,0,L|73:48,1,75.0000028610231,10|0,0:2|0:2,0:2:0:0:
246,13,202768,6,0,P|197:89|190:149,1,150.000005722046,2|8,3:2|0:2,0:2:0:0:
231,308,203094,1,2,3:2:0:0:
231,308,203202,2,0,P|210:276|201:240,1,75.0000028610231,0|2,0:2|3:2,0:0:0:0:
304,74,203420,2,0,P|283:108|280:172,1,75.0000028610231,10|0,0:2|0:2,0:2:0:0:
316,333,203637,6,0,L|215:307,1,75.0000028610231,10|0,0:2|0:0,0:2:0:0:
53,263,203855,2,0,L|125:281,1,75.0000028610231,8|0,3:2|0:0,0:2:0:0:
317,350,204072,6,0,L|244:331,1,75.0000028610231,10|0,0:2|0:0,0:2:0:0:
41,277,204289,2,0,L|113:295,1,75.0000028610231,8|0,0:2|0:0,0:2:0:0:
408,350,204507,2,0,L|367:189,1,150.000005722046,8|8,0:2|0:2,0:0:0:0:
347,122,204833,1,0,0:0:0:0:
347,122,204942,2,0,L|358:39,1,75.0000028610231,8|0,0:2|0:0,0:0:0:0:
361,278,205159,2,0,L|372:195,1,75.0000028610231,8|0,0:2|0:0,0:2:0:0:
441,86,205376,2,0,L|452:3,1,75.0000028610231,8|0,0:2|0:0,0:2:0:0:
455,242,205593,2,0,L|466:159,1,75.0000028610231,8|0,0:2|0:0,0:2:0:0:
282,7,205811,5,10,0:2:0:0:
249,57,205919,1,2,0:0:0:0:
192,77,206029,1,10,0:2:0:0:
134,63,206137,1,2,0:0:0:0:
82,16,206246,5,10,0:2:0:0:
134,63,206354,1,2,0:0:0:0:
150,132,206463,1,10,0:2:0:0:
123,199,206572,1,2,0:0:0:0:
70,255,206681,6,0,P|12:279|-28:274,1,75.0000028610231,8|0,0:2|0:0,0:2:0:0:
178,348,206898,2,0,P|120:324|80:329,1,75.0000028610231,10|0,0:2|0:0,0:2:0:0:
286,255,207116,2,0,P|228:279|188:274,1,75.0000028610231,10|0,0:2|0:0,0:2:0:0:
394,348,207333,2,0,P|336:324|296:329,1,75.0000028610231,10|0,0:2|0:0,0:2:0:0:
219,176,207550,5,10,0:2:0:0:
287,207,207659,1,0,3:2:0:0:
353,172,207768,1,10,0:2:0:0:
361,97,207876,1,0,0:0:0:0:
309,42,207985,5,0,3:2:0:0:
309,42,208094,2,0,P|370:77|454:100,1,150.000005722046,12|0,0:2|3:2,0:2:0:0:
370,232,208420,2,0,P|309:197|225:174,1,150.000005722046,12|0,0:2|3:2,0:2:0:0:
0,222,208746,2,0,P|63:192|149:176,1,150.000005722046,12|0,0:2|3:2,0:2:0:0:
309,295,209072,2,0,P|277:274|242:262,1,75.0000028610231,12|0,0:2|0:2,0:2:0:0:
55,289,209289,2,0,P|88:271|124:262,1,75.0000028610231,0|0,3:2|0:2,0:2:0:0:
184,374,209507,1,0,3:2:0:0:
363,211,209724,5,0,3:2:0:0:
363,211,209832,2,0,L|531:238,1,150.000005722046,12|0,0:2|3:2,0:2:0:0:
459,351,210159,2,0,L|310:327,1,150.000005722046,12|0,0:2|3:2,0:2:0:0:
149,211,210485,2,0,L|-19:238,1,150.000005722046,12|0,0:2|3:2,0:2:0:0:
53,351,210810,2,0,L|127:339,1,75.0000028610231,12|0,3:2|0:2,0:2:0:0:
236,339,211029,2,0,L|310:327,1,75.0000028610231,0|0,3:2|0:2,0:2:0:0:
419,327,211246,2,0,L|493:315,1,75.0000028610231,0|0,3:2|0:2,0:2:0:0:
389,224,211463,5,0,3:2:0:0:
389,224,211572,2,0,P|400:149|441:73,1,150.000005722046,14|0,0:2|3:2,0:0:0:0:
296,182,211898,2,0,P|285:107|244:31,1,150.000005722046,14|0,0:2|3:2,0:0:0:0:
137,237,212224,2,0,P|147:163|181:96,1,150.000005722046,12|0,0:2|3:2,0:2:0:0:
43,279,212550,2,0,P|37:234|17:194,1,75.0000028610231,12|2,0:2|0:2,0:2:0:0:
186,313,212768,2,0,P|200:347|204:384,1,75.0000028610231,0|0,3:2|0:2,0:2:0:0:
292,210,212985,2,0,P|287:172|273:138,1,75.0000028610231,0|0,3:2|0:0,0:2:0:0:
136,0,213202,5,12,0:2:0:0:
137,237,213420,1,8,0:2:0:0:
185,76,213637,5,8,0:2:0:0:
132,147,213746,2,0,L|40:160,1,75.0000028610231,8|0,0:2|0:2,0:2:0:0:
185,76,213926,2,0,B|261:64|261:64|312:87|312:87|433:66,1,250.000009536744,14|0,3:2|0:2,0:0:0:0:
427,66,214343,1,0,3:2:0:0:
256,192,214507,5,12,0:2:0:0:
256,192,214616,12,0,221463,3:2:0:0:
