osu file format v14

[General]
AudioFilename: audio.mp3
AudioLeadIn: 0
PreviewTime:172333
Countdown: 0
SampleSet: Soft
StackLeniency: 0.9
Mode: 0
LetterboxInBreaks: 0
WidescreenStoryboard: 1

[Editor]
Bookmarks: 1030,20160,49725,83638,99289,100159,108855,140159,157550,173202,194072,214507,221463
DistanceSpacing: 1
BeatDivisor: 8
GridSize: 32
TimelineZoom: 2.4

[Metadata]
Title:Jinsei Easy?
TitleUnicode:人生イージー?
Artist:DIALOGUE+
ArtistUnicode:DIALOGUE+
Creator:Amateurre
Version:LV.15 Yogurtt's Light Insane
Source:弱キャラ友崎くん
Tags:anime japanese pop j-pop jpop opening jaku chara tomozaki kun bottom tier character tomozaki-kun iljaaz keqing finshie kuse KuBsNia_ZhoYL_ winnie yogurtt lecandy asagi tsukinyuni matha petal
BeatmapID:3130667
BeatmapSetID:1507979

[Difficulty]
HPDrainRate:5
CircleSize:4
OverallDifficulty:7.2
ApproachRate:9
SliderMultiplier:1.84
SliderTickRate:1

[Events]
//Background and Video events
0,0,"DoqxyrCVAAAO5X.jpg",0,0
//Break Periods
2,67008,69736
2,157750,163757
//Storyboard Layer 0 (Background)
//Storyboard Layer 1 (Fail)
//Storyboard Layer 2 (Pass)
//Storyboard Layer 3 (Foreground)
//Storyboard Layer 4 (Overlay)
//Storyboard Sound Samples

[TimingPoints]
1030,434.782608695652,4,2,1,60,1,0
1030,-125,4,2,1,60,0,0
6247,-100,4,2,1,70,0,0
7551,-142.857142857143,4,2,1,70,0,0
11464,-111.111111111111,4,2,1,70,0,0
13203,-111.111111111111,4,2,1,75,0,0
20160,-111.111111111111,4,2,1,60,0,0
25377,-100,4,2,1,60,0,0
27116,-100,4,2,1,70,0,0
49725,-100,4,2,1,80,0,1
65323,-100,4,2,1,80,0,0
65377,-100,4,2,1,80,0,1
65432,-100,4,2,1,80,0,0
65812,-100,4,2,1,80,0,1
65921,-100,4,2,1,80,0,0
66247,-100,4,2,1,80,0,1
66356,-100,4,2,1,80,0,0
67008,-100,4,2,1,65,0,0
72443,-100,4,2,1,70,0,0
83638,434.782608695652,4,2,1,70,1,0
93203,434.782608695652,4,2,1,70,1,0
108855,-100,4,2,1,80,0,1
124507,-125,4,2,1,65,0,0
131463,-125,4,2,1,70,0,0
137442,-125,4,2,1,70,0,0
137550,-125,4,2,1,70,0,0
137876,-125,4,2,1,70,0,0
137984,-125,4,2,1,70,0,0
138311,-125,4,2,1,70,0,0
138419,-125,4,2,1,70,0,0
138746,-125,4,2,1,70,0,0
138854,-125,4,2,1,70,0,0
139181,-125,4,2,1,70,0,0
139289,-125,4,2,1,70,0,0
140159,217.391304347826,4,2,1,75,1,0
140159,-200,4,2,1,75,0,0
157550,434.782608695652,4,2,1,60,1,0
164506,-100,4,2,1,70,0,0
173202,217.391304347826,4,2,1,80,1,1
173202,-166.666666666667,4,2,1,80,0,1
188854,-200,4,2,1,80,0,0
190593,-166.666666666667,4,2,1,80,0,1
192278,-166.666666666667,4,2,1,80,0,0
192332,-166.666666666667,4,2,1,80,0,1
192386,-200,4,2,1,80,0,0
192767,-166.666666666667,4,2,1,80,0,1
192821,-166.666666666667,4,2,1,80,0,0
193202,-166.666666666667,4,2,1,80,0,1
193256,-166.666666666667,4,2,1,80,0,0
194072,-200,4,2,1,70,0,0
213202,-166.666666666667,4,2,1,70,0,0
221246,-200,4,2,1,70,0,0

[Colours]
Combo1 : 255,166,166
Combo2 : 130,219,77
Combo3 : 255,108,108
Combo4 : 164,255,164

[HitObjects]
131,60,1030,6,0,P|138:101|141:162,1,73.6,2|2,0:0|0:0,0:0:0:0:
253,136,1464,2,0,P|249:172|243:208,1,73.6,2|2,0:0|0:0,0:0:0:0:
87,343,1899,2,0,L|176:313,1,73.6,2|2,0:0|0:0,0:0:0:0:
178,329,2225,1,8,0:3:0:0:
178,329,2334,2,0,L|170:367,1,36.8,8|8,0:0|0:0,0:0:0:0:
265,319,2551,2,0,L|257:282,1,36.8,8|0,3:0|0:0,0:0:0:0:
353,352,2769,5,10,0:0:0:0:
428,305,2986,1,2,0:0:0:0:
420,173,3203,5,2,0:0:0:0:
495,220,3420,1,2,0:0:0:0:
359,259,3638,2,0,P|341:221|350:171,1,73.6,2|0,0:0|3:2,0:0:0:0:
360,165,3964,1,8,0:3:0:0:
360,165,4073,2,0,L|408:155,1,36.8,8|8,0:0|0:0,0:0:0:0:
308,66,4290,2,0,L|344:73,1,36.8,8|8,3:0|3:0,0:0:0:0:
224,175,4508,5,6,3:2:0:0:
114,118,4725,1,2,3:2:0:0:
274,37,4943,1,10,0:0:0:0:
277,40,5051,1,8,0:0:0:0:
281,44,5160,1,8,0:0:0:0:
158,229,5377,5,8,3:2:0:0:
69,90,5595,1,0,3:2:0:0:
69,90,5703,2,0,L|131:108,1,36.8,8|0,3:0|3:2,0:0:0:0:
130,115,5921,2,0,L|192:133,2,36.8,8|0|0,3:0|3:2|3:2,0:0:0:0:
21,174,6247,5,8,0:0:0:0:
21,174,6356,2,0,L|29:239,2,46,6|2|10,3:2|0:0|0:0,0:0:0:0:
96,250,6682,2,0,L|104:315,2,46,4|2|8,3:2|0:0|0:0,0:0:0:0:
171,326,7008,2,0,L|179:391,2,46,4|2|8,3:2|0:0|0:0,0:0:0:0:
232,275,7334,5,0,3:2:0:0:
232,275,7443,1,0,3:2:0:0:
232,275,7551,2,0,P|266:212|231:151,1,128.799996069336,12|6,0:0|3:2,0:0:0:0:
54,76,8856,5,4,3:2:0:0:
374,4,9725,5,4,3:2:0:0:
358,83,9943,1,2,0:2:0:0:
342,162,10160,1,2,0:2:0:0:
348,178,10377,1,2,0:0:0:0:
467,287,10595,6,0,L|452:207,1,64.399998034668,4|2,3:2|3:2,0:0:0:0:
455,223,10921,1,2,3:2:0:0:
455,223,11029,1,2,3:2:0:0:
136,114,11464,6,0,P|114:148|120:189,1,82.7999974731446,14|0,0:0|0:0,0:0:0:0:
139,211,11790,2,0,L|227:193,1,82.7999974731446,14|0,0:0|0:0,0:0:0:0:
241,213,12116,1,14,3:2:0:0:
59,86,12334,1,14,3:2:0:0:
230,13,12551,1,2,0:0:0:0:
127,292,12769,5,8,0:0:0:0:
127,292,12877,1,8,0:0:0:0:
127,292,12986,1,8,0:0:0:0:
127,292,13095,1,8,0:0:0:0:
127,292,13203,2,0,L|139:208,1,82.7999974731446,6|2,3:2|0:0,0:0:0:0:
365,314,13638,2,0,L|281:326,1,82.7999974731446,8|2,0:0|0:0,0:0:0:0:
259,341,13964,1,0,3:0:0:0:
259,341,14073,2,0,L|245:286,1,41.3999987365723,0|8,3:2|0:0,0:0:0:0:
353,156,14290,5,2,0:0:0:0:
353,156,14399,1,2,0:0:0:0:
353,156,14508,2,0,L|330:248,1,82.7999974731446,10|2,0:0|0:0,0:0:0:0:
354,226,14834,2,0,L|446:203,1,82.7999974731446,2|0,0:0|0:0,0:0:0:0:
456,224,15160,1,2,0:0:0:0:
235,92,15377,5,8,0:0:0:0:
235,92,15486,1,8,0:0:0:0:
235,92,15595,1,8,0:0:0:0:
235,92,15703,2,0,P|173:119|95:108,1,124.199996209717,2|2,0:0|0:0,0:0:0:0:
118,117,16247,1,10,0:0:0:0:
255,202,16464,1,2,0:0:0:0:
357,114,16682,6,0,P|348:69|347:9,1,82.7999974731446,4|2,3:2|0:2,0:2:0:0:
435,0,17008,1,2,0:0:0:0:
435,0,17116,2,0,P|443:31|443:69,1,41.3999987365723,8|0,0:0|0:0,0:0:0:0:
512,80,17334,1,2,0:0:0:0:
512,80,17443,2,0,P|495:107|468:134,1,41.3999987365723,2|0,0:0|3:2,0:0:0:0:
508,190,17660,1,8,0:0:0:0:
512,194,17769,2,0,P|481:202|443:202,1,41.3999987365723,2|0,0:0|0:0,0:0:0:0:
428,286,17986,5,8,3:2:0:0:
398,257,18094,1,8,0:0:0:0:
381,220,18203,1,2,0:0:0:0:
382,178,18312,2,0,P|388:151|410:127,1,41.3999987365723,2|0,3:2|0:0,0:0:0:0:
410,112,18529,6,0,L|317:135,1,82.7999974731446,4|2,3:2|0:0,0:0:0:0:
286,223,18856,6,0,L|193:200,1,82.7999974731446,4|8,3:2|0:0,0:0:0:0:
107,170,19182,6,0,L|126:250,1,82.7999974731446,4|2,3:2|0:0,0:0:0:0:
77,323,19508,6,0,L|21:341,1,41.3999987365723,4|0,3:2|3:2,0:0:0:0:
1,109,19725,6,0,L|134:137,1,124.199996209717,12|0,0:0|0:0,0:0:0:0:
189,102,20160,6,0,P|225:154|212:260,1,165.599994946289,6|0,3:2|3:2,0:2:0:0:
101,157,20812,1,2,0:2:0:0:
275,78,21029,1,2,3:2:0:0:
216,252,21247,1,0,0:2:0:0:
162,0,21464,2,0,L|183:97,1,82.7999974731446,2|0,3:2|0:0,0:2:0:0:
341,184,21899,6,0,P|347:142|363:70,1,82.7999974731446,2|0,3:2|0:2,0:0:0:0:
354,102,22225,1,2,0:2:0:0:
354,102,22334,1,2,3:2:0:0:
253,154,22551,1,2,0:2:0:0:
424,276,22769,1,2,3:2:0:0:
231,368,22986,1,2,0:2:0:0:
424,276,23203,2,0,P|457:233|436:137,1,124.199996209717,2|0,3:2|0:0,0:2:0:0:
441,142,23638,6,0,L|384:159,1,41.3999987365723,2|0,3:2|0:0,0:0:0:0:
313,256,23856,1,2,0:2:0:0:
317,260,23964,2,0,L|218:237,1,82.7999974731446,2|0,0:2|0:2,0:2:0:0:
219,216,24290,1,2,0:2:0:0:
313,129,24508,1,2,3:2:0:0:
241,335,24725,1,2,0:2:0:0:
115,258,24943,1,10,0:2:0:0:
111,238,25051,1,8,0:2:0:0:
107,218,25160,1,0,3:2:0:0:
103,199,25269,1,0,3:2:0:0:
98,178,25377,6,0,P|84:124|61:62,1,92,12|0,0:2|3:2,0:2:0:0:
116,19,25703,2,0,P|160:33|205:45,1,92,12|0,0:2|3:2,0:2:0:0:
251,107,26029,2,0,P|295:95|339:81,1,92,12|0,0:2|3:2,0:2:0:0:
406,21,26356,2,0,P|429:71|412:122,1,92,12|0,0:2|3:2,0:2:0:0:
366,159,26682,1,12,0:2:0:0:
501,68,26899,1,8,0:2:0:0:
452,276,27116,6,0,L|287:240,1,138,6|2,3:2|3:2,0:2:0:0:
285,239,27551,1,8,0:2:0:0:
387,176,27769,1,2,3:2:0:0:
331,371,27986,2,0,L|286:349,1,46,2|8,3:2|0:2,0:0:0:0:
174,293,28204,1,0,0:0:0:0:
317,246,28421,5,10,0:2:0:0:
138,379,28638,1,0,0:2:0:0:
171,202,28856,2,0,L|142:89,1,92,2|0,3:2|0:2,0:2:0:0:
148,112,29182,1,2,3:2:0:0:
148,112,29290,1,10,0:2:0:0:
92,242,29508,1,2,3:2:0:0:
290,159,29725,2,0,L|229:145,1,46,2|8,3:2|0:2,0:0:0:0:
65,95,29943,1,0,0:0:0:0:
227,36,30160,5,10,0:2:0:0:
171,202,30377,1,0,0:2:0:0:
21,174,30595,6,0,P|-7:238|66:334,1,184,2|8,3:2|0:2,0:2:0:0:
139,318,31247,1,2,3:2:0:0:
245,373,31464,2,0,L|232:304,1,46,2|8,3:2|0:2,0:0:0:0:
210,187,31682,1,2,0:2:0:0:
127,338,31899,5,10,0:2:0:0:
316,246,32116,1,2,3:2:0:0:
116,118,32334,2,0,L|132:177,1,46,12|0,0:2|0:2,0:2:0:0:
227,251,32551,2,0,L|214:206,1,46,12|0,3:2|0:0,0:2:0:0:
269,103,32769,1,0,3:2:0:0:
282,124,32877,2,0,L|381:148,1,92,12|0,0:2|0:0,0:2:0:0:
440,114,33203,5,4,3:2:0:0:
344,330,33638,5,2,0:2:0:0:
344,330,33856,1,0,0:0:0:0:
411,259,34073,2,0,P|440:310|425:371,1,92,4|0,3:2|0:2,0:2:0:0:
344,330,34399,2,0,P|369:292|371:247,1,92,0|0,3:2|0:2,0:2:0:0:
310,202,34725,1,0,3:2:0:0:
242,325,34943,2,0,L|134:350,1,92,8|4,0:2|0:3,0:0:0:0:
152,345,35269,1,8,0:3:0:0:
152,345,35377,1,4,0:3:0:0:
152,345,35812,6,0,P|111:310|113:255,1,92,4|0,3:2|0:2,0:2:0:0:
212,224,36138,2,0,P|177:265|122:263,1,92,0|0,3:2|0:2,0:2:0:0:
47,222,36464,1,0,3:2:0:0:
119,96,36682,2,0,L|136:201,1,92,8|4,0:2|0:3,0:0:0:0:
133,186,37008,1,8,0:3:0:0:
133,186,37116,1,4,0:3:0:0:
216,117,37551,6,0,L|321:134,1,92,4|0,3:2|0:2,0:2:0:0:
294,162,37877,2,0,L|399:145,1,92,0|0,3:2|0:2,0:2:0:0:
401,125,38203,1,0,3:2:0:0:
488,304,38421,2,0,P|516:255|495:211,1,92,8|4,0:2|0:3,0:0:0:0:
484,204,38747,1,8,0:0:0:0:
484,204,38856,2,0,L|412:224,1,46,8|8,0:2|0:2,0:2:0:0:
390,273,39073,2,0,L|318:293,1,46,8|0,0:2|3:2,0:0:0:0:
180,364,39399,6,0,P|180:318|207:282,1,92,4|8,3:2|0:2,0:2:0:0:
237,265,39725,1,4,3:2:0:0:
110,167,39943,1,4,3:2:0:0:
287,82,40160,1,4,3:2:0:0:
197,191,40377,5,6,3:2:0:0:
197,191,40486,1,8,0:2:0:0:
197,191,40595,2,0,L|264:172,1,46,8|6,0:2|3:2,0:0:0:0:
56,105,40812,2,0,L|11:117,1,46,0|8,0:0|0:2,0:0:0:0:
112,0,41029,6,0,L|88:193,1,184,6|8,3:2|0:2,0:2:0:0:
210,65,41682,1,2,3:2:0:0:
135,254,41899,2,0,L|150:306,2,46,2|8|0,3:2|0:2|0:0,0:0:0:0:
241,178,42334,1,8,0:2:0:0:
40,254,42551,1,0,3:2:0:0:
215,346,42769,6,0,P|260:327|324:320,1,92,2|0,3:2|0:2,0:2:0:0:
336,148,43203,2,0,P|312:219|305:274,1,92,10|0,0:2|3:2,0:2:0:0:
431,349,43638,1,2,3:2:0:0:
431,349,43747,2,0,P|419:318|407:278,1,46,8|0,0:2|0:2,0:2:0:0:
487,204,44073,5,8,0:2:0:0:
487,204,44182,1,4,0:3:0:0:
487,204,44290,1,8,0:3:0:0:
487,204,44399,1,0,3:2:0:0:
487,204,44508,2,0,P|425:219|381:233,1,92,6|2,3:2|3:2,0:2:0:0:
288,314,44943,2,0,P|226:299|182:285,1,92,2|2,3:2|3:2,0:2:0:0:
119,184,45377,1,0,3:2:0:0:
123,188,45595,1,2,3:2:0:0:
289,73,45812,1,2,3:2:0:0:
293,77,46029,1,2,3:2:0:0:
199,290,46247,5,2,3:2:0:0:
226,155,46464,1,2,3:2:0:0:
328,363,46682,1,2,3:2:0:0:
146,210,46899,1,2,3:2:0:0:
367,139,47116,1,2,3:2:0:0:
193,324,47334,1,2,3:2:0:0:
438,235,47551,5,8,0:0:0:0:
392,230,47659,1,8,0:0:0:0:
353,251,47768,1,8,0:0:0:0:
332,291,47877,1,8,0:0:0:0:
338,336,47986,2,0,L|358:384,2,46,4|2|0,3:2|0:0|0:0,0:0:0:0:
339,126,48421,2,0,L|321:83,2,46,4|2|0,3:2|0:0|0:0,0:0:0:0:
220,255,48856,2,0,L|202:297,2,46,8|2|2,0:0|0:0|0:0,0:0:0:0:
115,187,49290,2,0,B|89:108|89:108|121:22,1,138,8|0,0:0|0:0,0:0:0:0:
171,107,49725,6,0,L|286:77,1,92,4|2,3:2|0:0,0:2:0:0:
298,17,50051,2,0,L|387:40,1,92,2|2,0:0|0:0,0:0:0:0:
443,95,50377,1,2,0:0:0:0:
319,269,50595,6,0,P|277:227|288:173,1,92,2|2,3:2|0:0,0:0:0:0:
364,121,50921,2,0,P|384:176|351:221,1,92,0|2,0:0|0:0,0:0:0:0:
299,289,51247,1,2,0:2:0:0:
179,159,51464,5,2,3:2:0:0:
372,203,51682,1,2,0:0:0:0:
173,359,51899,1,10,0:2:0:0:
276,197,52116,1,2,0:0:0:0:
276,197,52225,1,2,0:0:0:0:
276,197,52334,2,0,L|260:94,1,92,2|2,3:2|0:0,0:0:0:0:
134,274,52769,2,0,L|148:183,1,92,8|0,0:0|0:0,0:0:0:0:
264,278,53203,6,0,B|313:290|313:290|333:317|333:317|393:335,1,138,2|2,3:2|0:0,0:0:0:0:
411,316,53638,1,8,0:0:0:0:
297,200,53856,1,2,0:0:0:0:
462,113,54073,2,0,L|446:184,1,46,2|8,3:2|0:0,0:0:0:0:
372,235,54290,2,0,L|382:190,1,46,2|0,0:0|0:0,0:0:0:0:
331,90,54508,5,10,0:2:0:0:
463,237,54725,1,2,0:0:0:0:
288,305,54943,5,4,3:2:0:0:
288,305,55051,1,2,0:0:0:0:
288,305,55160,2,0,L|219:323,1,46,2|0,0:0|0:0,0:0:0:0:
156,340,55377,2,0,L|144:384,1,46,10|0,0:0|0:0,0:0:0:0:
74,268,55595,2,0,L|62:223,1,46,2|8,0:0|0:0,0:0:0:0:
161,183,55812,5,8,0:0:0:0:
171,196,55921,2,0,L|245:216,1,46,10|0,0:0|0:0,0:0:0:0:
286,124,56138,2,0,L|241:111,1,46,2|0,3:2|0:0,0:0:0:0:
284,280,56356,2,0,L|406:315,1,92,2|8,3:2|0:0,0:0:0:0:
442,278,56682,6,0,P|477:235|465:174,1,92,4|2,3:2|0:0,0:0:0:0:
366,135,57008,2,0,P|401:178|389:239,1,92,2|2,0:2|0:0,0:0:0:0:
321,203,57334,1,2,0:2:0:0:
238,349,57551,6,0,L|162:366,1,46,2|8,3:2|0:0,0:0:0:0:
121,328,57769,1,2,0:0:0:0:
121,328,57877,2,0,L|45:345,1,46,2|8,0:0|0:0,0:0:0:0:
215,208,58203,1,2,0:0:0:0:
121,328,58421,5,4,3:2:0:0:
56,147,58638,1,2,0:2:0:0:
219,315,58856,1,10,0:2:0:0:
45,137,59073,1,2,0:2:0:0:
208,48,59290,6,0,L|187:93,1,46,0|8,3:2|0:0,0:0:0:0:
123,216,59508,1,0,0:0:0:0:
308,157,59725,1,8,0:0:0:0:
103,222,59943,1,0,0:0:0:0:
321,152,60160,6,0,P|344:195|336:250,1,92,4|2,3:2|0:0,0:0:0:0:
281,282,60486,2,0,L|178:306,1,92,2|2,0:0|0:0,0:0:0:0:
219,217,60812,1,2,0:0:0:0:
354,312,61029,1,0,3:2:0:0:
357,315,61138,1,8,0:0:0:0:
361,319,61247,1,2,0:0:0:0:
467,134,61464,1,8,0:0:0:0:
281,282,61682,1,2,0:0:0:0:
410,369,61899,6,0,L|396:249,1,92,4|2,3:2|0:0,0:0:0:0:
399,277,62225,1,2,0:0:0:0:
399,277,62334,1,10,0:0:0:0:
292,156,62551,2,0,P|336:187|386:192,1,92,2|8,0:0|0:0,0:0:0:0:
396,200,62877,2,0,L|386:147,1,46,0|0,3:2|0:0,0:0:0:0:
337,32,63095,2,0,L|328:77,1,46,0|0,3:2|0:0,0:0:0:0:
216,128,63312,1,4,3:2:0:0:
199,114,63421,2,0,L|153:122,1,46,0|2,0:0|0:0,0:0:0:0:
102,221,63638,6,0,L|196:236,1,92,4|0,3:2|0:0,0:0:0:0:
254,286,63964,2,0,L|240:377,1,92,2|0,0:0|0:0,0:0:0:0:
327,346,64290,1,2,0:0:0:0:
262,201,64508,1,8,0:0:0:0:
262,201,64616,1,8,0:0:0:0:
262,201,64725,1,0,3:2:0:0:
262,201,64834,1,0,3:2:0:0:
262,201,64943,2,0,L|255:134,3,46,2|0|2|0,3:2|0:0|3:2|3:2,0:0:0:0:
292,91,65377,6,0,L|436:62,1,138,8|0,0:0|0:0,0:0:0:0:
475,7,65812,2,0,B|446:95|510:69|483:174,1,138,4|0,3:2|0:0,0:0:0:0:
460,210,66247,1,12,0:0:0:0:
386,223,70486,6,0,L|276:251,1,92,4|8,3:2|0:0,0:0:0:0:
296,245,70812,1,8,0:0:0:0:
296,245,70921,1,8,0:0:0:0:
296,245,71029,2,0,L|305:316,3,46,0|0|8|0,3:2|0:0|3:0|3:2,0:0:0:0:
235,336,71464,2,0,L|226:406,3,46,8|0|8|8,0:0|3:2|0:0|0:0,0:0:0:0:
153,358,71899,5,0,3:2:0:0:
126,337,72007,1,0,3:2:0:0:
110,307,72116,1,0,3:2:0:0:
109,274,72225,1,0,3:2:0:0:
122,243,72333,5,2,0:0:0:0:
122,243,72443,2,0,L|175:260,1,46,4|0,3:2|0:0,0:0:0:0:
247,225,72660,5,2,0:0:0:0:
247,225,72769,2,0,L|300:242,1,46,4|0,3:2|0:0,0:0:0:0:
379,202,72986,5,2,0:0:0:0:
383,206,73095,2,0,L|436:223,1,46,4|0,3:2|0:0,0:0:0:0:
502,180,73312,5,8,0:0:0:0:
502,180,73421,1,4,3:2:0:0:
335,43,73638,2,0,P|294:101|327:189,1,138,12|0,0:0|0:0,0:0:0:0:
383,206,74073,5,0,3:2:0:0:
192,88,74399,5,0,3:2:0:0:
206,307,74725,5,8,0:0:0:0:
92,151,75812,5,10,3:2:0:0:
238,200,76138,5,10,3:2:0:0:
384,249,76464,5,8,3:2:0:0:
254,350,76899,5,8,3:0:0:0:
254,350,77008,1,0,3:2:0:0:
254,350,77116,2,0,L|201:334,1,46,0|0,3:2|3:0,0:0:0:0:
349,302,77443,5,0,3:0:0:0:
338,323,77551,1,8,0:0:0:0:
216,154,77877,5,4,3:2:0:0:
438,79,78203,5,4,3:2:0:0:
361,184,78421,5,8,3:2:0:0:
361,184,78529,1,8,3:2:0:0:
361,184,78638,2,0,L|295:205,2,46,0|0|8,3:0|0:0|0:0,0:0:0:0:
463,174,78964,1,8,0:0:0:0:
457,201,79072,1,2,0:0:0:0:
451,229,79181,1,8,0:0:0:0:
444,256,79290,6,0,L|350:284,1,92,4|8,3:2|0:0,0:0:0:0:
308,365,79616,2,0,L|219:338,1,92,4|8,3:2|0:0,0:0:0:0:
123,347,79943,6,0,P|95:310|104:261,1,92,4|8,3:2|0:0,0:0:0:0:
208,233,80269,6,0,P|235:268|230:313,1,92,4|8,3:2|0:0,0:0:0:0:
121,345,80595,6,0,P|93:308|102:259,1,92,4|8,3:2|0:0,0:0:0:0:
206,231,80921,6,0,P|233:266|228:311,1,92,4|8,3:2|0:0,0:0:0:0:
119,343,81247,6,0,P|91:306|100:257,1,92,4|8,3:2|0:0,0:0:0:0:
204,229,81573,6,0,P|231:264|226:309,1,92,4|8,3:2|0:0,0:0:0:0:
195,378,81899,5,4,3:2:0:0:
397,25,83638,6,0,P|447:68|432:143,1,138,4|2,3:2|3:2,0:2:0:0:
420,151,84072,1,8,0:2:0:0:
237,65,84290,1,2,0:2:0:0:
333,187,84507,2,0,L|345:236,1,46,2|8,3:2|0:2,0:0:0:0:
376,333,84724,1,0,0:0:0:0:
420,151,84942,5,10,0:2:0:0:
296,298,85159,1,2,0:2:0:0:
170,212,85377,6,0,L|243:227,1,46,2|0,3:2|0:2,0:2:0:0:
257,148,85594,1,2,0:2:0:0:
257,148,85703,2,0,L|211:138,1,46,2|8,3:2|0:2,0:2:0:0:
110,138,85920,1,2,0:2:0:0:
110,138,86029,2,0,L|100:92,1,46,2|0,3:2|0:2,0:2:0:0:
175,18,86246,5,2,3:2:0:0:
175,18,86355,1,8,0:2:0:0:
175,18,86464,1,8,0:0:0:0:
16,139,86681,1,10,0:2:0:0:
211,138,86898,1,0,0:2:0:0:
84,40,87116,6,0,L|105:139,1,92,2|0,3:2|0:2,0:2:0:0:
103,129,87442,1,2,3:2:0:0:
103,129,87551,1,8,0:2:0:0:
233,108,87768,1,2,3:2:0:0:
140,251,87985,2,0,L|79:238,1,46,2|8,3:2|0:2,0:0:0:0:
7,224,88203,1,2,0:2:0:0:
103,129,88420,5,10,0:2:0:0:
94,323,88638,1,2,3:2:0:0:
229,220,88855,2,0,L|282:212,1,46,12|0,0:2|0:2,0:2:0:0:
336,269,89072,2,0,L|381:262,1,46,12|0,0:2|0:0,0:2:0:0:
456,320,89290,1,0,3:2:0:0:
456,320,89398,2,0,P|481:265|458:215,1,92,12|0,0:2|0:2,0:2:0:0:
435,169,89724,6,0,L|342:180,1,92,4|8,3:2|0:2,0:2:0:0:
290,91,90051,6,0,L|381:102,1,92,4|8,3:2|0:2,0:2:0:0:
432,166,90377,6,0,L|339:177,1,92,4|8,3:2|0:2,0:0:0:0:
287,88,90704,6,0,L|378:99,1,92,4|8,3:2|0:2,0:2:0:0:
429,163,91029,6,0,L|336:174,1,92,4|0,3:2|3:2,0:2:0:0:
289,238,91355,5,4,3:2:0:0:
69,70,92768,5,2,0:2:0:0:
69,70,92985,1,2,0:2:0:0:
150,142,93203,2,0,P|205:124|258:118,1,92,4|0,3:2|0:2,0:2:0:0:
262,90,93529,2,0,P|317:108|370:114,1,92,0|0,0:2|0:2,0:2:0:0:
367,136,93855,2,0,L|346:200,1,46,2|0,0:2|0:2,0:2:0:0:
402,256,94072,6,0,P|435:219|438:169,1,92,2|2,3:2|0:2,0:2:0:0:
459,223,94398,2,0,P|492:260|495:310,1,92,2|2,0:2|0:2,0:0:0:0:
473,337,94724,2,0,L|414:346,1,46,2|2,0:2|0:2,0:0:0:0:
279,295,94942,6,0,L|220:286,2,46,2|0|0,3:2|0:0|0:2,0:2:0:0:
356,262,95268,2,0,L|415:253,2,46,2|0|0,0:2|3:0|0:2,0:2:0:0:
285,204,95594,1,2,0:2:0:0:
240,364,95811,5,2,3:2:0:0:
131,249,96029,1,2,0:2:0:0:
279,295,96246,1,2,3:2:0:0:
279,295,96355,1,0,0:2:0:0:
279,295,96463,1,2,0:2:0:0:
113,368,96681,6,0,P|88:305|94:261,1,92,2|0,3:2|0:2,0:2:0:0:
131,249,97007,2,0,P|152:208|155:162,1,92,2|0,0:2|0:2,0:2:0:0:
133,129,97333,2,0,L|56:145,1,46,2|0,0:2|0:2,0:2:0:0:
30,90,97550,5,2,3:2:0:0:
188,39,97768,1,2,0:2:0:0:
131,249,97985,1,10,0:2:0:0:
0,209,98203,2,0,L|72:191,1,46,2|0,3:2|0:2,0:2:0:0:
239,115,98420,5,2,3:2:0:0:
239,115,98529,2,0,L|145:144,1,92,12|0,0:2|0:2,0:2:0:0:
276,33,98855,1,6,3:2:0:0:
232,195,99072,1,4,3:2:0:0:
394,239,99289,1,4,3:2:0:0:
438,77,99507,2,0,L|446:142,1,46,6|8,3:2|0:2,0:0:0:0:
327,132,99724,1,8,0:2:0:0:
327,132,99833,2,0,L|321:177,1,46,6|0,3:2|0:2,0:2:0:0:
466,261,100050,5,8,0:2:0:0:
466,261,100159,2,0,P|430:307|380:311,1,92,4|8,3:2|0:0,0:0:0:0:
387,338,100485,1,0,3:2:0:0:
360,301,100593,1,8,3:0:0:0:
319,280,100702,1,4,3:0:0:0:
274,282,100811,6,0,P|249:290|211:313,1,46,2|8,0:0|3:2,0:0:0:0:
127,302,101029,2,0,P|114:325|104:368,2,46,0|8|0,3:2|0:0|0:0,0:0:0:0:
210,201,101355,2,0,P|199:180|193:158,2,46,0|8|0,3:2|3:0|0:0,0:0:0:0:
252,322,101681,2,0,P|272:332|294:340,1,46,2|8,0:0|0:0,0:0:0:0:
96,218,101898,6,0,P|58:243|43:304,1,92,8|0,3:2|0:0,0:0:0:0:
181,369,102224,1,2,0:0:0:0:
181,369,102333,2,0,P|143:344|128:283,1,92,0|8,3:2|0:0,0:0:0:0:
210,201,102659,1,2,0:0:0:0:
210,201,102768,2,0,L|304:214,1,92,8|0,0:0|0:0,0:0:0:0:
411,158,103203,5,8,0:0:0:0:
418,137,103311,1,8,0:0:0:0:
425,116,103420,1,8,0:0:0:0:
432,95,103529,1,8,0:0:0:0:
437,73,103637,2,0,L|336:95,1,92,8|0,3:2|3:2,0:0:0:0:
211,18,104072,2,0,L|191:107,1,92,8|0,0:0|3:2,0:0:0:0:
301,213,104507,1,8,0:0:0:0:
301,213,104724,1,0,3:2:0:0:
123,289,104942,1,8,0:0:0:0:
123,289,105159,1,0,3:2:0:0:
287,366,105376,5,12,0:2:0:0:
145,281,105594,1,0,0:0:0:0:
251,140,105811,1,8,0:0:0:0:
206,346,106029,1,0,3:2:0:0:
62,195,106246,1,8,0:0:0:0:
297,292,106463,1,0,3:2:0:0:
99,351,106681,5,12,0:0:0:0:
95,305,106789,1,2,0:0:0:0:
92,259,106898,1,2,0:0:0:0:
89,213,107007,1,2,3:2:0:0:
86,167,107116,2,0,L|81:91,2,46,12|0|0,0:0|0:0|0:0,0:0:0:0:
214,274,107550,2,0,L|209:350,2,46,12|0|2,0:0|0:0|0:0,0:0:0:0:
285,183,107985,6,0,P|253:177|223:143,2,61.3333333333333,12|2|2,0:0|0:1|0:1,0:0:0:0:
425,215,108420,1,8,0:0:0:0:
437,183,108528,1,8,0:0:0:0:
449,151,108637,1,8,0:0:0:0:
461,119,108745,1,8,0:0:0:0:
474,88,108855,6,0,L|432:-6,1,92,4|2,3:2|0:0,3:2:0:0:
376,67,109181,2,0,L|255:86,1,92,2|2,0:0|0:0,0:0:0:0:
221,33,109507,1,2,0:0:0:0:
151,165,109724,6,0,L|98:156,1,46,2|8,3:2|0:0,0:0:0:0:
28,62,109942,1,2,0:0:0:0:
28,62,110050,2,0,L|37:115,1,46,0|8,0:0|0:0,0:0:0:0:
0,260,110376,1,2,0:2:0:0:
140,87,110594,5,2,3:2:0:0:
206,303,110811,1,2,0:0:0:0:
85,173,111029,1,10,0:2:0:0:
290,232,111246,1,2,0:0:0:0:
134,370,111463,6,0,L|80:356,1,46,2|2,3:2|0:0,0:0:0:0:
3,337,111681,1,2,0:0:0:0:
183,207,111898,1,8,0:0:0:0:
136,371,112116,1,0,0:0:0:0:
183,207,112333,6,0,P|157:135|177:73,1,138,2|2,3:2|0:0,0:0:0:0:
202,57,112768,1,10,3:2:0:0:
354,161,112985,1,2,0:0:0:0:
237,136,113203,2,0,L|292:112,1,46,2|8,3:2|0:0,0:0:0:0:
425,126,113420,2,0,L|382:144,1,46,2|0,0:0|0:0,0:0:0:0:
293,232,113637,5,10,0:2:0:0:
347,63,113855,1,2,0:0:0:0:
423,227,114072,1,4,3:2:0:0:
423,227,114181,1,2,0:0:0:0:
423,227,114289,2,0,L|441:269,1,46,2|0,0:0|0:0,0:0:0:0:
431,296,114507,2,0,L|449:338,1,46,10|0,0:0|0:0,0:0:0:0:
304,265,114724,2,0,L|322:307,1,46,2|8,0:0|0:0,0:0:0:0:
241,356,114942,5,8,0:0:0:0:
233,368,115050,2,0,P|208:379|173:378,1,46,10|0,0:0|0:0,0:0:0:0:
110,247,115268,2,0,P|132:249|153:259,1,46,2|0,3:2|0:0,0:0:0:0:
54,306,115485,2,0,P|27:266|42:203,1,92,2|8,3:2|0:0,0:0:0:0:
82,166,115811,6,0,L|181:138,1,92,4|2,3:2|0:0,0:0:0:0:
215,80,116137,2,0,L|303:105,1,92,2|2,0:2|0:0,0:0:0:0:
370,69,116463,1,2,0:2:0:0:
261,182,116681,6,0,L|276:248,1,46,2|8,3:2|0:0,0:0:0:0:
351,278,116898,1,2,0:0:0:0:
351,278,117007,2,0,L|340:322,1,46,2|10,0:0|0:0,0:0:0:0:
414,180,117333,1,2,0:0:0:0:
263,303,117550,5,4,3:2:0:0:
165,190,117768,1,2,0:2:0:0:
350,276,117985,1,10,0:2:0:0:
148,182,118203,1,2,0:2:0:0:
317,106,118420,6,0,L|296:180,1,46,0|8,3:2|0:0,0:0:0:0:
268,274,118637,1,0,0:0:0:0:
209,99,118855,1,8,0:0:0:0:
382,39,119072,1,0,0:0:0:0:
357,192,119289,6,0,L|252:173,1,92,4|2,3:2|0:0,0:0:0:0:
243,204,119616,2,0,L|257:276,1,46,2|8,0:0|0:0,0:0:0:0:
177,127,119833,1,2,0:0:0:0:
177,127,119942,2,0,L|168:81,1,46,2|0,0:0|0:0,0:0:0:0:
129,242,120159,5,0,3:2:0:0:
129,242,120268,1,8,0:0:0:0:
129,242,120376,1,10,0:0:0:0:
26,144,120594,1,8,0:0:0:0:
196,142,120811,1,2,0:0:0:0:
101,361,121029,6,0,L|85:265,1,92,4|2,3:2|0:0,0:0:0:0:
85,270,121355,1,2,0:0:0:0:
85,270,121463,1,10,0:0:0:0:
214,163,121681,2,0,P|237:225|228:268,1,92,2|8,0:0|0:0,0:0:0:0:
244,276,122007,2,0,L|180:260,1,46,0|0,3:2|0:0,0:0:0:0:
134,141,122224,2,0,L|178:129,1,46,0|0,3:2|0:0,0:0:0:0:
269,18,122442,1,4,3:2:0:0:
285,30,122550,2,0,L|273:74,1,46,0|2,0:0|0:0,0:0:0:0:
330,155,122768,6,0,P|363:120|362:61,1,92,4|0,3:2|0:0,0:0:0:0:
441,251,123202,1,8,0:0:0:0:
367,77,123420,1,2,0:0:0:0:
323,274,123637,5,8,0:0:0:0:
481,147,123855,1,0,3:2:0:0:
437,371,124072,6,0,L|416:287,1,46,2|0,3:2|0:0,0:0:0:0:
356,160,124289,2,0,L|367:204,1,46,2|0,3:2|0:0,0:0:0:0:
281,351,124507,6,0,P|204:342|186:135,1,294.4,4|8,3:2|0:2,0:2:0:0:
261,80,125811,1,4,0:3:0:0:
223,239,126029,1,0,0:0:0:0:
40,174,126246,2,0,P|110:160|173:135,2,110.4,4|4|0,3:2|0:3|3:2,0:2:0:0:
100,48,127116,2,0,P|140:55|195:70,1,73.6,8|4,0:2|0:3,0:0:0:0:
172,62,127442,1,8,0:3:0:0:
172,62,127550,1,4,0:3:0:0:
283,58,127768,1,0,0:0:0:0:
334,154,127985,6,0,P|387:102|386:13,1,147.2,4|0,3:2|0:0,0:2:0:0:
462,168,128637,2,0,P|482:203|488:238,1,73.6,0|8,3:2|0:2,0:0:0:0:
395,306,129072,2,0,L|431:297,2,36.8,8|8|8,0:2|0:2|0:2,0:0:0:0:
301,344,129398,2,0,L|337:354,2,36.8,0|0|0,3:2|3:2|3:2,0:0:0:0:
241,264,129724,6,0,P|187:293|180:367,1,110.4,4|0,3:2|0:2,0:2:0:0:
170,257,130159,2,0,P|116:228|109:154,1,110.4,0|0,3:2|0:2,0:2:0:0:
164,128,130594,2,0,L|223:114,3,36.8,8|0|0|0,0:2|3:2|3:2|3:2,0:0:0:0:
287,60,131029,1,8,0:2:0:0:
283,77,131137,1,8,0:2:0:0:
280,94,131246,1,8,0:2:0:0:
276,111,131355,1,8,0:2:0:0:
275,131,131463,6,0,P|295:187|296:285,1,147.2,4|10,3:2|0:2,0:2:0:0:
241,342,132116,1,2,0:2:0:0:
378,235,132333,1,2,3:2:0:0:
378,235,132442,2,0,L|441:213,1,36.8,10|0,0:2|0:2,0:2:0:0:
394,363,132659,1,2,0:2:0:0:
394,363,132768,2,0,L|331:341,1,36.8,8|0,0:2|0:0,0:2:0:0:
222,268,132985,1,0,0:2:0:0:
318,102,133203,5,0,3:2:0:0:
318,102,133311,2,0,L|311:156,1,36.8,0|2,0:2|0:2,0:0:0:0:
188,192,133528,1,0,0:2:0:0:
188,192,133637,2,0,L|192:155,1,36.8,10|0,0:2|0:2,0:2:0:0:
127,61,133855,1,2,0:2:0:0:
137,257,134072,1,2,3:2:0:0:
137,257,134181,1,10,0:2:0:0:
137,257,134289,2,0,L|72:243,1,36.8,0|2,0:2|3:2,0:0:0:0:
78,224,134507,2,0,L|13:238,3,36.8,10|0|0|0,0:2|0:2|3:2|3:2,0:2:0:0:
11,211,134942,5,4,3:2:0:0:
176,105,135159,1,0,3:2:0:0:
101,249,135376,1,0,3:2:0:0:
252,324,135594,1,0,3:2:0:0:
257,164,135811,1,0,3:2:0:0:
116,347,136029,1,0,3:2:0:0:
116,347,136137,1,0,3:2:0:0:
116,347,136246,1,0,3:2:0:0:
331,243,136463,1,0,3:2:0:0:
134,109,136681,5,4,3:2:0:0:
134,109,137116,5,4,3:2:0:0:
134,109,137550,5,4,3:2:0:0:
134,109,137985,5,4,3:2:0:0:
134,109,138420,5,4,3:2:0:0:
134,109,138855,5,4,3:2:0:0:
256,192,139289,12,8,139942,0:2:0:0:
340,101,140159,5,4,3:2:0:0:
340,101,140268,1,8,0:2:0:0:
340,101,140376,2,0,L|327:165,1,46,10|2,0:2|0:2,0:0:0:0:
227,181,140594,1,2,3:2:0:0:
227,181,140703,1,8,3:2:0:0:
227,181,140811,2,0,L|243:249,1,46,8|0,0:0|3:2,0:0:0:0:
337,284,141029,6,0,L|371:297,5,30.6666666666667,2|0|0|10|2|2,3:2|0:0|0:0|0:0|0:0|0:0,0:0:0:0:
418,258,141463,6,0,L|365:271,1,46,2|2,3:2|3:2,0:0:0:0:
313,360,141681,2,0,L|237:344,1,46,10|2,0:0|0:0,0:0:0:0:
161,224,141898,2,0,P|133:278|153:325,1,92,6|8,3:2|0:0,0:0:0:0:
222,283,142224,1,2,0:0:0:0:
226,270,142333,2,0,L|240:216,1,46,0|0,3:2|3:2,0:0:0:0:
327,208,142550,2,0,L|313:154,1,46,8|2,0:0|3:2,0:0:0:0:
184,134,142768,5,10,0:2:0:0:
184,134,142876,1,8,3:2:0:0:
184,134,142985,2,0,L|139:122,1,46,10|2,0:0|0:0,0:0:0:0:
289,68,143203,2,0,L|333:79,1,46,0|0,3:2|3:2,0:0:0:0:
202,20,143420,2,0,L|157:31,1,46,8|2,0:0|0:0,0:0:0:0:
395,29,143637,6,0,P|416:88|390:143,1,92,4|8,3:2|0:0,0:0:0:0:
342,179,143963,1,2,0:0:0:0:
342,179,144072,2,0,L|246:199,1,92,2|8,3:2|0:0,0:0:0:0:
192,256,144398,1,2,3:2:0:0:
192,256,144507,2,0,L|96:236,1,92,2|8,0:0|0:0,0:0:0:0:
30,185,144833,1,2,0:0:0:0:
30,185,144942,2,0,P|24:139|44:99,1,92,2|10,3:2|0:0,0:0:0:0:
110,59,145268,1,2,0:0:0:0:
110,59,145376,5,12,0:0:0:0:
36,281,145811,5,12,0:0:0:0:
266,234,146246,5,12,0:0:0:0:
164,315,146572,5,8,0:0:0:0:
164,315,146681,2,0,L|234:333,1,46,12|8,0:0|0:0,0:0:0:0:
292,371,146898,5,8,0:0:0:0:
311,366,147007,1,8,0:0:0:0:
329,360,147116,2,0,P|359:297|341:259,1,92,4|8,3:2|0:0,0:0:0:0:
221,171,147550,1,0,3:2:0:0:
393,73,147768,1,8,0:0:0:0:
335,263,147985,2,0,L|322:207,3,46,2|2|10|2,0:0|3:2|0:0|0:0,0:0:0:0:
307,190,148420,2,0,L|320:134,1,46,0|0,3:2|0:0,0:0:0:0:
240,43,148637,2,0,L|250:87,1,46,8|0,0:2|0:0,0:0:0:0:
203,194,148855,5,2,3:2:0:0:
81,256,149072,1,8,0:0:0:0:
21,76,149289,1,0,3:2:0:0:
221,171,149507,1,8,0:0:0:0:
94,324,149724,5,8,0:0:0:0:
94,324,149833,2,0,L|82:256,1,46,8|0,0:0|0:0,0:0:0:0:
123,135,150050,2,0,L|130:180,1,46,8|8,0:0|0:2,0:0:0:0:
240,336,150268,2,0,L|232:290,1,46,2|8,3:2|0:0,0:0:0:0:
331,240,150485,2,0,L|376:247,1,46,4|0,3:2|0:0,0:0:0:0:
439,191,150702,6,0,L|484:183,2,46,4|2|2,3:2|0:0|0:0,0:0:0:0:
349,152,151029,2,0,L|303:159,2,46,4|0|8,3:2|0:0|0:0,0:0:0:0:
421,100,151355,2,0,L|466:92,2,46,4|0|0,3:2|0:0|3:2,0:0:0:0:
325,62,151681,2,0,L|279:69,2,46,4|0|0,3:2|0:0|3:2,0:0:0:0:
402,7,152007,2,0,L|447:0,2,46,4|0|0,3:2|0:0|3:2,0:0:0:0:
279,69,152333,5,8,0:0:0:0:
244,39,152441,1,0,3:2:0:0:
199,29,152550,1,0,3:2:0:0:
155,41,152659,2,0,L|175:103,2,46,8|0|0,0:0|0:0|3:2,0:0:0:0:
92,104,152985,2,0,L|112:166,2,46,8|0|0,0:0|0:0|3:2,0:0:0:0:
29,167,153311,2,0,L|49:229,2,46,8|0|0,0:0|0:0|3:2,0:0:0:0:
128,239,153637,2,0,L|113:282,2,46,8|0|0,0:0|0:0|3:2,0:0:0:0:
194,288,153963,5,0,3:2:0:0:
194,288,154072,1,2,3:2:0:0:
351,206,154289,1,0,3:2:0:0:
267,175,154507,1,8,0:0:0:0:
267,175,154616,2,0,P|261:227|291:272,1,92,2|0,3:2|3:2,0:0:0:0:
360,295,154942,5,8,0:0:0:0:
185,180,155159,1,0,3:2:0:0:
371,91,155376,1,8,0:0:0:0:
371,91,155485,2,0,L|355:189,1,92,0|0,3:2|3:2,0:0:0:0:
418,235,155811,1,8,0:0:0:0:
285,116,156029,5,12,3:2:0:0:
421,17,156246,1,8,0:0:0:0:
337,255,156463,1,8,0:0:0:0:
177,85,156681,1,8,0:0:0:0:
177,85,157116,6,0,L|217:68,5,30.6666666666667,2|2|2|2|2|2,0:0|0:0|0:0|0:0|0:0|0:0,0:0:0:0:
223,45,157550,5,4,3:2:0:0:
56,317,164507,6,0,P|110:300|151:275,1,92,4|8,3:2|0:3,0:2:0:0:
158,307,164833,2,0,P|212:324|253:349,1,92,4|0,0:3|0:2,0:0:0:0:
274,328,165159,2,0,L|297:265,1,46,8|8,0:3|0:3,0:0:0:0:
300,169,165376,1,4,0:3:0:0:
293,183,165485,2,0,L|230:206,1,46,0|8,0:0|0:3,0:0:0:0:
148,166,165702,1,8,0:3:0:0:
141,152,165811,2,0,L|78:129,1,46,4|0,0:3|0:2,0:2:0:0:
246,84,166029,1,8,0:3:0:0:
145,262,166246,6,0,L|162:323,3,46,4|0|4|8,3:2|0:0|0:3|0:3,0:2:0:0:
242,337,166681,2,0,L|255:382,3,46,4|0|8|8,0:3|0:2|0:3|0:3,0:2:0:0:
329,333,167116,5,4,3:2:0:0:
417,189,167333,1,8,0:3:0:0:
237,313,167550,1,4,0:3:0:0:
417,345,167768,1,8,0:3:0:0:
417,345,167876,1,8,0:3:0:0:
417,345,167985,6,0,L|407:292,3,46,4|0|8|8,3:2|0:3|0:2|0:2,0:0:0:0:
366,226,168420,2,0,L|376:173,3,46,0|0|8|8,3:2|0:2|0:2|0:2,0:0:0:0:
436,115,168855,2,0,L|426:62,3,46,0|0|8|8,3:2|0:3|0:2|0:2,0:0:0:0:
344,100,169289,1,0,3:2:0:0:
318,130,169397,1,8,0:2:0:0:
284,149,169506,1,8,0:2:0:0:
245,155,169615,1,8,0:2:0:0:
207,147,169723,1,0,3:2:0:0:
258,64,169942,6,0,L|244:5,2,46,8|8|0,0:2|0:2|3:2,0:0:0:0:
131,190,170376,1,8,0:2:0:0:
10,131,170594,1,0,3:2:0:0:
173,73,170811,1,8,0:2:0:0:
173,73,170920,1,8,0:2:0:0:
173,73,171029,1,0,3:2:0:0:
60,249,171246,2,0,L|2:267,1,46,0|0,3:2|3:2,0:0:0:0:
126,304,171463,5,0,3:0:0:0:
126,304,171572,2,0,L|241:329,1,92,12|0,0:0|3:2,0:0:0:0:
297,237,171898,6,0,L|207:217,1,92,12|0,0:0|3:2,0:0:0:0:
142,338,172224,6,0,L|257:363,1,92,12|0,0:0|0:0,0:0:0:0:
336,343,172550,1,0,3:2:0:0:
336,343,172659,1,0,3:2:0:0:
336,343,172768,2,0,L|347:375,6,23,10|2|2|2|2|2|2,0:0|0:0|0:0|0:0|0:0|0:0|0:0,0:0:0:0:
402,292,173202,6,0,P|431:242|435:188,1,110.399996630859,6|10,3:2|0:2,0:2:0:0:
318,118,173529,2,0,P|347:168|351:222,1,110.399996630859,2|2,3:2|3:2,0:2:0:0:
272,268,173855,1,10,0:2:0:0:
107,125,174072,6,0,L|219:96,1,110.399996630859,2|10,3:2|0:2,0:0:0:0:
107,47,174398,2,0,L|-5:18,1,110.399996630859,2|2,3:2|3:2,0:0:0:0:
135,152,174724,1,10,0:2:0:0:
237,23,174942,5,2,3:2:0:0:
29,149,175159,1,10,0:2:0:0:
241,259,175376,1,2,3:2:0:0:
133,337,175594,1,10,0:2:0:0:
133,337,175702,1,0,3:2:0:0:
133,337,175811,2,0,P|120:272|108:216,1,110.399996630859,2|10,0:2|0:2,0:0:0:0:
294,195,176246,2,0,P|238:205|203:268,1,110.399996630859,2|8,3:2|0:2,0:2:0:0:
368,271,176681,6,0,B|384:180|297:216|318:105,1,165.599994946289,2|0,3:2|3:0,0:2:0:0:
326,88,177116,1,2,3:2:0:0:
280,269,177333,1,10,0:2:0:0:
445,145,177550,2,0,L|362:133,1,55.1999983154297,2|2,3:2|0:2,0:0:0:0:
253,75,177768,2,0,L|336:63,1,55.1999983154297,10|0,0:2|3:2,0:2:0:0:
398,14,177985,5,2,0:2:0:0:
242,175,178202,1,10,0:2:0:0:
389,255,178420,1,4,3:2:0:0:
389,255,178529,1,0,3:0:0:0:
389,255,178637,2,0,L|377:338,1,55.1999983154297,10|0,0:2|0:2,0:2:0:0:
301,322,178855,2,0,L|308:376,1,55.1999983154297,2|0,3:2|0:2,0:2:0:0:
210,259,179072,2,0,L|155:251,1,55.1999983154297,10|0,0:2|3:2,0:0:0:0:
81,363,179289,5,8,0:2:0:0:
97,375,179398,2,0,L|151:367,1,55.1999983154297,10|0,0:2|0:2,0:2:0:0:
192,236,179616,2,0,L|137:228,1,55.1999983154297,2|0,3:2|0:0,0:2:0:0:
37,266,179833,2,0,P|9:221|33:160,1,110.399996630859,2|0,3:2|3:2,0:2:0:0:
101,124,180159,6,0,L|212:140,1,110.399996630859,6|10,3:2|0:2,0:2:0:0:
300,65,180485,2,0,L|189:49,1,110.399996630859,2|2,3:2|3:2,0:2:0:0:
294,153,180811,1,10,0:2:0:0:
378,104,181029,6,0,L|393:27,1,55.1999983154297,2|2,3:2|0:2,0:0:0:0:
495,152,181246,1,10,0:2:0:0:
495,152,181355,2,0,L|480:75,1,55.1999983154297,2|0,3:2|0:2,0:0:0:0:
361,230,181681,1,10,0:2:0:0:
507,295,181898,5,2,3:2:0:0:
417,175,182116,1,10,0:2:0:0:
317,365,182333,1,2,3:2:0:0:
423,288,182550,1,10,0:2:0:0:
423,288,182659,1,8,0:2:0:0:
423,288,182768,2,0,L|353:303,1,55.1999983154297,10|0,0:2|0:0,0:2:0:0:
300,345,182985,2,0,L|246:333,1,55.1999983154297,8|0,0:2|0:0,0:2:0:0:
191,258,183202,2,0,L|179:204,1,55.1999983154297,10|0,0:2|0:0,0:2:0:0:
113,324,183420,2,0,L|101:377,1,55.1999983154297,8|0,0:2|0:0,0:2:0:0:
31,255,183637,6,0,P|4:208|35:137,1,110.399996630859,4|10,3:2|0:2,0:2:0:0:
78,95,183963,1,2,3:2:0:0:
78,95,184072,2,0,P|105:142|74:213,1,110.399996630859,0|10,0:2|0:2,0:0:0:0:
7,34,184507,1,2,3:2:0:0:
171,98,184724,1,10,0:2:0:0:
1,242,184942,1,2,3:2:0:0:
171,98,185159,1,10,0:2:0:0:
99,339,185376,6,0,P|144:358|221:354,1,110.399996630859,4|10,3:2|0:2,0:0:0:0:
204,358,185702,1,2,0:2:0:0:
204,358,185811,1,2,3:2:0:0:
316,269,186029,2,0,P|361:250|438:254,1,110.399996630859,10|8,0:2|0:2,0:0:0:0:
456,273,186355,2,0,L|431:191,1,55.1999983154297,0|0,3:2|0:0,0:2:0:0:
364,92,186572,2,0,L|347:144,1,55.1999983154297,0|0,3:2|0:0,0:2:0:0:
253,223,186789,1,4,3:2:0:0:
236,210,186898,2,0,L|183:226,1,55.1999983154297,0|2,0:2|3:2,0:0:0:0:
79,97,187116,6,0,B|116:108|116:108|131:126|131:126|189:144,1,110.399996630859,6|8,3:2|0:2,0:2:0:0:
176,141,187442,1,2,3:2:0:0:
176,141,187550,1,0,3:2:0:0:
24,184,187768,1,10,0:2:0:0:
180,63,187985,1,2,3:2:0:0:
111,282,188202,1,10,0:2:0:0:
247,344,188420,2,0,P|283:335|323:328,1,55.1999983154297,2|0,3:2|0:0,0:2:0:0:
436,203,188637,2,0,P|408:208|382:215,1,55.1999983154297,10|0,0:2|0:2,0:2:0:0:
347,384,188855,6,0,L|314:221,1,138,12|0,0:2|0:2,0:2:0:0:
287,177,189289,2,0,P|235:161|206:257,1,138,12|0,0:2|0:2,0:2:0:0:
141,292,189724,6,0,L|75:278,2,61.3333333333333,8|0|0,0:2|3:2|3:2,0:2:0:0:
189,220,190159,2,0,L|255:206,2,61.3333333333333,8|8|8,0:2|0:2|0:2,0:0:0:0:
103,175,190594,2,0,L|80:63,1,110.399996630859,6|0,3:2|0:2,0:2:0:0:
80,66,190920,1,2,3:2:0:0:
80,66,191029,1,8,0:2:0:0:
60,257,191246,1,2,3:2:0:0:
200,141,191463,6,0,L|185:58,3,55.1999983154297,10|0|2|0,0:2|0:2|3:2|0:2,0:2:0:0:
244,18,191898,1,10,0:2:0:0:
260,55,192006,1,2,0:2:0:0:
290,82,192115,1,2,3:2:0:0:
328,95,192224,1,2,3:2:0:0:
368,90,192333,6,0,P|436:63|503:165,1,165.599994946289,6|0,3:2|0:0,0:0:0:0:
429,146,192768,2,0,P|372:161|274:214,1,165.599994946289,4|0,3:2|0:0,0:0:0:0:
205,188,193202,1,12,3:2:0:0:
400,360,193637,5,8,0:2:0:0:
395,343,193746,1,8,0:2:0:0:
390,326,193855,1,8,0:2:0:0:
385,309,193963,1,8,0:2:0:0:
379,290,194072,2,0,P|338:321|294:335,1,92,6|10,0:2|0:2,0:2:0:0:
228,375,194398,2,0,P|184:359|148:331,1,92,2|2,3:2|3:2,0:2:0:0:
69,323,194724,1,10,0:2:0:0:
69,323,194833,1,8,0:0:0:0:
69,323,194942,2,0,L|53:263,1,46,0|0,0:2|3:2,0:0:0:0:
159,153,195159,5,10,0:2:0:0:
75,249,195376,1,2,3:2:0:0:
42,97,195594,1,10,0:2:0:0:
202,231,195811,2,0,P|249:216|304:203,1,92,2|8,3:2|0:2,0:2:0:0:
234,143,196137,2,0,P|190:128|145:117,1,92,2|2,3:2|3:2,0:2:0:0:
309,82,196463,1,10,0:2:0:0:
393,198,196681,6,0,P|432:159|433:113,1,92,2|8,3:2|0:2,0:0:0:0:
350,32,197007,2,0,P|331:83|349:125,1,92,2|2,3:2|3:2,0:2:0:0:
434,45,197333,1,10,0:2:0:0:
303,209,197550,1,2,3:2:0:0:
284,212,197658,1,2,0:2:0:0:
265,216,197767,1,10,0:2:0:0:
246,220,197876,1,2,3:2:0:0:
226,225,197985,2,0,L|163:237,2,46,0|2|10,0:2|3:2|0:2,0:0:0:0:
210,127,198311,2,0,L|255:135,2,46,0|0|0,0:2|0:2|3:2,0:2:0:0:
138,68,198637,5,10,0:2:0:0:
138,68,198746,1,10,0:2:0:0:
138,68,198855,1,2,3:2:0:0:
73,137,199072,1,10,0:2:0:0:
137,218,199289,2,0,P|149:283|156:330,1,92,2|8,3:2|0:2,0:2:0:0:
226,382,199616,2,0,P|233:336|241:291,1,92,2|0,3:2|3:2,0:0:0:0:
305,247,199942,1,10,0:2:0:0:
432,336,200159,5,8,0:2:0:0:
445,345,200268,2,0,L|399:353,1,46,10|0,0:2|0:2,0:2:0:0:
444,249,200485,2,0,L|489:240,1,46,2|0,3:2|0:0,0:2:0:0:
320,222,200702,2,0,L|274:213,2,46,2|0|0,3:2|3:0|3:2,0:2:0:0:
393,130,201029,6,0,L|506:109,1,92,6|8,3:2|0:2,0:2:0:0:
507,91,201355,1,2,0:2:0:0:
507,91,201463,1,2,3:2:0:0:
387,37,201681,1,8,0:2:0:0:
475,220,201898,2,0,L|493:292,1,46,2|0,0:2|0:0,0:2:0:0:
343,329,202116,1,10,0:2:0:0:
343,329,202224,2,0,L|354:284,1,46,2|0,0:2|3:2,0:2:0:0:
269,182,202442,1,10,3:2:0:0:
269,182,202550,2,0,L|224:193,1,46,10|0,0:2|0:2,0:2:0:0:
78,126,202768,6,0,L|192:104,1,92,2|8,3:2|0:2,0:2:0:0:
224,193,203094,2,0,L|202:307,1,92,2|2,3:2|3:2,0:2:0:0:
258,347,203420,1,10,0:2:0:0:
84,266,203637,1,10,0:2:0:0:
84,266,203746,1,8,0:0:0:0:
84,266,203855,2,0,L|148:250,1,46,8|8,3:2|0:0,0:2:0:0:
232,201,204072,1,10,0:2:0:0:
232,201,204181,1,8,0:0:0:0:
232,201,204288,2,0,L|296:217,1,46,8|8,0:2|0:0,0:2:0:0:
380,264,204507,6,0,L|362:196,3,46,12|0|8|0,0:2|3:0|3:2|3:0,0:2:0:0:
327,143,204942,2,0,L|345:75,3,46,8|0|8|0,0:2|3:0|0:2|3:0,0:0:0:0:
268,43,205376,2,0,L|224:55,3,46,8|0|8|0,0:2|3:0|0:2|3:0,0:2:0:0:
113,17,205811,1,8,0:2:0:0:
109,30,205920,1,8,0:0:0:0:
107,44,206029,2,0,L|93:93,1,46,10|0,0:2|0:0,0:2:0:0:
32,193,206246,5,10,0:2:0:0:
61,175,206354,1,8,0:0:0:0:
94,171,206463,1,8,0:2:0:0:
127,180,206572,1,8,0:0:0:0:
153,201,206681,2,0,P|179:232|210:243,3,46,8|0|10|0,0:2|3:0|0:2|3:0,0:2:0:0:
199,313,207116,2,0,P|239:316|269:302,3,46,10|0|10|0,0:2|3:0|0:2|3:0,0:2:0:0:
337,372,207550,2,0,P|368:346|379:315,3,46,10|0|10|0,0:2|3:2|0:2|3:0,0:2:0:0:
464,287,207985,5,0,3:2:0:0:
446,279,208094,2,0,B|405:252|407:192,1,92,12|0,0:2|3:2,0:2:0:0:
431,124,208420,2,0,B|428:173|375:201,1,92,12|0,0:2|3:2,0:2:0:0:
305,215,208746,2,0,B|348:192|399:224,1,92,12|0,0:2|3:2,0:2:0:0:
341,291,209072,5,12,0:2:0:0:
341,291,209289,5,0,3:2:0:0:
341,291,209507,5,0,3:2:0:0:
241,214,209724,5,0,3:2:0:0:
238,202,209833,2,0,L|220:100,1,92,12|0,0:2|3:2,0:2:0:0:
155,62,210159,2,0,L|139:152,1,92,12|0,0:2|3:2,0:2:0:0:
72,202,210485,2,0,L|56:111,1,92,12|0,0:2|3:2,0:2:0:0:
44,35,210811,5,12,3:2:0:0:
44,35,211029,5,0,3:2:0:0:
44,35,211246,5,0,3:2:0:0:
139,152,211463,5,0,3:2:0:0:
150,155,211572,2,0,L|215:168,2,46,14|2|0,0:2|0:2|3:2,0:0:0:0:
54,217,211898,2,0,L|-11:230,2,46,14|2|0,0:2|0:2|3:2,0:0:0:0:
146,260,212224,2,0,L|211:273,2,46,12|2|0,0:2|0:2|3:2,0:2:0:0:
29,339,212550,5,12,0:2:0:0:
29,339,212768,5,0,3:2:0:0:
29,339,212985,5,0,3:2:0:0:
138,370,213202,6,0,P|164:354|205:348,1,55.1999983154297,12|0,0:2|0:2,0:2:0:0:
214,243,213420,2,0,P|243:250|276:274,1,55.1999983154297,8|0,0:2|0:0,0:2:0:0:
357,383,213637,1,8,0:2:0:0:
341,375,213746,2,0,P|317:338|328:302,1,55.1999983154297,8|0,0:2|0:2,0:2:0:0:
324,171,213927,6,0,P|395:225|385:320,1,183.999994384766,12|0,0:2|3:2,0:2:0:0:
397,115,214507,5,12,0:2:0:0:
256,192,214616,12,0,221463,3:2:0:0:
