osu file format v14

[General]
AudioFilename: audio.mp3
AudioLeadIn: 0
PreviewTime:172333
Countdown: 0
SampleSet: Soft
StackLeniency: 0.4
Mode: 0
LetterboxInBreaks: 0
WidescreenStoryboard: 1

[Editor]
Bookmarks: 1030,20160,49725,83638,100159,108855,140159,157550,173202,194072,214507,221463
DistanceSpacing: 1
BeatDivisor: 6
GridSize: 32
TimelineZoom: 2.599999

[Metadata]
Title:Jinsei Easy?
TitleUnicode:人生イージー?
Artist:DIALOGUE+
ArtistUnicode:DIALOGUE+
Creator:Amateurre
Version:LV.10 Kuse's Hard
Source:弱キャラ友崎くん
Tags:anime japanese pop j-pop jpop opening jaku chara tomozaki kun bottom tier character tomozaki-kun iljaaz keqing finshie kuse KuBsNia_ZhoYL_ winnie yogurtt lecandy asagi tsukinyuni matha petal
BeatmapID:3125449
BeatmapSetID:1507979

[Difficulty]
HPDrainRate:4
CircleSize:3.5
OverallDifficulty:7
ApproachRate:8
SliderMultiplier:1.6
SliderTickRate:1

[Events]
//Background and Video events
0,0,"DoqxyrCVAAAO5X.jpg",0,0
//Break Periods
2,67208,69736
2,157750,163757
//Storyboard Layer 0 (Background)
//Storyboard Layer 1 (Fail)
//Storyboard Layer 2 (Pass)
//Storyboard Layer 3 (Foreground)
//Storyboard Layer 4 (Overlay)
//Storyboard Sound Samples

[TimingPoints]
1030,434.782608695652,4,2,1,60,1,0
1030,-111.111111111111,4,2,1,60,0,0
6247,-111.111111111111,4,2,1,70,0,0
6356,-90.9090909090909,4,2,1,70,0,0
7986,-111.111111111111,4,2,1,70,0,0
13203,-90.9090909090909,4,2,1,75,0,0
20160,-111.111111111111,4,2,1,60,0,0
27116,-100,4,2,1,70,0,0
34073,-111.111111111111,4,2,1,70,0,0
41029,-100,4,2,1,70,0,0
49290,-90.9090909090909,4,2,1,70,0,0
49725,-83.3333333333333,4,2,1,80,0,1
67008,-83.3333333333333,4,2,1,65,0,0
70486,-111.111111111111,4,2,1,65,0,0
72443,-90.9090909090908,4,2,1,70,0,0
74073,-111.111111111111,4,2,1,70,0,0
83638,434.782608695652,4,2,1,70,1,0
83638,-100,4,2,1,70,0,0
93203,434.782608695652,4,2,1,70,1,0
93203,-100,4,2,1,70,0,0
108855,-83.3333333333333,4,2,1,80,0,1
124507,-111.111111111111,4,2,1,65,0,0
131463,-100,4,2,1,70,0,0
137442,-100,4,2,1,70,0,0
137550,-100,4,2,1,70,0,0
137876,-100,4,2,1,70,0,0
137984,-100,4,2,1,70,0,0
138311,-100,4,2,1,70,0,0
138419,-100,4,2,1,70,0,0
138746,-100,4,2,1,70,0,0
138854,-100,4,2,1,70,0,0
139181,-100,4,2,1,70,0,0
139289,-100,4,2,1,70,0,0
140159,217.391304347826,4,2,1,75,1,0
140159,-181.818181818182,4,2,1,75,0,0
157550,434.782608695652,4,2,1,60,1,0
164507,-111.111111111111,4,2,1,70,0,0
171463,-90.9090909090909,4,2,1,70,0,0
173202,217.391304347826,4,2,1,80,1,1
173202,-166.666666666667,4,2,1,80,0,1
188855,-181.818181818182,4,2,1,80,0,1
190594,-166.666666666667,4,2,1,80,0,1
194071,-166.666666666667,4,2,1,70,0,0
204506,-166.666666666667,4,2,1,70,0,1
208093,-166.666666666667,4,2,1,70,0,0

[Colours]
Combo1 : 255,166,166
Combo2 : 130,219,77
Combo3 : 255,108,108
Combo4 : 164,255,164

[HitObjects]
79,218,1030,6,0,P|86:274|96:306,1,71.9999978027344,2|2,0:0|0:0,0:0:0:0:
182,270,1464,2,0,P|178:234|170:199,1,71.9999978027344,2|2,0:0|0:0,0:0:0:0:
216,117,1899,2,0,P|264:119|304:129,1,71.9999978027344,2|2,0:0|0:2,0:0:0:0:
332,137,2225,1,8,0:3:0:0:
332,137,2334,2,0,L|343:98,3,35.9999989013672,8|8|8|4,0:0|0:0|3:0|0:3,0:0:0:0:
383,80,2769,6,0,P|418:66|462:65,1,71.9999978027344,10|2,0:0|0:0,0:0:0:0:
477,153,3203,2,0,P|442:167|398:168,1,71.9999978027344,2|2,0:0|0:0,0:0:0:0:
329,220,3638,2,0,P|318:269|307:316,1,71.9999978027344,2|0,0:0|3:2,0:0:0:0:
280,323,3964,1,8,0:3:0:0:
280,323,4073,2,0,L|219:319,3,35.9999989013672,8|8|8|8,0:0|0:0|3:0|3:0,0:0:0:0:
211,286,4508,6,0,P|204:237|198:204,1,71.9999978027344,6|2,3:2|3:2,0:0:0:0:
167,126,4943,2,0,L|120:117,2,35.9999989013672,10|8|8,0:0|0:0|0:0,0:0:0:0:
238,65,5377,1,8,3:2:0:0:
292,141,5595,1,0,3:2:0:0:
319,131,5703,1,8,3:0:0:0:
391,71,5921,2,0,P|443:80|495:120,1,107.999996704102,8|8,3:0|0:0,0:0:0:0:
511,158,6356,6,0,P|497:214|490:269,1,88.000002685547,6|10,3:2|0:0,0:0:0:0:
453,272,6682,2,0,P|407:253|349:244,1,88.000002685547,4|8,3:2|0:0,0:0:0:0:
335,279,7008,2,0,P|293:296|227:294,1,88.000002685547,4|8,3:2|0:0,0:0:0:0:
212,268,7334,2,0,L|217:218,1,44.0000013427735,0|0,3:2|3:2,0:0:0:0:
194,180,7551,2,0,P|129:176|110:239,1,132.00000402832,12|0,0:0|0:0,0:0:0:0:
122,276,7986,5,6,3:2:0:0:
192,328,8856,1,4,3:2:0:0:
270,277,9725,1,4,3:2:0:0:
350,322,10595,1,4,3:2:0:0:
415,260,11029,2,0,P|408:216|399:175,1,71.9999978027344,2|0,3:2|0:0,0:0:0:0:
386,144,11356,1,0,0:0:0:0:
386,144,11464,6,0,P|340:161|259:201,2,107.999996704102,14|14|14,0:0|0:0|3:2,0:0:0:0:
418,58,12334,1,14,3:2:0:0:
341,3,12551,1,2,3:2:0:0:
272,67,12769,1,8,0:0:0:0:
245,55,12877,1,8,0:0:0:0:
217,47,12986,1,8,0:0:0:0:
189,38,13095,1,8,0:0:0:0:
155,28,13203,6,0,P|169:79|182:148,1,88.000002685547,6|2,3:2|0:0,0:0:0:0:
93,188,13638,2,0,P|65:233|88:287,1,88.000002685547,8|2,0:0|0:0,0:0:0:0:
106,296,13964,2,0,P|151:284|192:278,1,88.000002685547,2|8,0:0|0:0,0:0:0:0:
237,281,14290,1,2,0:0:0:0:
302,197,14508,1,10,0:0:0:0:
392,270,14725,1,2,0:0:0:0:
392,270,14834,1,2,0:0:0:0:
392,270,14943,6,0,P|444:285|510:305,1,88.000002685547,4|2,3:2|0:0,0:0:0:0:
509,194,15377,1,8,0:0:0:0:
422,149,15595,1,2,0:0:0:0:
409,158,15703,2,0,P|400:103|393:63,1,88.000002685547,2|8,0:0|0:0,0:0:0:0:
378,20,16029,1,2,0:0:0:0:
313,104,16247,1,10,0:0:0:0:
224,46,16464,1,2,0:0:0:0:
224,46,16573,1,0,0:2:0:0:
224,46,16682,6,0,P|166:63|117:89,1,88.000002685547,4|2,3:2|0:2,0:0:0:0:
112,118,17008,2,0,P|124:181|130:223,1,88.000002685547,2|0,0:0|0:0,0:0:0:0:
111,309,17443,2,0,P|162:306|198:280,1,88.000002685547,2|8,0:0|0:0,0:0:0:0:
229,243,17769,2,0,L|221:187,1,44.0000013427735,2|0,0:0|0:0,0:0:0:0:
262,158,17986,2,0,P|310:169|359:185,1,88.000002685547,8|2,3:2|0:0,0:0:0:0:
400,200,18312,1,2,3:2:0:0:
465,293,18529,6,0,P|414:315|369:308,1,88.000002685547,4|2,3:2|0:0,0:0:0:0:
328,292,18856,2,0,P|286:311|293:377,1,88.000002685547,4|8,3:2|0:0,0:0:0:0:
228,379,19182,2,0,P|175:372|130:358,1,88.000002685547,4|2,3:2|0:0,0:0:0:0:
88,342,19508,1,4,3:2:0:0:
196,265,19725,2,0,P|205:194|213:117,1,132.00000402832,12|0,0:0|0:0,0:0:0:0:
186,94,20160,6,0,P|135:107|119:150,1,71.9999978027344,6|0,3:2|0:2,0:0:0:0:
102,211,20595,2,0,P|73:248|28:243,1,71.9999978027344,0|2,3:2|0:2,0:0:0:0:
40,344,21029,2,0,P|113:358|157:369,1,107.999996704102,2|0,3:2|0:0,0:0:0:0:
191,376,21464,2,0,P|229:375|260:354,1,71.9999978027344,2|0,3:2|0:0,0:0:0:0:
264,263,21899,6,0,P|280:199|291:160,1,71.9999978027344,2|0,3:2|0:2,0:0:0:0:
364,134,22334,2,0,P|357:85|349:49,1,71.9999978027344,0|2,3:0|0:2,0:0:0:0:
270,17,22769,1,2,3:2:0:0:
233,103,22986,1,2,0:2:0:0:
145,70,23203,2,0,P|95:59|48:51,1,71.9999978027344,2|0,3:2|0:2,0:0:0:0:
4,117,23638,6,0,P|12:166|18:197,1,71.9999978027344,2|0,3:2|0:2,0:0:0:0:
102,224,24073,2,0,P|155:212|185:209,1,71.9999978027344,0|2,3:0|0:2,0:0:0:0:
257,249,24508,1,2,3:2:0:0:
347,226,24725,1,2,0:2:0:0:
331,324,24943,1,10,0:2:0:0:
331,324,25051,1,8,0:2:0:0:
331,324,25160,1,0,3:2:0:0:
433,271,25377,6,0,P|440:214|446:177,1,71.9999978027344,12|0,0:2|3:2,0:0:0:0:
473,164,25703,2,0,P|468:126|461:86,1,71.9999978027344,12|0,0:2|3:2,0:0:0:0:
424,65,26029,2,0,P|386:82|357:99,1,71.9999978027344,12|0,0:2|3:2,0:0:0:0:
315,81,26356,2,0,P|272:69|231:63,1,71.9999978027344,12|0,0:2|3:2,0:0:0:0:
201,83,26682,1,12,0:2:0:0:
109,63,26899,1,8,0:2:0:0:
88,176,27116,6,0,P|142:189|205:212,2,120,6|2|2,3:2|3:2|3:2,0:0:0:0:
11,233,27986,1,2,3:2:0:0:
2,248,28095,2,0,P|15:290|32:332,1,80,8|0,0:2|0:2,0:0:0:0:
73,338,28421,2,0,P|113:322|147:305,1,80,10|0,0:2|0:2,0:0:0:0:
240,323,28856,6,0,P|287:333|316:381,1,80,2|0,3:2|0:2,0:0:0:0:
355,350,29182,2,0,P|361:293|360:253,1,80,2|0,3:2|0:2,0:0:0:0:
336,228,29508,1,2,3:2:0:0:
288,144,29725,1,2,3:2:0:0:
299,124,29834,2,0,P|347:131|390:143,1,80,8|0,0:2|0:2,0:0:0:0:
414,169,30160,2,0,P|461:161|500:143,1,80,10|0,0:2|0:2,0:0:0:0:
474,243,30595,6,0,P|463:284|457:376,2,120,2|2|2,3:2|3:2|3:2,0:0:0:0:
378,244,31464,1,2,3:2:0:0:
370,266,31573,2,0,P|326:258|278:250,1,80,8|0,0:2|3:2,0:0:0:0:
243,243,31899,1,10,0:2:0:0:
263,336,32116,1,2,3:2:0:0:
151,273,32334,5,12,0:2:0:0:
59,301,32551,1,12,3:2:0:0:
31,207,32769,1,0,3:2:0:0:
38,183,32877,2,0,P|84:189|122:201,1,80,12|0,0:2|0:0,0:0:0:0:
154,170,33203,1,4,3:2:0:0:
154,170,34073,6,0,P|167:125|193:44,2,107.999996704102,4|0|0,3:2|3:2|3:2,0:0:0:0:
218,238,34943,2,0,P|256:229|298:223,1,71.9999978027344,8|4,0:2|0:3,0:0:0:0:
335,229,35269,1,4,0:3:0:0:
335,229,35377,1,4,0:3:0:0:
438,102,35812,6,0,P|424:56|389:-24,2,107.999996704102,4|0|0,3:2|3:2|3:2,0:0:0:0:
484,183,36682,2,0,P|440:196|406:189,1,71.9999978027344,8|4,0:2|0:3,0:0:0:0:
371,174,37008,1,4,0:3:0:0:
371,174,37116,1,4,0:3:0:0:
241,38,37551,6,0,P|254:96|303:124,2,107.999996704102,4|0|0,3:2|3:2|3:2,0:0:0:0:
157,81,38421,2,0,P|137:141|110:163,1,71.9999978027344,8|4,0:2|0:3,0:0:0:0:
94,174,38747,1,0,3:2:0:0:
58,169,38856,2,0,L|1:162,3,35.9999989013672,8|8|8|0,0:2|0:2|0:2|3:0,0:0:0:0:
49,249,39399,6,0,P|99:257|145:257,1,71.9999978027344,4|8,3:2|0:2,0:0:0:0:
163,238,39725,1,4,3:2:0:0:
192,327,39943,1,4,3:2:0:0:
280,297,40160,1,4,3:2:0:0:
248,209,40377,2,0,P|277:183|326:192,1,71.9999978027344,6|8,3:2|0:2,0:0:0:0:
347,208,40703,2,0,P|369:233|417:233,1,71.9999978027344,6|8,3:2|0:2,0:0:0:0:
449,219,41029,6,0,P|484:269|425:345,1,160,6|8,3:2|0:2,0:0:0:0:
336,306,41682,1,2,3:2:0:0:
251,366,41899,1,2,3:2:0:0:
231,352,42008,2,0,P|239:305|254:264,1,80,8|2,0:2|3:2,0:0:0:0:
267,225,42334,1,8,0:2:0:0:
166,211,42551,1,0,3:2:0:0:
238,138,42769,6,0,P|288:126|344:123,1,80,2|0,3:2|3:0,0:0:0:0:
362,30,43203,2,0,P|298:12|263:10,1,80,10|0,0:2|3:2,0:0:0:0:
185,31,43638,1,2,3:2:0:0:
173,58,43747,2,0,P|137:87|86:82,1,80,8|2,0:2|3:2,0:0:0:0:
64,121,44073,2,0,L|71:183,3,40,8|4|8|0,0:2|0:3|0:3|3:2,0:0:0:0:
76,208,44508,5,6,3:2:0:0:
90,302,44725,1,2,3:2:0:0:
183,319,44943,1,2,3:2:0:0:
229,235,45160,1,2,3:2:0:0:
162,165,45377,2,0,P|174:115|185:76,1,80,0|2,3:2|3:2,0:0:0:0:
273,57,45812,2,0,P|283:95|292:134,1,80,2|2,3:2|3:2,0:0:0:0:
365,197,46247,5,2,3:2:0:0:
456,168,46464,1,2,3:2:0:0:
512,244,46682,1,2,3:2:0:0:
457,323,46899,1,2,3:2:0:0:
364,293,47116,2,0,P|324:325|294:352,1,80,2|2,3:2|3:2,0:0:0:0:
218,292,47551,1,8,0:0:0:0:
213,260,47660,1,8,0:0:0:0:
206,228,47769,1,8,0:0:0:0:
200,196,47877,1,8,0:0:0:0:
193,164,47986,6,0,P|238:174|262:180,2,40,4|2|2,3:2|0:0|0:0,0:0:0:0:
114,108,48421,2,0,L|69:117,2,40,4|2|2,3:2|0:0|0:0,0:0:0:0:
178,36,48856,2,0,P|224:18|271:74,1,120,8|2,0:0|0:0,0:0:0:0:
297,101,49290,2,0,P|363:117|416:57,1,132.00000402832,8|0,0:0|0:0,0:0:0:0:
453,96,49725,6,0,P|471:153|511:250,2,143.999995605469,4|2|2,3:2|0:2|0:0,0:0:0:0:
379,183,50595,2,0,P|349:277|336:353,2,143.999995605469,2|0|2,3:2|3:0|0:2,0:0:0:0:
297,101,51464,5,2,3:2:0:0:
187,136,51682,1,2,0:0:0:0:
230,242,51899,1,10,0:2:0:0:
120,277,52116,1,2,0:0:0:0:
58,179,52334,2,0,P|72:120|86:76,1,95.9999970703126,2|2,3:2|0:0,0:0:0:0:
187,136,52769,2,0,P|251:133|290:58,1,143.999995605469,8|2,0:0|0:0,0:0:0:0:
327,39,53203,6,0,P|382:50|426:60,1,95.9999970703126,2|2,3:2|0:0,0:0:0:0:
456,90,53529,2,0,P|438:145|427:193,1,95.9999970703126,2|0,0:0|0:0,0:0:0:0:
438,229,53856,1,2,0:0:0:0:
456,322,54073,1,2,3:2:0:0:
360,333,54290,1,2,0:0:0:0:
343,238,54508,1,10,0:2:0:0:
252,259,54725,1,2,0:0:0:0:
252,259,54834,1,0,0:0:0:0:
252,259,54943,5,4,3:2:0:0:
153,266,55160,2,0,P|101:261|57:252,2,95.9999970703126,2|10|2,0:0|0:0|0:0,0:0:0:0:
198,181,55812,1,8,0:0:0:0:
205,157,55921,1,10,0:0:0:0:
164,70,56138,1,2,3:2:0:0:
253,35,56356,2,0,P|311:50|324:111,1,95.9999970703126,2|8,3:2|0:0,0:0:0:0:
361,111,56682,6,0,P|419:99|512:49,2,143.999995605469,4|2|2,3:2|0:2|0:2,0:0:0:0:
303,187,57551,2,0,P|315:248|332:295,1,95.9999970703126,2|2,3:2|0:0,0:0:0:0:
369,301,57877,2,0,P|422:282|479:274,1,95.9999970703126,2|2,0:0|0:0,0:0:0:0:
508,268,58203,1,2,0:0:0:0:
437,176,58421,5,4,3:2:0:0:
478,68,58638,1,2,0:2:0:0:
367,33,58856,1,10,0:2:0:0:
256,0,59073,1,2,0:2:0:0:
296,107,59290,1,0,3:2:0:0:
303,128,59399,2,0,P|239:130|186:90,1,95.9999970703126,8|2,0:0|0:0,0:0:0:0:
167,136,59725,2,0,P|145:191|177:262,1,95.9999970703126,8|0,0:0|0:0,0:0:0:0:
250,304,60160,6,0,P|326:285|398:269,1,143.999995605469,4|2,3:2|0:0,0:0:0:0:
420,233,60595,2,0,P|393:192|319:210,1,95.9999970703126,8|2,0:0|0:0,0:0:0:0:
255,207,61029,1,0,3:2:0:0:
250,304,61247,1,2,0:0:0:0:
156,326,61464,1,8,0:0:0:0:
103,245,61682,1,2,0:0:0:0:
167,173,61899,6,0,P|177:128|184:68,1,95.9999970703126,4|2,3:2|0:0,0:0:0:0:
187,34,62225,1,0,0:0:0:0:
187,34,62334,1,10,0:0:0:0:
265,89,62551,1,2,0:0:0:0:
352,48,62769,1,8,0:0:0:0:
375,54,62877,1,0,3:2:0:0:
452,111,63095,1,0,3:2:0:0:
391,185,63312,2,0,P|386:236|387:291,1,95.9999970703126,4|2,3:2|0:0,0:0:0:0:
388,328,63638,6,0,P|338:292|253:301,1,143.999995605469,4|2,3:2|0:0,0:0:0:0:
221,328,64073,2,0,P|175:361|127:357,1,95.9999970703126,8|2,0:0|0:0,0:0:0:0:
64,287,64508,2,0,P|55:257|48:228,3,47.9999985351563,8|8|0|0,0:0|0:0|3:2|3:2,0:0:0:0:
82,204,64943,1,2,3:2:0:0:
85,175,65051,1,0,3:2:0:0:
88,146,65160,1,2,3:2:0:0:
91,117,65269,1,0,3:2:0:0:
95,88,65377,5,8,0:0:0:0:
318,76,65812,1,4,3:2:0:0:
265,260,66247,1,12,0:0:0:0:
221,72,66682,2,0,P|277:80|298:142,1,95.9999970703126
297,158,67008,5,2,0:0:0:0:
422,178,70486,6,0,P|437:230|427:266,1,71.9999978027344,4|8,3:2|0:0,0:0:0:0:
420,279,70812,1,8,0:0:0:0:
388,296,70921,1,8,0:0:0:0:
353,287,71029,2,0,P|321:274|288:268,3,35.9999989013672,0|0|8|0,3:2|3:0|3:0|3:2,0:0:0:0:
285,262,71464,2,0,P|253:276|227:293,3,35.9999989013672,8|0|8|8,0:0|3:2|0:0|0:0,0:0:0:0:
222,256,71898,2,0,P|227:220|232:198,3,35.9999989013672,0|0|0|0,3:2|3:2|3:2|3:0,0:0:0:0:
147,119,72443,6,0,P|108:129|48:149,1,88.000002685547,4|2,3:2|0:0,0:0:0:0:
18,180,72769,2,0,P|28:237|37:282,1,88.000002685547,4|2,3:2|0:0,0:0:0:0:
77,304,73095,2,0,P|123:294|139:249,1,88.000002685547,4|8,3:2|0:0,0:0:0:0:
149,203,73421,1,4,3:2:0:0:
243,288,73638,2,0,P|314:266|393:245,1,132.00000402832,12|0,0:0|0:0,0:0:0:0:
423,231,74073,6,0,P|435:181|446:121,2,107.999996704102,0|0|8,3:2|3:2|0:0,0:0:0:0:
426,324,74943,2,0,P|481:312|511:217,1,143.999995605469,2|2,0:0|0:0,0:0:0:0:
359,134,75812,6,0,P|296:120|226:110,2,107.999996704102,10|10|8,3:2|3:2|3:2,0:0:0:0:
448,163,76682,1,2,0:0:0:0:
377,221,76899,1,8,3:0:0:0:
377,221,77008,1,0,3:2:0:0:
377,221,77116,2,0,L|366:274,3,35.9999989013672,0|0|0|0,3:2|3:2|3:2|3:2,0:0:0:0:
331,276,77551,6,0,P|279:262|231:255,1,71.9999978027344,8|8,0:0|0:0,0:0:0:0:
219,248,77877,2,0,P|203:201|195:167,1,71.9999978027344,4|8,3:2|0:0,0:0:0:0:
185,137,78203,1,4,3:2:0:0:
257,89,78421,2,0,P|264:50|274:12,1,71.9999978027344,8|0,3:2|3:0,0:0:0:0:
347,61,78856,1,8,0:0:0:0:
381,51,78964,1,8,0:0:0:0:
415,41,79073,1,10,0:0:0:0:
449,30,79182,1,8,0:0:0:0:
484,24,79290,6,0,L|465:117,1,71.9999978027344,4|8,3:2|0:0,0:0:0:0:
440,126,79616,2,0,P|392:139|357:154,1,71.9999978027344,4|8,3:2|0:0,0:0:0:0:
348,184,79943,6,0,P|358:229|369:259,1,71.9999978027344,4|8,3:2|0:0,0:0:0:0:
343,289,80269,2,0,P|297:304|257:320,1,71.9999978027344,4|8,3:2|0:0,0:0:0:0:
237,291,80595,2,0,P|227:246|216:216,1,71.9999978027344,4|8,3:2|0:0,0:0:0:0:
242,185,80921,2,0,P|288:170|328:154,1,71.9999978027344,4|8,3:2|0:0,0:0:0:0:
348,184,81247,2,0,P|358:229|369:259,1,71.9999978027344,4|8,3:2|0:0,0:0:0:0:
343,289,81573,2,0,P|297:304|257:320,1,71.9999978027344,4|8,3:2|0:0,0:0:0:0:
237,291,81899,1,4,3:2:0:0:
237,291,83638,6,0,P|183:304|120:327,2,120,4|2|2,3:2|3:2|0:2,0:0:0:0:
304,222,84508,1,2,3:2:0:0:
280,212,84617,2,0,P|266:163|259:107,1,80,8|0,0:2|0:2,0:0:0:0:
276,89,84942,1,10,0:2:0:0:
208,20,85159,1,2,0:2:0:0:
165,106,85377,6,0,P|126:118|86:125,1,80,2|2,3:2|0:2,0:0:0:0:
51,157,85703,2,0,P|71:200|126:196,1,80,2|2,3:2|0:2,0:0:0:0:
147,200,86029,1,2,3:2:0:0:
234,240,86247,1,2,3:2:0:0:
250,219,86356,2,0,P|286:200|331:182,1,80,8|0,0:2|0:2,0:0:0:0:
361,212,86681,2,0,P|349:263|331:307,1,80,10|0,0:2|0:2,0:0:0:0:
407,356,87116,6,0,P|465:336|530:328,2,120,2|2|2,3:2|3:2|3:2,0:0:0:0:
314,383,87986,1,2,3:2:0:0:
304,367,88095,2,0,P|260:358|212:351,1,80,8|0,0:2|3:2,0:0:0:0:
177,350,88421,1,10,0:2:0:0:
197,256,88638,1,2,3:2:0:0:
116,198,88856,5,12,0:2:0:0:
96,104,89073,1,12,0:2:0:0:
187,132,89290,1,0,3:2:0:0:
203,146,89399,2,0,P|249:140|287:128,1,80,12|0,0:2|0:2,0:0:0:0:
323,108,89724,2,0,P|342:56|361:13,1,80,4|8,3:2|0:2,0:0:0:0:
399,27,90051,2,0,P|428:62|459:112,1,80,4|8,3:2|0:2,0:0:0:0:
434,137,90377,6,0,P|395:148|356:152,1,80,4|8,3:2|0:2,0:0:0:0:
331,193,90703,2,0,P|360:221|382:253,1,80,4|8,3:2|0:2,0:0:0:0:
431,249,91029,2,0,P|440:209|457:173,1,80,4|0,3:2|3:2,0:0:0:0:
434,137,91355,1,4,3:2:0:0:
407,145,93203,6,0,P|449:179|422:298,1,160,4|0,3:2|3:0,0:0:0:0:
359,321,93855,1,2,0:2:0:0:
280,266,94072,2,0,P|290:220|301:185,1,80,2|2,3:2|0:2,0:0:0:0:
270,150,94398,2,0,P|211:159|168:184,1,80,2|2,0:2|0:2,0:0:0:0:
156,198,94724,1,2,0:2:0:0:
186,289,94942,6,0,P|132:296|58:214,1,160,2|0,3:2|3:0,0:0:0:0:
89,38,95811,2,0,P|105:88|114:119,1,80,2|2,3:2|0:2,0:0:0:0:
205,140,96246,2,0,P|216:101|228:63,1,80,2|2,3:2|0:2,0:0:0:0:
316,24,96681,6,0,P|359:37|398:45,1,80,2|0,3:2|0:2,0:0:0:0:
431,73,97007,2,0,P|421:131|411:160,1,80,2|0,0:2|0:2,0:0:0:0:
395,195,97333,1,2,0:2:0:0:
300,180,97550,2,0,P|308:231|319:261,1,80,2|2,3:2|0:2,0:0:0:0:
238,312,97985,2,0,P|224:262|211:227,1,80,10|2,0:2|3:2,0:0:0:0:
121,210,98420,5,2,3:2:0:0:
112,234,98529,2,0,P|73:252|29:267,1,80,12|0,0:2|0:2,0:0:0:0:
16,307,98855,2,0,P|61:319|111:340,1,80,6|4,3:2|3:2,0:0:0:0:
175,377,99289,1,4,3:2:0:0:
243,309,99507,2,0,P|258:264|272:230,1,80,6|8,3:2|0:2,0:0:0:0:
245,192,99833,2,0,P|230:147|216:113,1,80,6|8,3:2|0:2,0:0:0:0:
195,74,100159,6,0,L|138:68,3,40,4|0|8|0,3:2|0:0|0:0|3:2,0:0:0:0:
114,95,100594,2,0,P|100:142|89:221,1,120,8|8,3:0|3:2,0:0:0:0:
126,243,101029,2,0,L|173:232,3,40,0|8|0|0,3:2|0:0|0:0|3:2,0:0:0:0:
210,219,101463,2,0,P|252:226|324:249,1,80,8|2,3:0|0:0,0:0:0:0:
333,219,101789,1,8,0:0:0:0:
333,219,101898,6,0,P|329:164|320:123,1,80,8|0,3:2|0:0,0:0:0:0:
415,109,102333,2,0,P|423:174|432:213,1,80,0|8,3:2|0:0,0:0:0:0:
502,247,102768,2,0,L|494:296,1,40,8|8,0:0|0:0,0:0:0:0:
463,322,102985,2,0,L|418:308,1,40,0|8,0:0|0:0,0:0:0:0:
376,307,103203,2,0,P|339:329|312:360,1,80,8|8,0:0|0:0,0:0:0:0:
220,338,103637,6,0,L|152:353,3,40,8|0|0|0,3:2|3:2|3:2|3:2,0:0:0:0:
137,326,104072,2,0,L|128:279,3,40,8|0|0|0,0:0|3:2|3:2|3:2,0:0:0:0:
156,247,104507,2,0,L|218:237,3,40,8|0|0|0,0:0|3:2|3:2|3:2,0:0:0:0:
229,206,104942,2,0,L|219:150,3,40,8|0|0|0,0:0|3:2|3:2|3:2,0:0:0:0:
211,120,105376,6,0,L|220:72,3,40,12|2|2|2,0:2|3:2|3:2|0:0,0:0:0:0:
261,58,105811,2,0,L|309:66,3,40,8|0|0|0,0:0|3:2|3:2|3:2,0:0:0:0:
348,70,106246,2,0,L|398:53,3,40,8|0|0|0,0:0|3:2|3:2|3:2,0:0:0:0:
431,41,106681,1,12,0:0:0:0:
426,76,106789,1,0,3:0:0:0:
420,111,106898,1,0,3:0:0:0:
415,146,107007,1,0,3:2:0:0:
405,180,107116,6,0,P|352:186|310:159,1,80,12|0,0:0|0:0,0:0:0:0:
259,242,107550,2,0,P|221:229|182:237,1,80,12|2,0:0|0:0,0:0:0:0:
96,280,107985,2,0,L|115:146,1,120,12|0,0:0|0:0,0:0:0:0:
118,113,108420,2,0,P|143:117|166:130,3,40,8|8|8|8,0:0|0:0|0:0|0:0,0:0:0:0:
194,151,108855,6,0,P|263:145|299:64,2,143.999995605469,4|2|2,3:2|0:0|0:0,0:0:0:0:
242,255,109724,2,0,P|279:300|380:281,2,143.999995605469,2|0|2,3:2|3:0|0:2,0:0:0:0:
156,333,110594,5,2,3:2:0:0:
41,319,110811,1,2,0:0:0:0:
59,204,111029,1,10,0:2:0:0:
172,219,111246,1,2,0:0:0:0:
237,124,111463,1,2,3:2:0:0:
213,117,111572,2,0,P|190:74|172:24,1,95.9999970703126,2|2,0:0|0:0,0:0:0:0:
128,13,111898,2,0,P|62:20|49:96,1,143.999995605469,8|2,0:0|0:0,0:0:0:0:
80,119,112333,6,0,P|134:106|191:100,1,95.9999970703126,2|2,3:2|0:0,0:0:0:0:
213,117,112659,2,0,P|259:128|307:135,1,95.9999970703126,2|0,0:0|0:0,0:0:0:0:
353,120,112985,1,2,0:0:0:0:
388,214,113203,1,2,3:2:0:0:
480,188,113420,1,2,0:0:0:0:
512,285,113637,1,10,0:2:0:0:
427,320,113855,1,2,0:0:0:0:
427,320,113963,1,2,0:0:0:0:
427,320,114072,5,4,3:2:0:0:
335,347,114289,2,0,P|276:331|214:322,2,95.9999970703126,2|10|2,0:0|0:0|0:0,0:0:0:0:
343,250,114942,1,8,0:0:0:0:
334,229,115050,1,10,0:0:0:0:
372,140,115268,1,2,3:2:0:0:
291,87,115485,2,0,P|234:116|224:185,1,95.9999970703126,2|8,3:2|0:0,0:0:0:0:
185,174,115811,6,0,P|113:186|68:103,2,143.999995605469,4|2|2,3:2|0:2|0:2,0:0:0:0:
236,255,116681,2,0,P|282:235|340:239,1,95.9999970703126,2|2,3:2|0:0,0:0:0:0:
365,264,117007,2,0,P|408:284|469:274,1,95.9999970703126,2|0,0:0|0:0,0:0:0:0:
497,256,117333,1,2,0:0:0:0:
423,167,117550,5,4,3:2:0:0:
451,54,117768,1,2,0:2:0:0:
340,82,117985,1,10,0:2:0:0:
228,113,118203,1,2,0:2:0:0:
299,202,118420,1,0,3:2:0:0:
316,220,118529,2,0,P|277:248|224:254,1,95.9999970703126,8|2,0:0|0:0,0:0:0:0:
189,229,118855,2,0,P|136:212|80:217,1,95.9999970703126,8|0,0:0|0:0,0:0:0:0:
14,121,119289,6,0,P|58:50|137:71,1,143.999995605469,4|2,3:2|0:0,0:0:0:0:
152,75,119724,2,0,L|142:122,2,47.9999985351563,8|2|2,0:0|0:0|0:0,0:0:0:0:
227,16,120158,1,0,3:2:0:0:
297,82,120376,1,2,0:0:0:0:
229,149,120593,1,8,0:0:0:0:
304,209,120811,1,2,0:0:0:0:
370,139,121029,6,0,P|423:117|470:108,1,95.9999970703126,4|2,3:2|0:0,0:0:0:0:
511,119,121354,1,0,0:0:0:0:
511,119,121463,1,10,0:0:0:0:
493,213,121680,1,2,0:0:0:0:
472,307,121898,1,8,0:0:0:0:
449,301,122006,1,0,3:2:0:0:
395,221,122224,1,0,3:2:0:0:
363,311,122442,2,0,P|318:353|255:328,1,95.9999970703126,4|2,3:2|0:0,0:0:0:0:
249,321,122768,6,0,P|261:257|283:181,1,143.999995605469,4|2,3:2|0:0,0:0:0:0:
291,134,123202,2,0,P|223:128|195:170,1,95.9999970703126,8|2,0:0|0:0,0:0:0:0:
152,223,123637,2,0,P|117:220|69:208,3,47.9999985351563,8|8|0|0,0:0|0:0|3:2|3:2,0:0:0:0:
70,206,124072,1,8,0:0:0:0:
66,234,124181,1,0,3:2:0:0:
62,262,124289,1,0,3:2:0:0:
58,290,124398,1,0,3:2:0:0:
58,311,124507,6,0,P|117:370|204:277,1,215.999993408203,4|0,3:2|3:2,0:0:0:0:
186,203,125376,2,0,P|220:158|267:182,1,107.999996704102,8|0,0:2|0:2,0:0:0:0:
285,209,125811,2,0,P|331:211|354:183,1,71.9999978027344,4|0,0:3|0:0,0:0:0:0:
441,156,126246,6,0,P|430:217|419:290,2,107.999996704102,4|0|0,3:2|3:2|3:2,0:0:0:0:
372,81,127116,2,0,P|322:78|293:61,1,71.9999978027344,8|4,0:2|0:3,0:0:0:0:
264,35,127442,1,4,0:3:0:0:
264,35,127550,1,4,0:3:0:0:
140,194,127985,6,0,P|183:179|201:98,2,107.999996704102,4|0|0,3:2|3:2|3:2,0:0:0:0:
60,256,128855,2,0,P|65:304|76:348,1,71.9999978027344,8|8,0:2|0:2,0:0:0:0:
112,354,129181,1,8,0:2:0:0:
112,354,129289,2,0,P|146:336|177:336,1,35.9999989013672,8|0,0:2|3:2,0:0:0:0:
190,356,129507,2,0,P|214:368|243:366,1,35.9999989013672,0|0,3:2|3:2,0:0:0:0:
266,343,129724,6,0,P|313:323|390:305,1,107.999996704102,4|0,3:2|0:2,0:0:0:0:
407,277,130159,2,0,P|413:240|418:187,1,71.9999978027344,0|0,3:2|0:0,0:0:0:0:
324,124,130594,6,0,B|271:131|285:179|223:184,1,107.999996704102,8|0,0:2|3:2,0:0:0:0:
193,155,131029,2,0,L|199:113,1,35.9999989013672,8|8,0:2|0:2,0:0:0:0:
210,41,131246,1,8,0:2:0:0:
210,41,131355,1,8,0:2:0:0:
210,41,131463,6,0,P|150:42|106:126,1,160,4|10,3:2|0:2,0:0:0:0:
137,213,132116,1,2,0:2:0:0:
69,280,132333,1,2,3:2:0:0:
62,298,132442,2,0,P|93:326|136:334,1,80,10|2,0:2|0:2,0:0:0:0:
173,352,132768,2,0,P|188:314|207:268,1,80,8|0,0:2|0:2,0:0:0:0:
267,206,133203,5,0,3:2:0:0:
341,266,133420,1,2,0:2:0:0:
418,209,133637,1,10,0:2:0:0:
395,115,133855,1,2,0:2:0:0:
294,105,134072,1,2,3:2:0:0:
280,124,134181,2,0,P|238:119|200:113,1,80,10|2,0:2|3:2,0:0:0:0:
160,108,134507,2,0,P|141:149|133:187,1,80,10|0,0:2|3:2,0:0:0:0:
165,219,134833,1,0,3:2:0:0:
165,219,134942,5,4,3:2:0:0:
165,219,135376,2,0,P|208:226|245:243,1,80,0|0,3:2|3:2,0:0:0:0:
210,332,135811,2,0,P|167:325|130:308,1,80,0|0,3:2|3:2,0:0:0:0:
69,238,136246,1,0,3:2:0:0:
94,145,136463,1,0,3:2:0:0:
188,124,136681,6,0,P|216:94|204:55,1,80,4|0,3:2|0:0,0:0:0:0:
298,28,137116,2,0,P|309:67|349:76,1,80,4|0,3:2|0:0,0:0:0:0:
328,171,137550,2,0,P|288:161|260:191,1,80,4|0,3:2|0:0,0:0:0:0:
188,124,137985,6,0,P|216:94|204:55,1,80,4|0,3:2|0:0,0:0:0:0:
298,28,138420,2,0,P|309:67|349:76,1,80,4|0,3:2|0:0,0:0:0:0:
328,171,138854,2,0,P|288:161|260:191,1,80,4|0,3:2|0:0,0:0:0:0:
252,281,139289,6,0,L|264:323,2,40,4|0|8,3:2|3:0|0:2,0:0:0:0:
159,308,139724,1,8,0:2:0:0:
68,339,139942,1,8,0:2:0:0:
25,242,140159,6,0,P|15:238|-21:229,2,44.0000013427735,4|0|10,3:2|3:2|0:2,0:0:0:0:
126,212,140594,1,2,3:2:0:0:
52,136,140811,1,8,0:0:0:0:
107,47,141029,2,0,P|153:86|162:132,1,88.000002685547,2|10,3:2|0:0,0:0:0:0:
237,183,141463,2,0,P|267:175|294:171,3,44.0000013427735,2|2|10|2,3:2|3:2|0:0|0:0,0:0:0:0:
325,199,141898,6,0,P|356:161|336:79,1,132.00000402832,6|2,3:2|0:0,0:0:0:0:
306,44,142333,2,0,L|314:-4,2,44.0000013427735,0|0|8,3:2|3:2|0:0,0:0:0:0:
261,72,142659,2,0,P|211:56|129:45,1,132.00000402832,2|10,3:2|0:0,0:0:0:0:
80,55,143094,1,2,3:2:0:0:
80,55,143203,2,0,L|91:107,2,44.0000013427735,0|0|8,3:2|3:2|0:0,0:0:0:0:
25,164,143637,6,0,P|60:184|110:184,1,88.000002685547,4|8,3:2|0:0,0:0:0:0:
155,163,143963,1,0,3:0:0:0:
155,163,144072,2,0,P|165:197|177:240,1,44.0000013427735,2|0,3:2|3:2,0:0:0:0:
214,229,144289,2,0,P|248:220|281:215,1,44.0000013427735,8|0,0:0|3:2,0:0:0:0:
307,203,144506,1,2,3:2:0:0:
387,271,144724,1,8,0:0:0:0:
339,365,144942,2,0,P|318:356|288:354,3,44.0000013427735,2|2|10|2,3:2|3:2|0:0|3:2,0:0:0:0:
247,369,145376,5,12,0:0:0:0:
247,369,145811,1,12,0:0:0:0:
247,369,146246,1,12,0:0:0:0:
247,369,146681,2,0,P|201:356|174:353,1,44.0000013427735,12|8,0:0|0:0,0:0:0:0:
167,318,146898,2,0,P|124:329|99:340,1,44.0000013427735,8|8,0:0|0:0,0:0:0:0:
71,320,147116,5,4,3:2:0:0:
130,233,147333,1,8,0:0:0:0:
84,137,147550,1,0,3:2:0:0:
84,137,147659,1,0,3:2:0:0:
84,137,147768,1,8,0:0:0:0:
167,72,147985,2,0,P|213:60|305:65,2,132.00000402832,2|2|10,3:2|0:0|0:2,0:0:0:0:
208,169,148855,5,2,3:2:0:0:
208,169,149072,1,8,0:0:0:0:
289,102,149289,1,0,3:2:0:0:
289,102,149507,1,8,0:0:0:0:
350,187,149724,1,8,0:0:0:0:
380,181,149833,2,0,P|411:195|418:257,2,88.000002685547,8|8|2,0:0|0:0|3:2,0:0:0:0:
329,295,150485,6,0,P|277:305|230:324,1,88.000002685547,4|4,3:2|3:2,0:0:0:0:
153,262,150920,1,2,0:0:0:0:
156,238,151029,2,0,P|163:195|177:149,1,88.000002685547,4|8,3:2|0:0,0:0:0:0:
217,120,151355,2,0,P|265:98|267:51,1,88.000002685547,4|0,3:2|3:2,0:0:0:0:
235,28,151681,2,0,P|181:40|147:58,1,88.000002685547,4|0,3:2|3:2,0:0:0:0:
122,98,152007,2,0,P|72:78|33:67,1,88.000002685547,4|0,3:2|3:2,0:0:0:0:
1,100,152332,5,8,0:0:0:0:
25,220,152550,1,0,3:0:0:0:
28,241,152659,2,0,P|80:243|100:194,1,88.000002685547,8|0,0:0|3:2,0:0:0:0:
142,187,152985,2,0,P|185:188|211:254,1,88.000002685547,8|0,0:0|3:2,0:0:0:0:
237,266,153311,2,0,P|288:278|360:296,1,88.000002685547,8|0,0:0|3:2,0:0:0:0:
363,252,153637,2,0,P|333:214|345:177,1,88.000002685547,8|0,0:0|3:2,0:0:0:0:
382,143,153963,1,0,3:2:0:0:
382,143,154072,5,2,3:2:0:0:
352,41,154289,1,0,3:2:0:0:
282,120,154506,1,0,3:0:0:0:
262,106,154616,2,0,P|215:94|168:92,1,88.000002685547,10|0,0:0|3:2,0:0:0:0:
123,100,154942,1,8,0:0:0:0:
156,199,155159,1,0,3:2:0:0:
53,175,155376,1,8,0:0:0:0:
31,187,155485,2,0,P|20:235|16:277,1,88.000002685547,0|0,3:2|3:2,0:0:0:0:
39,321,155811,5,8,0:0:0:0:
135,276,156029,1,12,3:2:0:0:
236,303,156246,1,8,0:0:0:0:
336,333,156463,1,8,0:0:0:0:
305,231,156681,1,8,0:0:0:0:
305,231,157116,2,0,P|328:243|298:216,1,176.000005371094,2|4,0:0|3:2,0:0:0:0:
71,189,164507,6,0,P|133:167|192:156,1,107.999996704102,4|4,3:2|0:3,0:0:0:0:
217,153,164942,1,4,0:3:0:0:
285,109,165159,2,0,P|277:80|268:57,2,35.9999989013672,8|8|4,0:3|0:3|0:3,0:0:0:0:
354,160,165594,2,0,P|343:194|332:213,2,35.9999989013672,8|8|4,0:3|0:3|0:3,0:0:0:0:
423,106,166029,1,8,0:3:0:0:
423,106,166137,1,8,0:3:0:0:
423,106,166246,6,0,P|441:134|440:174,1,71.9999978027344,4|4,3:2|0:3,0:0:0:0:
423,211,166572,1,8,0:3:0:0:
423,211,166681,2,0,P|409:253|422:286,1,71.9999978027344,4|8,0:3|0:3,0:0:0:0:
438,315,167007,1,8,0:3:0:0:
438,315,167116,2,0,P|388:303|335:293,1,71.9999978027344,4|8,3:2|0:3,0:0:0:0:
326,285,167442,1,8,0:3:0:0:
326,285,167550,2,0,P|286:314|251:313,1,71.9999978027344,4|8,0:3|0:3,0:0:0:0:
194,265,167985,6,0,B|170:206|249:207|217:131,1,143.999995605469,4|0,3:2|3:2,0:0:0:0:
146,82,168637,1,8,0:2:0:0:
96,153,168855,2,0,L|56:145,3,35.9999989013672,0|0|8|8,3:2|3:3|0:2|0:2,0:0:0:0:
32,178,169289,2,0,L|42:229,3,35.9999989013672,0|0|8|8,3:2|3:2|0:2|0:2,0:0:0:0:
56,252,169724,6,0,P|30:299|118:326,1,143.999995605469,0|0,3:2|3:2,0:0:0:0:
163,293,170376,1,8,0:2:0:0:
226,352,170594,2,0,L|279:344,1,35.9999989013672,0|0,3:2|0:2,0:0:0:0:
297,323,170811,2,0,L|353:314,1,35.9999989013672,8|8,0:2|0:2,0:0:0:0:
365,289,171029,2,0,L|371:253,3,35.9999989013672,0|0|0|0,3:2|3:2|3:2|3:2,0:0:0:0:
421,174,171572,6,0,P|359:180|296:180,1,88.000002685547,12|0,0:0|3:2,0:0:0:0:
280,184,171898,2,0,P|292:134|304:85,1,88.000002685547,12|0,0:0|3:2,0:0:0:0:
275,52,172224,2,0,P|198:57|186:135,1,132.00000402832,12|0,0:0|3:2,0:0:0:0:
201,203,172768,1,8,0:0:0:0:
226,305,172984,1,2,0:0:0:0:
226,305,173094,1,2,0:0:0:0:
226,305,173202,6,0,P|176:319|120:339,1,95.9999970703126,6|10,3:2|0:2,0:0:0:0:
95,304,173529,2,0,P|108:229|115:195,1,95.9999970703126,2|2,3:2|3:2,0:0:0:0:
94,164,173855,1,10,0:2:0:0:
156,91,174072,2,0,P|211:107|254:124,1,95.9999970703126,2|10,3:2|0:2,0:0:0:0:
291,102,174398,2,0,P|353:82|405:74,1,95.9999970703126,2|2,3:2|3:2,0:0:0:0:
430,67,174724,1,10,0:2:0:0:
485,145,174942,5,2,3:2:0:0:
389,153,175159,1,10,0:2:0:0:
405,256,175375,1,2,3:2:0:0:
405,256,175485,1,0,3:2:0:0:
405,256,175594,1,10,0:2:0:0:
500,252,175811,2,0,P|492:305|458:336,1,95.9999970703126,2|10,3:2|0:2,0:0:0:0:
370,358,176246,1,2,3:2:0:0:
315,279,176463,1,8,0:2:0:0:
247,347,176681,6,0,P|193:358|139:369,1,95.9999970703126,2|10,3:2|0:2,0:0:0:0:
112,339,177007,2,0,P|115:289|170:276,1,95.9999970703126,0|0,3:0|3:2,0:0:0:0:
195,250,177333,1,10,0:2:0:0:
278,194,177550,1,2,3:2:0:0:
278,194,177659,1,2,0:2:0:0:
278,194,177768,1,10,0:2:0:0:
175,161,177985,1,2,3:2:0:0:
199,68,178202,1,10,0:2:0:0:
293,88,178420,5,4,3:2:0:0:
368,29,178637,2,0,P|412:18|470:14,2,95.9999970703126,10|2|10,0:2|3:2|0:2,0:0:0:0:
424,106,179289,1,8,0:2:0:0:
437,126,179398,1,10,0:2:0:0:
387,208,179616,1,2,3:2:0:0:
459,270,179833,2,0,P|420:302|366:300,1,95.9999970703126,2|0,3:2|3:2,0:0:0:0:
331,284,180159,6,0,P|284:303|286:360,1,95.9999970703126,6|10,3:2|0:2,0:0:0:0:
248,382,180485,2,0,P|200:366|147:355,1,95.9999970703126,2|2,3:2|3:2,0:0:0:0:
109,343,180811,1,10,0:2:0:0:
51,265,181029,2,0,P|96:246|167:264,1,95.9999970703126,2|10,3:2|0:2,0:0:0:0:
186,267,181355,1,2,3:2:0:0:
186,267,181463,1,0,3:2:0:0:
262,209,181681,1,10,0:2:0:0:
158,159,181898,5,2,3:2:0:0:
125,48,182116,1,10,0:2:0:0:
235,14,182333,1,2,3:2:0:0:
275,121,182550,1,10,0:2:0:0:
335,46,182768,6,0,L|386:57,1,47.9999985351563,10|0,0:2|0:0,0:0:0:0:
428,67,182985,2,0,L|479:80,1,47.9999985351563,8|0,0:2|0:0,0:0:0:0:
495,122,183202,2,0,L|440:133,1,47.9999985351563,10|0,0:2|0:0,0:0:0:0:
400,139,183420,2,0,L|345:150,1,47.9999985351563,8|0,0:2|0:0,0:0:0:0:
325,187,183637,6,0,P|344:237|419:238,1,95.9999970703126,4|10,3:2|0:2,0:0:0:0:
427,239,183963,2,0,P|417:291|405:341,1,95.9999970703126,2|2,3:2|3:2,0:0:0:0:
384,375,184289,1,10,0:2:0:0:
304,320,184507,1,2,3:2:0:0:
210,343,184724,1,10,0:2:0:0:
116,365,184942,1,2,3:2:0:0:
146,274,185159,1,10,0:2:0:0:
73,211,185376,5,4,3:2:0:0:
138,140,185594,1,10,0:2:0:0:
138,140,185702,1,0,0:2:0:0:
138,140,185811,2,0,P|148:86|160:41,1,95.9999970703126,2|10,3:2|0:2,0:0:0:0:
251,72,186246,1,8,0:2:0:0:
277,79,186355,1,0,3:2:0:0:
370,101,186572,1,0,3:2:0:0:
304,170,186789,2,0,P|332:199|393:197,1,95.9999970703126,4|2,3:2|3:2,0:0:0:0:
433,200,187116,6,0,P|420:267|414:310,1,95.9999970703126,6|8,3:2|0:2,0:0:0:0:
413,342,187442,2,0,P|364:317|302:309,1,95.9999970703126,2|2,3:2|3:2,0:0:0:0:
279,328,187768,1,10,0:2:0:0:
205,266,187985,1,2,3:2:0:0:
233,154,188202,1,10,0:2:0:0:
121,124,188420,1,2,3:2:0:0:
88,234,188637,1,10,0:2:0:0:
6,156,188855,6,0,P|47:120|131:130,1,132.00000402832,12|0,0:2|0:2,0:0:0:0:
155,149,189289,2,0,P|167:196|245:233,1,132.00000402832,12|0,0:2|0:2,0:0:0:0:
268,264,189724,2,0,P|297:277|357:272,2,58.6666684570313,8|0|0,0:2|3:2|3:2,0:0:0:0:
319,195,190159,2,0,P|348:182|408:187,2,58.6666684570313,8|8|8,0:2|0:2|0:2,0:0:0:0:
242,152,190594,6,0,P|232:93|207:38,1,95.9999970703126,6|0,3:2|0:2,0:0:0:0:
179,31,190920,1,2,3:2:0:0:
179,31,191029,2,0,P|149:32|116:26,3,47.9999985351563,8|0|2|2,0:2|0:2|3:2|3:2,0:0:0:0:
88,50,191463,2,0,P|77:83|78:115,3,47.9999985351563,10|0|2|0,0:2|0:2|3:2|3:2,0:0:0:0:
106,131,191897,1,10,0:2:0:0:
105,164,192006,1,8,0:2:0:0:
103,197,192115,1,0,3:0:0:0:
97,229,192223,1,0,3:0:0:0:
93,262,192333,5,6,3:2:0:0:
266,196,192768,1,4,3:2:0:0:
436,282,193202,1,12,3:2:0:0:
436,282,193637,2,0,P|382:288|387:350,1,95.9999970703126,8|8,0:2|0:2,0:0:0:0:
357,368,193963,1,8,0:2:0:0:
357,368,194072,6,0,P|306:360|249:353,1,95.9999970703126,2|10,3:2|0:2,0:0:0:0:
193,287,194507,2,0,P|205:232|219:185,1,95.9999970703126,0|10,3:2|0:2,0:0:0:0:
298,127,194942,1,0,3:2:0:0:
395,167,195159,1,10,0:2:0:0:
435,69,195376,1,2,3:2:0:0:
336,28,195594,1,10,0:2:0:0:
298,127,195811,6,0,P|249:147|190:120,1,95.9999970703126,2|8,3:2|0:2,0:0:0:0:
173,112,196137,1,2,3:2:0:0:
173,112,196246,1,0,3:2:0:0:
81,84,196462,1,10,3:2:0:0:
28,165,196681,2,0,P|36:224|45:261,1,95.9999970703126,2|8,3:2|0:2,0:0:0:0:
72,298,197006,1,2,3:2:0:0:
72,298,197115,1,0,3:2:0:0:
151,244,197333,1,10,0:2:0:0:
211,318,197550,6,0,L|192:367,2,47.9999985351563,2|2|10,3:2|0:2|0:2,0:0:0:0:
289,262,197985,1,0,3:2:0:0:
374,306,198202,2,0,P|387:245|356:188,1,95.9999970703126,10|0,0:2|3:2,0:0:0:0:
297,159,198637,1,10,0:2:0:0:
208,196,198855,1,2,3:2:0:0:
208,196,198963,1,2,3:2:0:0:
208,196,199072,1,10,0:2:0:0:
126,137,199289,6,0,P|138:79|149:38,1,95.9999970703126,2|8,3:2|0:2,0:0:0:0:
180,7,199616,1,2,3:2:0:0:
180,7,199723,1,0,3:2:0:0:
254,68,199942,1,10,0:2:0:0:
332,13,200159,1,8,0:2:0:0:
359,22,200268,1,10,0:2:0:0:
446,52,200484,1,2,3:2:0:0:
373,116,200702,2,0,P|385:155|435:176,1,95.9999970703126,10|0,0:2|3:2,0:0:0:0:
475,199,201029,6,0,P|402:209|351:225,1,95.9999970703126,6|8,3:2|0:2,0:0:0:0:
307,276,201463,2,0,P|248:263|199:256,1,95.9999970703126,2|8,3:2|0:2,0:0:0:0:
117,243,201897,2,0,P|81:292|96:328,1,95.9999970703126,2|10,3:2|0:2,0:0:0:0:
130,356,202224,1,2,3:2:0:0:
130,356,202333,2,0,P|193:344|234:345,1,95.9999970703126,0|10,3:2|0:2,0:0:0:0:
307,276,202767,6,0,P|296:221|283:172,1,95.9999970703126,2|8,3:2|0:2,0:0:0:0:
266,138,203094,1,2,3:2:0:0:
266,138,203202,1,0,3:2:0:0:
174,106,203420,1,10,0:2:0:0:
101,168,203637,6,0,L|109:224,1,47.9999985351563,10|0,0:2|0:0,0:0:0:0:
113,263,203855,2,0,L|121:319,1,47.9999985351563,8|0,3:2|0:0,0:0:0:0:
158,339,204072,2,0,L|231:324,1,47.9999985351563,10|0,0:2|0:0,0:0:0:0:
251,317,204289,2,0,L|324:302,1,47.9999985351563,8|0,0:2|0:0,0:0:0:0:
345,297,204507,6,0,P|350:272|370:247,3,47.9999985351563,8|0|8|0,0:2|3:0|3:2|3:0,0:0:0:0:
399,222,204942,2,0,P|373:186|343:176,3,47.9999985351563,8|0|8|0,0:2|3:0|0:2|3:0,0:0:0:0:
327,163,205376,2,0,P|285:188|261:187,3,47.9999985351563,8|0|8|0,0:2|3:0|0:2|3:0,0:0:0:0:
241,172,205811,2,0,P|217:154|178:152,3,47.9999985351563,8|0|10|0,0:2|3:0|0:2|3:0,0:0:0:0:
170,112,206246,6,0,P|174:82|181:57,3,47.9999985351563,10|0|8|0,0:2|3:0|0:2|3:0,0:0:0:0:
214,32,206681,2,0,P|245:52|262:76,3,47.9999985351563,8|0|10|0,0:2|3:0|0:2|3:0,0:0:0:0:
290,88,207116,2,0,P|311:56|329:37,3,47.9999985351563,10|0|10|0,0:2|3:0|0:2|3:0,0:0:0:0:
364,32,207550,2,0,P|399:40|438:43,4,47.9999985351563,10|0|10|0|8,0:2|3:2|0:2|3:0|3:2,0:0:0:0:
441,70,208094,6,0,P|417:109|421:161,1,95.9999970703126,12|0,0:2|3:2,0:0:0:0:
453,192,208420,2,0,P|417:235|363:225,1,95.9999970703126,12|0,0:2|3:2,0:0:0:0:
332,238,208746,2,0,P|317:280|309:333,1,95.9999970703126,12|0,0:2|3:2,0:0:0:0:
276,365,209072,2,0,P|239:358|170:353,1,95.9999970703126,12|0,0:2|3:2,0:0:0:0:
85,365,209507,1,0,3:2:0:0:
38,265,209724,5,0,3:2:0:0:
67,267,209833,2,0,P|112:266|161:236,1,95.9999970703126,12|0,0:2|3:2,0:0:0:0:
192,210,210159,2,0,P|175:170|209:130,1,95.9999970703126,12|0,0:2|3:2,0:0:0:0:
252,132,210485,2,0,P|291:87|306:26,1,95.9999970703126,12|0,0:2|3:2,0:0:0:0:
272,16,210811,2,0,P|213:3|160:0,1,95.9999970703126,12|0,3:2|3:2,0:0:0:0:
82,15,211246,1,0,3:2:0:0:
37,121,211463,5,0,3:2:0:0:
59,132,211572,2,0,P|98:121|166:110,1,95.9999970703126,14|0,0:2|3:2,0:0:0:0:
195,133,211898,2,0,P|225:172|288:165,1,95.9999970703126,14|0,0:2|3:2,0:0:0:0:
313,194,212224,2,0,P|339:246|355:300,1,95.9999970703126,12|0,0:2|3:2,0:0:0:0:
395,300,212550,2,0,P|411:234|431:192,1,95.9999970703126,12|0,0:2|3:2,0:0:0:0:
469,124,212985,1,0,3:2:0:0:
399,57,213202,5,12,0:2:0:0:
334,128,213420,1,8,0:2:0:0:
265,61,213637,1,8,0:2:0:0:
251,82,213746,1,8,0:2:0:0:
172,69,213926,2,0,P|161:183|237:199,1,207.999993652344,8|0,0:0|3:2,0:0:0:0:
255,194,214506,5,12,0:2:0:0:
256,192,214616,12,0,221463,3:2:0:0:
