osu file format v14

[General]
AudioFilename: audio.mp3
AudioLeadIn: 0
PreviewTime:172333
Countdown: 0
SampleSet: Soft
StackLeniency: 0.5
Mode: 0
LetterboxInBreaks: 0
WidescreenStoryboard: 1

[Editor]
Bookmarks: 1030,20160,25377,27116,32334,34073,41029,41899,47986,49725,56682,65377,67116,72443,74073,79290,81899,83638,88855,91464,93203,98420,100159,107116,108855,115811,122768,124507,129724,131463,136681,139289,140159,145376,147116,150594,151029,151463,151898,152333,154072,155811,157550,164507,167985,169724,171463,173202,180159,187116,194072,201029,204507,207985,214507,221463
DistanceSpacing: 1
BeatDivisor: 6
GridSize: 32
TimelineZoom: 2.6

[Metadata]
Title:Jinsei Easy?
TitleUnicode:人生イージー?
Artist:DIALOGUE+
ArtistUnicode:DIALOGUE+
Creator:Amateurre
Version:LV.1 Winnie's Easy
Source:弱キャラ友崎くん
Tags:anime japanese pop j-pop jpop opening jaku chara tomozaki kun bottom tier character tomozaki-kun iljaaz keqing finshie kuse KuBsNia_ZhoYL_ winnie yogurtt lecandy asagi tsukinyuni matha petal
BeatmapID:3130107
BeatmapSetID:1507979

[Difficulty]
HPDrainRate:3
CircleSize:3
OverallDifficulty:3.5
ApproachRate:4
SliderMultiplier:0.999999999999999
SliderTickRate:1

[Events]
//Background and Video events
0,0,"DoqxyrCVAAAO5X.jpg",0,0
//Break Periods
2,67208,72753
//Storyboard Layer 0 (Background)
//Storyboard Layer 1 (Fail)
//Storyboard Layer 2 (Pass)
//Storyboard Layer 3 (Foreground)
//Storyboard Layer 4 (Overlay)
//Storyboard Sound Samples

[TimingPoints]
1030,434.782608695652,4,2,1,60,1,0
6247,-100,4,2,1,70,0,0
13203,-100,4,2,1,75,0,0
20160,-100,4,2,1,60,0,0
27116,-100,4,2,1,70,0,0
49725,-100,4,2,1,80,0,1
66247,-100,4,2,1,80,0,0
67008,-100,4,2,1,65,0,0
72443,-100,4,2,1,70,0,0
83638,434.782608695652,4,2,1,70,1,0
93203,434.782608695652,4,2,1,70,1,0
108855,-100,4,2,1,80,0,1
124507,-100,4,2,1,65,0,0
131463,-100,4,2,1,70,0,1
135811,-100,4,2,1,70,0,0
136246,-100,4,2,1,70,0,0
136681,-100,4,2,1,70,0,1
136789,-100,4,2,1,70,0,0
137116,-100,4,2,1,70,0,1
137224,-100,4,2,1,70,0,0
137442,-100,4,2,1,70,0,0
137550,-100,4,2,1,70,0,1
137659,-100,4,2,1,70,0,0
137876,-100,4,2,1,70,0,0
137984,-100,4,2,1,70,0,0
137985,-100,4,2,1,70,0,1
138094,-100,4,2,1,70,0,0
138311,-100,4,2,1,70,0,0
138419,-100,4,2,1,70,0,0
138420,-100,4,2,1,70,0,1
138529,-100,4,2,1,70,0,0
138746,-100,4,2,1,70,0,0
138854,-100,4,2,1,70,0,0
138855,-100,4,2,1,70,0,1
138963,-100,4,2,1,70,0,0
139181,-100,4,2,1,70,0,0
139289,-100,4,2,1,70,0,0
140159,217.391304347826,4,2,1,75,1,1
140159,-200,4,2,1,75,0,1
145376,-200,4,2,1,75,0,0
145485,-200,4,2,1,75,0,0
145811,-200,4,2,1,75,0,1
145919,-200,4,2,1,75,0,0
146245,-200,4,2,1,75,0,1
146354,-200,4,2,1,75,0,0
146680,-200,4,2,1,75,0,1
146789,-200,4,2,1,75,0,0
147115,-200,4,2,1,75,0,1
155811,-200,4,2,1,75,0,0
156028,-200,4,2,1,75,0,1
156680,-200,4,2,1,75,0,0
157550,434.782608695652,4,2,1,60,1,0
157550,-100,4,2,1,60,0,0
164506,-100,4,2,1,70,0,0
173202,217.391304347826,4,2,1,80,1,1
173202,-200,4,2,1,80,0,1
179289,-200,4,2,1,80,0,1
180159,-200,4,2,1,80,0,1
192278,-200,4,2,1,80,0,0
192332,-200,4,2,1,80,0,1
192441,-200,4,2,1,80,0,0
192767,-200,4,2,1,80,0,1
192875,-200,4,2,1,80,0,0
193202,-200,4,2,1,80,0,1
193310,-200,4,2,1,80,0,0
194072,-200,4,2,1,70,0,0

[Colours]
Combo1 : 255,166,166
Combo2 : 130,219,77
Combo3 : 255,108,108
Combo4 : 164,255,164

[HitObjects]
47,313,1030,6,0,L|153:299,1,99.9999999999999,2|2,0:0|0:0,0:0:0:0:
236,257,1899,1,2,0:0:0:0:
308,325,2334,1,8,0:0:0:0:
407,336,2769,6,0,L|394:236,1,99.9999999999999,10|2,0:0|0:0,0:0:0:0:
452,155,3638,1,2,0:0:0:0:
420,60,4073,1,8,0:0:0:0:
319,69,4508,6,0,P|276:89|221:83,1,99.9999999999999,6|10,3:2|0:0,0:0:0:0:
133,42,5377,2,0,B|121:93|121:93|152:184,1,125,8|8,3:2|3:0,0:0:0:0:
104,275,6356,6,0,L|193:258,1,74.9999999999999,6|4,3:2|3:2,0:0:0:0:
261,294,7008,2,0,L|334:308,1,74.9999999999999,4|0,3:2|3:2,0:0:0:0:
381,345,7551,1,12,0:0:0:0:
417,253,7986,5,6,3:2:0:0:
256,136,8856,2,0,B|209:153|209:153|160:142,1,99.9999999999999,4|0,3:2|0:0,0:0:0:0:
101,61,9725,2,0,B|54:43|54:43|5:54,2,99.9999999999999,4|0|4,3:2|0:0|3:2,0:0:0:0:
188,142,11029,1,2,3:2:0:0:
119,240,11464,6,0,L|136:325,1,74.9999999999999,14|14,0:0|0:0,0:0:0:0:
219,341,12116,2,0,L|274:327,1,50,14|14,3:2|3:2,0:0:0:0:
371,269,12769,1,8,0:0:0:0:
475,328,13203,6,0,P|490:280|472:219,1,99.9999999999999,6|8,3:2|0:0,0:0:0:0:
380,244,14073,2,0,P|365:196|383:135,1,99.9999999999999,0|10,3:0|0:0,0:0:0:0:
386,48,14943,2,0,L|277:34,1,99.9999999999999,4|8,3:2|0:0,0:0:0:0:
188,54,15812,2,0,L|89:41,1,99.9999999999999,0|10,3:0|0:0,0:0:0:0:
38,127,16682,5,4,3:2:0:0:
54,225,17116,1,8,0:0:0:0:
11,316,17551,2,0,P|67:325|147:259,1,150,0|2,3:0|0:0,0:0:0:0:
226,212,18529,6,0,L|221:136,1,74.9999999999999,4|4,3:2|3:2,0:0:0:0:
311,130,19182,2,0,L|317:262,1,125,4|12,3:2|0:0,0:0:0:0:
289,351,20160,6,0,P|338:355|382:334,2,99.9999999999999,6|0|2,3:2|3:2|3:2,0:0:0:0:
218,280,21464,1,2,3:2:0:0:
147,350,21899,2,0,P|98:354|54:333,2,99.9999999999999,6|0|2,3:2|3:2|3:2,0:0:0:0:
218,280,23203,1,2,3:2:0:0:
141,216,23638,6,0,L|129:108,1,99.9999999999999,2|0,3:2|3:0,0:0:0:0:
184,34,24508,2,0,L|283:45,1,99.9999999999999,2|10,3:2|0:2,0:0:0:0:
397,82,25377,6,0,B|410:114|410:114|405:153,1,74.9999999999999,12|12,0:2|0:2,0:0:0:0:
315,148,26029,2,0,B|309:188|309:188|322:220,1,74.9999999999999,12|12,0:2|0:2,0:0:0:0:
382,287,26682,1,12,0:2:0:0:
333,374,27116,6,0,L|216:358,1,99.9999999999999,6|8,3:2|0:0,0:0:0:0:
187,271,27986,1,2,3:2:0:0:
98,318,28421,1,10,0:2:0:0:
21,253,28856,6,0,B|-2:211|-2:211|0:142,1,99.9999999999999,2|8,3:2|0:0,0:0:0:0:
29,63,29725,2,0,L|132:45,1,99.9999999999999,2|10,3:2|0:2,0:0:0:0:
214,94,30595,5,2,3:2:0:0:
300,43,31029,1,8,0:0:0:0:
381,100,31464,2,0,P|408:133|405:196,1,99.9999999999999,2|10,3:2|0:2,0:0:0:0:
355,296,32334,6,0,L|289:282,1,50,12|12,0:2|3:2,0:0:0:0:
225,244,32877,2,0,L|136:261,1,74.9999999999999,12|4,0:2|3:2,0:0:0:0:
57,182,33638,1,0,0:0:0:0:
95,79,34073,6,0,P|75:50|77:6,2,74.9999999999999,4|0|0,3:2|3:2|3:2,0:0:0:0:
146,110,34943,2,0,L|264:125,1,99.9999999999999,8|4,0:2|0:3,0:0:0:0:
315,220,35812,2,0,P|334:188|336:147,2,74.9999999999999,4|0|0,3:2|3:2|3:2,0:0:0:0:
267,257,36682,2,0,L|289:367,1,99.9999999999999,8|4,0:2|0:3,0:0:0:0:
166,357,37551,6,0,L|148:267,1,74.9999999999999,4|0,3:2|3:2,0:0:0:0:
132,195,38203,2,0,L|67:184,1,50,0|8,3:2|0:2,0:0:0:0:
54,69,38856,2,0,L|183:89,1,125,8|4,0:2|3:2,0:0:0:0:
248,32,39725,1,4,3:2:0:0:
387,87,40377,2,0,L|474:101,1,74.9999999999999,6|6,3:2|3:2,0:0:0:0:
471,203,41029,6,0,P|440:242|441:305,1,99.9999999999999,6|8,3:2|0:2,0:0:0:0:
351,344,41899,2,0,P|312:313|263:309,1,99.9999999999999,2|8,3:2|0:2,0:0:0:0:
166,336,42769,2,0,L|56:349,1,99.9999999999999,2|10,3:2|0:2,0:0:0:0:
45,251,43638,2,0,L|155:238,1,99.9999999999999,2|8,3:2|0:2,0:0:0:0:
202,157,44508,6,0,B|258:148|258:148|278:128|278:128|347:115,1,150,6|2,3:2|3:2,0:0:0:0:
372,77,45377,1,0,3:2:0:0:
454,20,45812,1,2,3:2:0:0:
470,118,46247,6,0,B|481:181|481:181|502:201|502:201|510:257,1,150,2|2,3:2|3:2,0:0:0:0:
498,306,47116,1,2,3:2:0:0:
417,365,47551,1,8,0:0:0:0:
329,317,47986,6,0,L|219:307,1,99.9999999999999,4|4,3:2|3:2,0:0:0:0:
229,207,48856,2,0,L|328:197,1,99.9999999999999,8|8,0:0|0:0,0:0:0:0:
416,246,49725,6,0,P|426:217|409:142,1,99.9999999999999,4|8,3:2|0:0,0:0:0:0:
351,72,50595,2,0,P|306:92|240:79,1,99.9999999999999,2|8,3:2|0:0,0:0:0:0:
166,44,51464,2,0,P|164:18|137:-14,2,50,2|2|10,3:2|0:0|0:2,0:0:0:0:
104,122,52334,2,0,P|89:165|103:217,1,99.9999999999999,2|8,3:2|0:0,0:0:0:0:
172,287,53203,5,2,3:2:0:0:
257,235,53638,1,8,0:0:0:0:
325,308,54073,2,0,B|352:348|352:348|403:358|403:358|467:322,1,150,2|2,3:2|0:0,0:0:0:0:
479,296,54943,2,0,L|469:188,1,99.9999999999999,4|10,3:2|0:0,0:0:0:0:
370,207,55812,2,0,L|385:79,1,125,8|2,0:0|3:2,0:0:0:0:
322,17,56682,5,4,3:2:0:0:
224,40,57116,1,8,0:0:0:0:
127,67,57551,2,0,P|102:113|119:172,1,99.9999999999999,2|8,3:2|0:0,0:0:0:0:
208,178,58421,1,2,3:2:0:0:
248,264,58856,1,8,0:0:0:0:
167,322,59290,2,0,L|99:332,2,50,0|0|8,3:2|0:0|0:0,0:0:0:0:
248,264,60160,6,0,L|350:280,1,99.9999999999999,4|8,3:2|0:0,0:0:0:0:
428,336,61029,2,0,B|445:289|445:289|428:222,1,99.9999999999999,0|8,3:2|0:0,0:0:0:0:
465,145,61899,1,0,3:2:0:0:
434,51,62334,1,2,0:0:0:0:
338,13,62769,2,0,L|263:16,1,74.9999999999999,8|0,0:0|3:2,0:0:0:0:
228,136,63638,6,0,L|111:142,1,99.9999999999999,4|8,3:2|0:0,0:0:0:0:
29,129,64508,2,0,P|24:153|32:179,2,50,8|0|2,0:0|3:2|3:2,0:0:0:0:
91,50,65377,5,8,0:0:0:0:
179,3,65812,1,4,3:2:0:0:
248,74,66247,1,12,0:0:0:0:
337,28,66682,6,0,B|362:28|362:28|366:21|366:21|376:20|376:20|381:26|381:26|419:20,1,74.9999999999999,0|2,0:0|0:0,0:0:0:0:
94,271,74073,6,0,P|114:308|110:345,2,74.9999999999999,0|0|8,3:2|3:2|0:0,0:0:0:0:
254,79,75812,2,0,P|252:41|271:10,2,74.9999999999999,10|10|8,3:2|3:2|3:2,0:0:0:0:
412,272,77551,2,0,P|392:309|396:346,2,74.9999999999999,8|4|4,0:0|3:2|3:2,0:0:0:0:
453,243,78421,2,0,L|446:126,1,99.9999999999999,8|8,3:2|0:0,0:0:0:0:
382,41,79290,6,0,L|295:29,1,74.9999999999999,4|4,3:2|3:2,0:0:0:0:
244,94,79943,2,0,L|153:110,2,74.9999999999999,4|4|4,3:2|3:2|3:2,0:0:0:0:
312,151,80921,2,0,P|332:188|324:237,2,74.9999999999999,4|4|4,3:2|3:2|3:2,0:0:0:0:
244,94,81899,1,4,3:2:0:0:
244,94,83638,6,0,L|136:82,1,99.9999999999999,4|8,3:2|0:0,0:0:0:0:
111,177,84507,2,0,L|219:189,1,99.9999999999999,2|10,3:2|0:2,0:0:0:0:
271,267,85377,2,0,B|261:316|261:316|287:366,1,99.9999999999999,2|8,3:2|0:0,0:0:0:0:
384,360,86246,2,0,B|407:315|407:315|397:266,1,99.9999999999999,2|10,3:2|0:2,0:0:0:0:
425,170,87116,6,0,L|408:66,1,99.9999999999999,2|8,3:2|0:0,0:0:0:0:
338,0,87985,1,2,3:2:0:0:
237,0,88420,1,10,0:2:0:0:
166,70,88855,6,0,L|154:134,1,50,12|12,0:2|0:2,0:0:0:0:
222,180,89398,2,0,L|232:260,1,74.9999999999999,12|4,0:2|3:2,0:0:0:0:
173,323,90051,2,0,P|131:336|89:315,2,74.9999999999999,4|4|4,3:2|3:2|3:2,0:0:0:0:
231,254,91029,2,0,L|319:265,1,74.9999999999999,4|4,3:2|3:2,0:0:0:0:
305,263,92768,6,0,L|372:250,1,50,2|2,0:0|0:0,0:0:0:0:
397,228,93203,2,0,P|374:183|387:115,1,99.9999999999999,4|0,3:2|3:0,0:0:0:0:
472,164,94072,2,0,P|494:120|491:70,1,99.9999999999999,2|0,3:2|3:0,0:0:0:0:
404,22,94942,6,0,L|299:31,1,99.9999999999999,2|0,3:2|3:0,0:0:0:0:
224,91,95811,1,2,3:2:0:0:
148,24,96246,1,2,3:2:0:0:
63,77,96681,6,0,B|46:124|46:124|62:180,1,99.9999999999999,2|0,3:2|3:0,0:0:0:0:
149,217,97550,2,0,B|166:264|166:264|150:320,2,99.9999999999999,2|10|2,3:2|0:2|3:2,0:0:0:0:
179,121,98855,1,6,3:2:0:0:
310,49,99507,2,0,B|348:56|348:56|390:36,1,74.9999999999999,6|6,3:2|3:2,0:0:0:0:
485,39,100159,6,0,B|459:87|459:87|468:143,1,99.9999999999999,4|8,3:2|3:0,0:0:0:0:
422,221,101029,2,0,P|453:259|447:316,1,99.9999999999999,0|8,3:2|3:0,0:0:0:0:
365,359,101898,1,8,3:2:0:0:
286,297,102333,1,0,3:2:0:0:
201,350,102768,2,0,B|154:366|154:366|90:347,1,99.9999999999999,8|8,0:0|0:0,0:0:0:0:
61,262,103637,6,0,L|52:161,1,99.9999999999999,8|8,3:2|0:0,0:0:0:0:
115,86,104507,1,8,0:0:0:0:
200,137,104942,1,8,0:0:0:0:
266,62,105376,6,0,L|383:74,1,99.9999999999999,12|8,0:2|0:0,0:0:0:0:
463,52,106246,2,0,P|493:97|487:163,1,99.9999999999999,8|12,0:0|0:0,0:0:0:0:
486,241,107116,1,12,0:0:0:0:
401,188,107550,1,12,0:0:0:0:
371,283,107985,2,0,P|320:253|305:204,1,99.9999999999999,12|12,0:0|0:0,0:0:0:0:
274,121,108855,6,0,B|239:111|229:97|229:97|215:109|169:114,1,99.9999999999999,4|8,3:2|0:0,0:0:0:0:
97,61,109724,2,0,P|82:102|102:174,1,99.9999999999999,2|8,3:2|0:0,0:0:0:0:
110,254,110594,2,0,P|99:276|105:318,2,50,2|2|10,3:2|0:0|0:2,0:0:0:0:
202,210,111463,2,0,B|250:222|250:222|305:199,1,99.9999999999999,2|8,3:2|0:0,0:0:0:0:
393,228,112333,5,0,3:2:0:0:
410,129,112768,1,2,0:0:0:0:
325,76,113203,2,0,B|283:106|283:106|238:106|238:106|176:68,1,150,2|2,3:2|0:0,0:0:0:0:
142,82,114072,2,0,L|28:94,1,99.9999999999999,4|10,3:2|0:0,0:0:0:0:
25,197,114942,2,0,L|164:182,1,125,8|2,0:0|3:2,0:0:0:0:
215,245,115811,6,0,P|236:206|226:139,1,99.9999999999999,4|8,3:2|0:0,0:0:0:0:
332,151,116681,2,0,P|327:200|349:244,1,99.9999999999999,2|8,3:2|0:0,0:0:0:0:
420,315,117550,2,0,P|405:334|400:370,2,50,4|2|10,3:2|0:2|0:2,0:0:0:0:
490,243,118420,1,0,3:0:0:0:
431,161,118855,1,8,0:0:0:0:
490,81,119289,6,0,L|382:66,1,99.9999999999999,4|8,3:2|0:0,0:0:0:0:
296,100,120159,1,0,3:0:0:0:
222,32,120594,1,8,0:0:0:0:
137,84,121029,6,0,B|164:125|164:125|152:185,1,99.9999999999999,4|10,3:2|0:0,0:0:0:0:
136,273,121898,2,0,L|219:260,1,74.9999999999999,8|0,0:0|3:2,0:0:0:0:
312,332,122768,6,0,L|424:314,1,99.9999999999999,4|8,3:2|0:0,0:0:0:0:
410,216,123637,2,0,L|311:200,1,99.9999999999999,8|2,0:0|3:2,0:0:0:0:
226,254,124507,6,0,P|158:202|236:148,1,200,4|8,3:2|0:2,0:0:0:0:
309,200,125811,1,4,0:3:0:0:
392,255,126246,2,0,P|460:203|382:149,1,200,4|8,3:2|0:2,0:0:0:0:
309,200,127550,1,4,0:3:0:0:
270,108,127985,6,0,B|236:86|241:41|241:41|196:103|121:80,1,200,4|8,3:2|0:2,0:0:0:0:
85,10,129289,1,8,0:2:0:0:
14,80,129724,2,0,P|43:117|36:178,1,99.9999999999999,4|0,3:2|3:2,0:0:0:0:
112,237,130594,2,0,P|83:274|90:335,1,99.9999999999999,8|8,0:2|0:2,0:0:0:0:
179,358,131463,6,0,L|299:345,1,99.9999999999999,4|10,3:2|0:2,0:0:0:0:
358,286,132333,1,2,3:2:0:0:
300,204,132768,1,8,0:2:0:0:
394,171,133203,2,0,P|398:122|371:80,1,99.9999999999999,0|10,3:2|0:2,0:0:0:0:
308,2,134072,1,2,3:2:0:0:
230,65,134507,1,10,0:2:0:0:
153,0,134942,6,0,L|43:15,1,99.9999999999999,4|0,3:2|3:2,0:0:0:0:
53,113,135811,2,0,L|163:128,1,99.9999999999999,0|0,3:2|3:2,0:0:0:0:
251,113,136681,6,0,P|243:64|265:20,2,99.9999999999999,4|4|4,3:2|3:2|3:2,0:0:0:0:
348,137,137985,2,0,P|370:181|362:229,1,99.9999999999999,4|4,3:2|3:2,0:0:0:0:
323,320,138855,1,4,3:2:0:0:
224,337,139289,2,0,L|72:314,1,150,4|8,3:2|0:2,0:0:0:0:
36,282,140159,6,0,B|20:234|20:234|26:183,1,99.9999999999999,4|2,3:2|3:2,0:0:0:0:
53,88,141029,2,0,B|79:78|100:89|100:89|118:70|162:69,1,99.9999999999999,2|2,3:2|3:2,0:0:0:0:
241,101,141898,2,0,B|288:103|288:103|316:55,1,99.9999999999999,6|0,3:2|3:2,0:0:0:0:
410,29,142767,1,0,3:2:0:0:
467,111,143202,1,0,3:0:0:0:
402,187,143637,6,0,B|427:232|427:232|415:286,1,99.9999999999999,4|2,3:2|3:2,0:0:0:0:
330,330,144507,2,0,B|265:343|265:343|237:315,1,99.9999999999999,2|2,0:0|3:2,0:0:0:0:
146,286,145376,5,12,0:0:0:0:
216,215,145811,1,12,0:0:0:0:
145,144,146246,1,12,0:0:0:0:
215,73,146681,1,12,0:0:0:0:
294,134,147116,6,0,B|353:160|353:160|390:149,1,99.9999999999999,4|0,3:2|3:2,0:0:0:0:
486,135,147985,2,0,B|504:151|484:179|484:179|465:200|467:234,1,99.9999999999999,0|0,3:0|3:0,0:0:0:0:
450,324,148855,2,0,P|405:346|356:343,1,99.9999999999999,2|0,3:2|3:2,0:0:0:0:
296,216,149724,1,8,0:0:0:0:
193,237,150050,2,0,L|138:248,2,50,8|2|4,0:0|3:2|3:2,0:0:0:0:
195,86,151029,6,0,L|275:69,2,74.9999999999999,4|4|4,3:2|3:2|3:2,0:0:0:0:
106,123,152007,2,0,L|25:106,2,74.9999999999999,4|8|8,3:2|0:0|0:0,0:0:0:0:
186,190,152985,1,8,0:0:0:0:
268,153,153311,1,8,0:0:0:0:
325,222,153637,2,0,P|306:252|307:311,1,74.9999999999999,8|0,0:0|3:2,0:0:0:0:
371,347,154289,6,0,L|447:337,2,74.9999999999999,0|2|8,3:2|3:2|0:0,0:0:0:0:
269,318,155268,2,0,L|199:327,1,50,0|0,3:0|3:2,0:0:0:0:
58,254,156029,2,0,B|49:207|49:207|63:170|63:170|46:102,1,150,12|8,3:2|0:0,0:0:0:0:
82,15,157116,1,2,0:0:0:0:
175,50,157550,6,0,P|218:71|286:61,1,99.9999999999999,4|0,3:2|3:0,0:0:0:0:
354,15,158420,2,0,P|403:11|448:33,1,99.9999999999999,2|0,3:2|3:0,0:0:0:0:
386,112,159289,2,0,P|366:158|380:216,1,99.9999999999999,2|2,3:2|3:2,0:2:0:0:
467,243,160159,2,0,P|487:289|473:347,1,99.9999999999999,0|0,3:0|3:0,0:0:0:0:
384,372,161029,5,0,3:0:0:0:
307,309,161463,1,0,3:0:0:0:
213,344,161898,2,0,L|106:331,1,99.9999999999999,0|0,3:0|3:0,0:0:0:0:
96,233,162768,2,0,B|199:244|199:244|288:190,1,200,0|8,3:0|0:3,0:0:0:0:
323,103,164072,1,4,0:3:0:0:
409,153,164507,6,0,P|443:186|443:257,2,99.9999999999999,4|4|4,3:2|0:3|0:3,0:0:0:0:
343,76,165811,1,4,0:3:0:0:
248,107,166246,2,0,P|229:87|216:46,2,50,4|4|4,3:2|0:3|0:3,0:0:0:0:
318,178,167116,2,0,L|297:275,1,99.9999999999999,4|4,3:2|0:3,0:0:0:0:
209,324,167985,6,0,L|188:227,1,99.9999999999999,4|0,3:2|3:2,0:0:0:0:
223,132,168855,1,0,3:2:0:0:
176,43,169289,1,0,3:2:0:0:
98,106,169724,2,0,L|0:123,1,99.9999999999999,4|0,3:2|3:2,0:0:0:0:
42,213,170594,2,0,L|150:227,1,99.9999999999999,0|0,3:2|3:2,0:0:0:0:
253,325,171572,6,0,L|344:313,1,74.9999999999999,12|12,0:0|0:0,0:0:0:0:
430,335,172223,1,12,3:2:0:0:
495,252,172550,2,0,B|448:230|448:230|384:239,1,99.9999999999999,0|0,3:0|0:0,0:0:0:0:
311,220,173202,6,0,P|290:176|307:125,1,99.9999999999999,6|0,3:2|3:0,0:0:0:0:
262,37,174072,1,2,3:2:0:0:
167,69,174507,1,0,3:0:0:0:
75,29,174942,2,0,B|45:70|45:70|48:136,1,99.9999999999999,2|2,3:2|3:2,0:0:0:0:
49,218,175811,2,0,L|53:273,2,50,2|10|2,0:2|0:2|3:2,0:0:0:0:
133,164,176681,6,0,B|182:183|182:183|241:156,1,99.9999999999999,2|0,3:2|3:0,0:0:0:0:
249,66,177550,1,2,3:2:0:0:
338,111,177985,1,2,0:2:0:0:
418,52,178420,2,0,P|443:95|435:156,1,99.9999999999999,4|2,3:2|3:2,0:0:0:0:
363,207,179289,2,0,B|384:230|390:264|390:264|371:289|379:341,1,125,8|2,0:2|3:2,0:0:0:0:
299,367,180159,6,0,L|192:374,1,99.9999999999999,6|0,3:2|3:0,0:0:0:0:
187,273,181029,2,0,L|294:266,1,99.9999999999999,2|0,3:2|3:2,0:0:0:0:
365,204,181898,1,2,3:2:0:0:
424,284,182333,1,2,3:2:0:0:
493,212,182768,2,0,P|493:185|505:154,2,50,10|8|10,0:2|0:2|0:2,0:0:0:0:
508,310,183637,6,0,P|480:355|420:369,1,99.9999999999999,4|0,3:2|3:0,0:0:0:0:
359,307,184507,1,2,3:2:0:0:
266,343,184942,1,2,3:2:0:0:
185,283,185376,2,0,L|171:173,1,99.9999999999999,4|2,3:2|3:2,0:0:0:0:
92,123,186246,2,0,B|59:142|59:142|11:136,1,74.9999999999999,8|0,0:2|3:2,0:0:0:0:
161,31,187116,6,0,B|204:9|204:9|267:20,1,99.9999999999999,6|0,3:2|3:0,0:0:0:0:
337,74,187985,2,0,B|358:59|358:59|393:55,2,50,2|10|2,3:2|0:2|3:2,0:0:0:0:
264,143,188855,2,0,L|275:245,1,99.9999999999999,12|12,0:2|0:2,0:0:0:0:
365,283,189724,2,0,L|375:183,1,99.9999999999999,8|8,0:2|0:2,0:0:0:0:
438,107,190594,6,0,P|405:85|341:91,1,99.9999999999999,6|8,3:2|0:2,0:0:0:0:
263,144,191463,1,10,0:2:0:0:
189,76,191898,1,10,0:2:0:0:
102,126,192333,2,0,B|79:174|79:174|95:221,2,99.9999999999999,6|4|12,3:2|3:2|3:2,0:0:0:0:
189,76,193637,1,8,0:2:0:0:
288,65,194072,6,0,B|326:74|326:74|346:68|346:68|388:79,1,99.9999999999999,2|0,0:2|3:2,0:0:0:0:
459,144,194942,2,0,B|444:177|458:203|458:203|465:224|454:248,1,99.9999999999999,0|2,3:2|3:2,0:0:0:0:
372,294,195811,2,0,P|322:292|288:331,1,99.9999999999999,2|0,3:2|3:2,0:0:0:0:
189,326,196681,2,0,P|155:291|106:293,1,99.9999999999999,2|0,3:2|3:2,0:0:0:0:
24,237,197550,6,0,B|4:201|4:201|17:140,1,99.9999999999999,2|0,3:2|3:2,0:0:0:0:
114,122,198420,1,0,3:2:0:0:
46,47,198855,1,2,3:2:0:0:
136,4,199289,2,0,B|181:20|181:20|243:14,1,99.9999999999999,2|0,3:2|3:2,0:0:0:0:
333,14,200159,2,0,B|384:19|384:19|429:3,1,99.9999999999999,8|0,0:2|3:0,0:0:0:0:
486,85,201029,6,0,B|473:112|473:112|490:157|490:157|479:179,1,99.9999999999999,6|2,3:2|3:2,0:0:0:0:
466,275,201898,2,0,P|438:297|370:294,1,99.9999999999999,2|0,0:2|3:2,0:0:0:0:
288,247,202767,1,2,3:2:0:0:
351,169,203202,1,0,3:2:0:0:
337,66,203636,2,0,L|234:86,1,99.9999999999999,8|8,0:0|0:0,0:0:0:0:
169,157,204507,6,0,B|125:179|125:179|63:172,2,99.9999999999999,8|8|8,0:2|0:2|0:2,0:0:0:0:
239,86,205811,1,8,0:2:0:0:
309,15,206246,2,0,B|350:-5|350:-5|409:0,2,99.9999999999999,10|8|10,0:2|0:2|0:2,0:0:0:0:
239,86,207550,2,0,B|178:82|178:82|129:38,1,125,10|12,0:2|0:2,0:0:0:0:
65,101,208420,6,0,B|69:124|89:133|89:133|76:146|75:175,1,74.9999999999999,12|12,0:2|0:2,0:0:0:0:
66,251,209072,2,0,B|40:248|40:248|2:224,2,50,12|0|0,0:2|3:2|3:2,0:0:0:0:
149,216,209833,2,0,B|183:225|183:225|197:207|197:207|234:202,1,74.9999999999999,12|12,0:2|0:2,0:0:0:0:
277,140,210485,1,12,0:2:0:0:
338,206,210811,2,0,B|324:229|324:229|320:261,2,50,12|0|0,3:2|3:2|3:2,0:0:0:0:
415,158,211572,6,0,B|399:125|399:125|402:83,1,74.9999999999999,14|14,0:2|0:2,0:0:0:0:
346,15,212224,1,12,0:2:0:0:
283,79,212550,2,0,B|259:78|234:99|234:99|198:103|198:103|169:81|137:96,1,150,12|12,0:2|0:2,0:0:0:0:
39,155,213637,2,0,L|51:222,1,66.6666666666666,8|8,0:2|0:2,0:0:0:0:
168,284,214507,1,12,0:2:0:0:
256,192,214724,12,0,221463,3:2:0:0:
